<?xml version="1.0" standalone="no"?>
<!DOCTYPE svg PUBLIC "-//W3C//DTD SVG 1.1//EN" "http://www.w3.org/Graphics/SVG/1.1/DTD/svg11.dtd" >
<svg xmlns="http://www.w3.org/2000/svg">
<metadata>Generated by IcoMoon</metadata>
<defs>
<font id="rui-icon" horiz-adv-x="1024">
<font-face units-per-em="1024" ascent="960" descent="-64" />
<missing-glyph horiz-adv-x="1024" />
<glyph unicode="&#x20;" horiz-adv-x="512" d="" />
<glyph unicode="&#xe800;" glyph-name="arrow-right" horiz-adv-x="366" d="M328.704 448q0-14.336-10.24-25.6l-256-256q-11.264-11.264-25.6-11.264t-25.6 11.264-11.264 25.6v512q0 15.36 11.264 25.6t25.6 11.264 25.6-11.264l256-256q10.24-10.24 10.24-25.6z" />
<glyph unicode="&#xe801;" glyph-name="plus" d="M1024 385.536h-449.536v-449.536h-124.928v449.536h-449.536v124.928h449.536v449.536h133.12v-449.536h449.536v-124.928z" />
<glyph unicode="&#xe802;" glyph-name="search" horiz-adv-x="1074" d="M462.756 36.348c-254.976 0-462.848 205.824-462.848 460.8s207.872 462.848 462.848 462.848 460.8-207.872 460.8-462.848-205.824-460.8-460.8-460.8zM462.756 830.972c-183.296 0-331.776-149.504-331.776-331.776s148.48-331.776 331.776-331.776 331.776 148.48 331.776 331.776c0 180.224-149.504 331.776-331.776 331.776zM797.604 304.636l276.48-275.456-91.136-93.184-276.48 277.504 91.136 91.136z" />
<glyph unicode="&#xe803;" glyph-name="tv" horiz-adv-x="1282" d="M1118.208 960h-954.368c-90.112 0-163.84-73.728-163.84-163.84v-501.76c0-90.112 73.728-163.84 163.84-163.84h425.984v-91.136c-59.392 0-157.696 0-212.992 0-112.64 0-108.544-103.424-108.544-103.424h746.496c0 0 4.096 103.424-109.568 103.424-54.272 0-152.576 0-212.992 0v91.136h425.984c91.136 0 163.84 73.728 163.84 163.84v501.76c0 90.112-72.704 163.84-163.84 163.84zM1180.672 294.4c0-33.792-28.672-60.416-60.416-60.416h-956.416c-33.792 0-60.416 28.672-60.416 60.416v501.76c0 33.792 28.672 60.416 60.416 60.416h954.368c33.792 0 60.416-26.624 60.416-60.416v-501.76z" />
<glyph unicode="&#xe804;" glyph-name="user" horiz-adv-x="999" d="M500.736 849.408c2.048 0 2.048 0 5.12 0 0 0 0 0 0 0v0c21.504 0 44.032-4.096 61.44-13.312 21.504-8.192 41.984-21.504 57.344-38.912 15.36-18.432 28.672-41.984 39.936-73.728 8.192-28.672 13.312-65.536 13.312-107.52 0-32.768-5.12-64.512-11.264-93.184-7.168-28.672-15.36-52.224-28.672-74.752-7.168-9.216-11.264-15.36-17.408-24.576-5.12-6.144-7.168-13.312-7.168-21.504 0-7.168-2.048-17.408-2.048-22.528v-63.488c4.096-20.48 32.768-24.576 53.248-30.72 23.552-9.216 28.672-9.216 61.44-22.528 32.768-11.264 30.72-11.264 51.2-17.408 17.408-7.168 32.768-13.312 48.128-20.48 19.456-8.192 46.080-25.6 55.296-44.032 6.144-15.36 9.216-46.080 9.216-46.080s0-57.344 0-68.608c0-11.264 0-21.504-18.432-21.504-15.36 0-730.112 0-745.472 0-15.36 2.048-15.36 10.24-15.36 23.552 0 11.264 0 68.608 0 68.608s0 30.72 8.192 46.080c9.216 20.48 35.84 35.84 55.296 45.056 15.36 6.144 28.672 10.24 49.152 19.456 17.408 6.144 17.408 6.144 50.176 17.408 30.72 11.264 35.84 13.312 62.464 22.528 19.456 6.144 48.128 13.312 52.224 30.72v63.488c0 7.168 0 15.36-2.048 22.528-2.048 9.216-4.096 15.36-6.144 21.504-5.12 9.216-11.264 16.384-18.432 24.576-12.288 22.528-21.504 46.080-28.672 74.752-6.144 28.672-10.24 60.416-10.24 93.184 0 41.984 4.096 79.872 13.312 108.544 8.192 28.672 21.504 52.224 38.912 72.704 16.384 17.408 35.84 32.768 57.344 39.936 20.48 6.144 39.936 10.24 62.464 12.288v0c0 0 0 0 0 0s0 0 4.096 0c0 0 0 0 0 0s0 0 2.048 0c-2.048-2.048 0-2.048 0-2.048s0 0 0 0 0 0 0 0 0 0 0 0zM500.736 960c0 0 0 0 0 0s0 0 0 0 0 0 0 0c-2.048 0-2.048 0-2.048 0s0 0 0 0 0 0 0 0c-4.096 0-9.216 0-15.36 0-30.72-2.048-61.44-9.216-90.112-19.456-39.936-15.36-72.704-39.936-101.376-70.656-26.624-28.672-47.104-66.56-62.464-110.592-13.312-39.936-19.456-86.016-19.456-141.312 0-41.984 4.096-81.92 15.36-118.784 11.264-41.984 21.504-73.728 39.936-102.4 0-2.048 2.048-2.048 2.048-4.096 2.048-2.048 4.096-6.144 6.144-8.192-8.192-3.072-19.456-7.168-36.864-13.312l-11.264-5.12c-22.528-8.192-26.624-8.192-44.032-15.36l-9.216-2.048c-15.36-6.144-28.672-11.264-44.032-17.408-24.576-11.264-83.968-41.984-110.592-99.328-13.312-32.768-17.408-72.704-17.408-93.184 0 0 0-2.048 0-2.048v-68.608c0-86.016 64.512-132.096 128-132.096h745.472c64.512 0 128 46.080 128 132.096 0 11.264 0 68.608 0 68.608s0 2.048 0 2.048c0 20.48-4.096 57.344-17.408 91.136-26.624 57.344-86.016 88.064-110.592 99.328-15.36 6.144-28.672 10.24-40.96 17.408l-9.216 4.096c-17.408 7.168-19.456 9.216-44.032 15.36l-11.264 5.12c-17.408 6.144-28.672 8.192-37.888 13.312 3.072 2.048 5.12 6.144 7.168 8.192 0 0 2.048 2.048 2.048 2.048 15.36 28.672 28.672 60.416 39.936 101.376 8.192 37.888 15.36 79.872 15.36 119.808 0 55.296-7.168 101.376-19.456 141.312-13.312 44.032-35.84 81.92-62.464 110.592-28.672 30.72-61.44 54.272-99.328 69.632-28.672 11.264-59.392 18.432-90.112 20.48-11.264 2.048-17.408 2.048-22.528 2.048v0z" />
<glyph unicode="&#xe805;" glyph-name="mail" horiz-adv-x="1365" d="M1185.792 960h-1036.288c-48.128 0-95.232-23.552-113.664-65.536-23.552-54.272-6.144-113.664 41.984-149.504l538.624-384c41.984-29.696 96.256-29.696 138.24 0l389.12 275.456-6.144 12.288c-23.552 29.696-53.248 54.272-95.232 54.272-24.576 0-48.128-6.144-66.56-24.576l-292.864-208.896-497.664 358.4h1000.448c29.696 0 48.128-23.552 48.128-47.104v-665.6c0-29.696-24.576-47.104-48.128-47.104h-1006.592c-29.696 0-47.104 23.552-47.104 47.104v281.6h-132.096v-281.6c0-95.232 83.968-179.2 179.2-179.2h1006.592c96.256 0 179.2 83.968 179.2 179.2v665.6c0 101.376-77.824 179.2-179.2 179.2z" />
<glyph unicode="&#xe806;" glyph-name="wifi" horiz-adv-x="1022" d="M510.653 207.944c30.527 0 53.423-22.896 53.423-53.423s-22.896-53.423-53.423-53.423-53.423 22.896-53.423 53.423 22.896 53.423 53.423 53.423zM648.026 345.317c-38.159 38.159-87.419 56.892-140.842 56.892s-103.377-18.733-140.842-56.892l-80.481-80.481 76.318-64.524 76.318 76.318c18.733 18.733 45.791 30.527 72.156 30.527s53.423-11.795 72.849-30.527l76.318-76.318 75.625 64.524-87.419 80.481zM510.653 794.902c-151.943 0-293.479-61.055-400.325-163.738l-110.315-111.009 76.318-64.524 102.683 102.683c88.113 88.113 206.060 137.373 331.638 137.373s244.219-49.26 331.638-137.373l103.377-102.683 76.318 64.524-111.009 111.009c-106.846 106.846-251.157 163.738-400.325 163.738zM510.653 604.106c-102.683 0-197.734-41.628-270.583-110.315l-95.051-95.051 76.318-65.218 91.582 91.582c53.423 53.423 125.578 83.95 201.897 83.95s148.474-30.527 201.897-83.95l91.582-91.582 76.318 65.218-95.745 95.051c-79.787 68.687-174.838 110.315-278.215 110.315z" />
<glyph unicode="&#xe807;" glyph-name="lock-small" horiz-adv-x="768" d="M683.008 545.28c0 0 2.048 0 2.048 0s5.12 99.328 5.12 99.328c0 174.080-107.52 316.416-282.624 316.416-174.080 0-322.56-142.336-322.56-316.416 0 0 0-99.328 0-99.328s-30.72 0-30.72 0c-27.648 0-54.272-12.288-54.272-39.936 0 0 0-506.88 0-506.88 0-27.648 22.528-51.2 51.2-51.2 0 0 665.6 0 665.6 0 28.672 0 51.2 23.552 51.2 51.2 0 0 0 506.88 0 506.88 0 27.648-57.344 39.936-84.992 39.936zM171.008 644.608c0 117.76 100.352 237.568 218.112 237.568s214.016-119.808 214.016-237.568c0 0 0-99.328 0-99.328s-432.128 0-432.128 0c0 0 0 99.328 0 99.328zM681.984 33.28c0 0-595.968 0-595.968 0s0 425.984 0 425.984c0 0 43.008 0 43.008 0s518.144 0 518.144 0c0 0 34.816 0 34.816 0s0-425.984 0-425.984z" />
<glyph unicode="&#xe808;" glyph-name="automation" horiz-adv-x="1584" d="M201.728-64h1175.552c110.592 0 201.728 91.136 201.728 201.728v620.544c0 110.592-91.136 201.728-201.728 201.728h-1175.552c-110.592 0-201.728-91.136-201.728-201.728v-620.544c0-110.592 91.136-201.728 201.728-201.728zM125.952 758.272c0 39.936 35.84 75.776 75.776 75.776h1175.552c39.936 0 75.776-35.84 75.776-75.776v-620.544c0-39.936-35.84-75.776-75.776-75.776h-1175.552c-39.936 0-75.776 35.84-75.776 75.776v620.544zM403.456 182.784v404.48l-105.472-80.896-65.536 95.232 181.248 131.072h115.712v-544.768h-125.952zM1044.48 551.424c0-30.72-5.12-60.416-15.36-91.136-10.24-24.576-25.6-55.296-45.056-79.872l-131.072-197.632h-156.672l136.192 187.392c-5.12 0-10.24-5.12-20.48-5.12-5.12 0-15.36 0-20.48 0-24.576 0-45.056 5.12-70.656 15.36-19.456 9.216-39.936 19.456-55.296 34.816-14.336 15.36-29.696 35.84-39.936 55.296-10.24 20.48-15.36 46.080-15.36 70.656 0 30.72 5.12 60.416 15.36 86.016s25.6 45.056 45.056 60.416c20.48 15.36 40.96 30.72 70.656 39.936 25.6 10.24 55.296 15.36 86.016 15.36 29.696 0 55.296-5.12 86.016-15.36 24.576-9.216 50.176-19.456 70.656-39.936 19.456-15.36 34.816-34.816 45.056-60.416 10.24-20.48 15.36-45.056 15.36-75.776zM918.528 551.424c0 25.6-10.24 45.056-25.6 60.416s-35.84 25.6-60.416 25.6c-25.6 0-45.056-10.24-65.536-25.6-15.36-15.36-25.6-34.816-25.6-65.536 0-25.6 10.24-45.056 25.6-60.416s34.816-25.6 60.416-25.6 45.056 10.24 60.416 25.6c20.48 20.48 30.72 39.936 30.72 65.536zM1346.56 627.2c0-15.36-5.12-35.84-10.24-50.176-4.096-15.36-14.336-25.6-24.576-35.84s-25.6-20.48-40.96-24.576c-14.336-5.12-29.696-10.24-45.056-10.24s-29.696 5.12-45.056 10.24c-15.36 4.096-25.6 14.336-40.96 24.576-10.24 10.24-19.456 20.48-24.576 35.84-5.12 19.456-5.12 34.816-5.12 50.176s5.12 34.816 10.24 45.056c5.12 15.36 14.336 25.6 24.576 35.84s25.6 19.456 40.96 24.576c14.336 5.12 29.696 10.24 45.056 10.24s35.84-5.12 45.056-10.24c15.36-5.12 25.6-14.336 40.96-24.576 10.24-10.24 19.456-20.48 24.576-35.84 5.12-10.24 5.12-24.576 5.12-45.056zM1275.904 627.2c0 15.36-5.12 25.6-9.216 34.816-10.24 10.24-20.48 15.36-35.84 15.36s-25.6-5.12-34.816-15.36c-10.24-9.216-10.24-19.456-10.24-34.816s5.12-25.6 10.24-35.84c9.216-9.216 19.456-14.336 34.816-14.336s25.6 5.12 35.84 14.336c4.096 10.24 9.216 25.6 9.216 35.84z" />
<glyph unicode="&#xe809;" glyph-name="bundles" horiz-adv-x="1026" d="M923.648 672.256c0-43.008-34.816-77.824-77.824-77.824h-107.52c-43.008 0-78.848 34.816-78.848 77.824v106.496c0 43.008 35.84 77.824 78.848 77.824h105.472c43.008 0 78.848-34.816 78.848-77.824v-106.496zM843.776 960h-105.472c-100.352 0-180.224-81.92-180.224-180.224v-105.472c0-100.352 81.92-180.224 180.224-180.224h105.472c100.352 0 180.224 81.92 180.224 180.224v105.472c2.048 98.304-79.872 180.224-180.224 180.224zM365.568 672.256c0-43.008-34.816-77.824-77.824-77.824h-106.496c-43.008 0-77.824 34.816-77.824 77.824v106.496c0 43.008 34.816 77.824 77.824 77.824h106.496c43.008 0 77.824-34.816 77.824-77.824v-106.496zM287.744 960h-106.496c-99.328 0-181.248-81.92-181.248-180.224v-105.472c0-100.352 81.92-180.224 180.224-180.224h105.472c100.352 0 180.224 81.92 180.224 180.224v105.472c2.048 98.304-79.872 180.224-178.176 180.224zM923.648 116.224c0-43.008-34.816-78.848-77.824-78.848h-107.52c-43.008 0-78.848 35.84-78.848 78.848v105.472c0 43.008 35.84 78.848 78.848 78.848h105.472c43.008 0 78.848-35.84 78.848-78.848v-105.472zM843.776 403.968h-105.472c-100.352 0-180.224-81.92-180.224-180.224v-106.496c0-99.328 81.92-180.224 180.224-180.224h105.472c100.352 0 180.224 81.92 180.224 180.224v104.448c2.048 100.352-79.872 182.272-180.224 182.272zM365.568 116.224c0-43.008-34.816-78.848-77.824-78.848h-106.496c-43.008 0-77.824 35.84-77.824 78.848v105.472c0 43.008 34.816 78.848 77.824 78.848h106.496c43.008 0 77.824-35.84 77.824-78.848v-105.472zM287.744 403.968h-106.496c-99.328 0-181.248-81.92-181.248-182.272v-105.472c0-100.352 81.92-180.224 180.224-180.224h105.472c100.352 0 180.224 81.92 180.224 180.224v105.472c2.048 100.352-79.872 182.272-178.176 182.272z" />
<glyph unicode="&#xe80a;" glyph-name="button-left" d="M512-64c282.624 0 512 229.376 512 512s-229.376 512-512 512c-282.624 0-512-229.376-512-512s229.376-512 512-512zM303.104 448c0 27.648 11.264 55.296 30.72 74.752l229.376 229.376c0 0 40.96-31.744 0-72.704s-193.536-193.536-193.536-193.536c-10.24-8.192-15.36-23.552-15.36-37.888 0 0 0 0 0 0s0 0 0 0c0-14.336 5.12-27.648 15.36-37.888 0 0 152.576-152.576 193.536-193.536s0-72.704 0-72.704l-229.376 228.352c-19.456 20.48-30.72 46.080-30.72 75.776 0 0 0 0 0 0s0 0 0 0z" />
<glyph unicode="&#xe80b;" glyph-name="button-right" d="M512 960c-282.624 0-512-229.376-512-512s229.376-512 512-512c282.624 0 512 229.376 512 512s-229.376 512-512 512zM720.896 448c0-27.648-11.264-55.296-30.72-74.752l-229.376-229.376c0 0-40.96 31.744 0 72.704s193.536 193.536 193.536 193.536c10.24 10.24 15.36 23.552 15.36 37.888 0 0 0 0 0 0s0 0 0 0c0 14.336-5.12 27.648-15.36 37.888 0 0-152.576 152.576-193.536 193.536s0 72.704 0 72.704l229.376-229.376c19.456-19.456 30.72-45.056 30.72-74.752 0 0 0 0 0 0s0 0 0 0z" />
<glyph unicode="&#xe80c;" glyph-name="call" horiz-adv-x="1056" d="M279.552 852.48c4.096 0 8.192 0 12.288-1.024 12.288-4.096 25.6-32.768 30.72-45.056 19.456-32.768 36.864-66.56 56.32-99.328 9.216-15.36 26.624-33.792 26.624-52.224 0-34.816-105.472-87.040-105.472-117.76 0-16.384 15.36-36.864 22.528-50.176 59.392-106.496 133.12-180.224 238.592-238.592 14.336-8.192 34.816-22.528 50.176-22.528 31.744 0 82.944 105.472 118.784 105.472 18.432 0 36.864-17.408 52.224-26.624 31.744-19.456 65.536-37.888 99.328-56.32 11.264-6.144 39.936-18.432 44.032-30.72 2.048-4.096 2.048-8.192 2.048-12.288 0-21.504-9.216-61.44-18.432-80.896-12.288-28.672-45.056-47.104-70.656-61.44-34.816-19.456-69.632-29.696-108.544-29.696-54.272 0-103.424 21.504-152.576 39.936-35.84 12.288-69.632 28.672-102.4 48.128-98.304 61.44-218.112 180.224-278.528 279.552-20.48 31.744-35.84 66.56-49.152 102.4-17.408 49.152-39.936 98.304-39.936 151.552 0 39.936 11.264 74.752 29.696 108.544 14.336 26.624 33.792 59.392 61.44 71.68 19.456 8.192 60.416 17.408 80.896 17.408zM279.552 960c-34.816 0-90.112-12.288-123.904-26.624-62.464-27.648-94.208-86.016-112.64-117.76 0 0 0 0 0 0s0-1.024 0-1.024c-28.672-52.224-43.008-104.448-43.008-159.744 0-65.536 20.48-119.808 38.912-167.936 3.072-7.168 5.12-13.312 8.192-20.48 16.384-45.056 34.816-84.992 57.344-121.856 69.632-112.64 201.728-244.736 314.368-314.368 36.864-22.528 76.8-41.984 121.856-58.368 7.168-2.048 14.336-5.12 21.504-7.168 48.128-18.432 102.4-38.912 167.936-38.912 54.272 0 106.496 13.312 159.744 41.984 0 0 0 1.024 0 1.024s1.024 0 1.024 0c30.72 17.408 89.088 50.176 116.736 111.616 15.36 33.792 27.648 90.112 27.648 124.928 0 8.192 0 27.648-9.216 50.176-19.456 51.2-67.584 74.752-93.184 87.040 0 0-1.024 1.024-1.024 1.024-11.264 6.144-21.504 11.264-31.744 17.408-21.504 12.288-41.984 23.552-62.464 34.816-2.048 1.024-4.096 3.072-5.12 4.096-19.456 13.312-54.272 38.912-102.4 38.912-63.488 0-104.448-45.056-137.216-84.992-70.656 43.008-120.832 93.184-163.84 163.84 39.936 32.768 83.968 73.728 83.968 137.216 0 48.128-24.576 83.968-38.912 102.4-1.024 2.048-2.048 4.096-3.072 6.144-12.288 19.456-23.552 39.936-35.84 62.464-5.12 10.24-11.264 20.48-17.408 30.72 0 0 0 1.024 0 1.024-13.312 26.624-36.864 74.752-87.040 93.184-22.528 9.216-41.984 9.216-51.2 9.216 0 0 0 0 0 0z" />
<glyph unicode="&#xe80d;" glyph-name="camera" horiz-adv-x="1074" d="M201.728-64h670.72c111.616 0 201.728 91.136 201.728 201.728v620.544c0 110.592-90.112 201.728-201.728 201.728h-670.72c-110.592 0-201.728-91.136-201.728-201.728v-620.544c0-110.592 91.136-201.728 201.728-201.728zM125.952 758.272c0 39.936 35.84 75.776 75.776 75.776h670.72c40.96 0 75.776-35.84 75.776-75.776v-620.544c0-39.936-34.816-75.776-75.776-75.776h-670.72c-39.936 0-75.776 35.84-75.776 75.776v620.544zM605.184 742.912h-131.072c-125.952 0-227.328-100.352-227.328-226.304v-132.096c0-125.952 101.376-226.304 227.328-226.304h131.072c125.952 0 227.328 100.352 227.328 226.304v132.096c0 120.832-101.376 226.304-227.328 226.304zM701.44 380.416c0-56.32-46.080-101.376-101.376-101.376h-125.952c-55.296 0-100.352 45.056-100.352 101.376v136.192c0 55.296 45.056 100.352 100.352 100.352h131.072c55.296 0 101.376-45.056 101.376-100.352v-136.192zM282.624 708.096c0 34.816-30.72 65.536-65.536 65.536-35.84 0-65.536-30.72-65.536-65.536 0-35.84 29.696-65.536 65.536-65.536 34.816 0 65.536 29.696 65.536 65.536z" />
<glyph unicode="&#xe80e;" glyph-name="cart" horiz-adv-x="1174" d="M377.856 44.544c50.176 0 91.136-40.96 91.136-92.16s-40.96-92.16-91.136-92.16-92.16 40.96-92.16 92.16c0 51.2 40.96 92.16 92.16 92.16zM960.512 44.544c50.176 0 91.136-40.96 91.136-92.16s-40.96-92.16-91.136-92.16-92.16 40.96-92.16 92.16c0 51.2 40.96 92.16 92.16 92.16zM1048.576 624.128l-505.856 101.376c-57.344 9.216-112.64-24.576-122.88-81.92v-2.048l609.28-124.928c30.72-4.096 52.224-32.768 52.224-63.488v-174.080c0-35.84-29.696-64.512-63.488-64.512h-645.12c-35.84 0-64.512 29.696-64.512 64.512v530.432c0 40.96-33.792 74.752-74.752 74.752h-121.856c-52.224 0-95.232-41.984-95.232-95.232v-12.288h177.152c3.072 0 7.168-4.096 7.168-7.168v-490.496c0-95.232 76.8-172.032 172.032-172.032h645.12c95.232 0 172.032 76.8 172.032 172.032v174.080c0 83.968-59.392 155.648-141.312 171.008z" />
<glyph unicode="&#xe80f;" glyph-name="device-protection" horiz-adv-x="928" d="M833.536 258.56c0 20.48-16.384 36.864-36.864 36.864s-36.864-16.384-36.864-36.864 16.384-36.864 36.864-36.864c19.456-1.024 36.864 16.384 36.864 36.864zM398.336 438.784h-104.448v104.448h-70.656v-104.448h-104.448v-69.632h104.448v-105.472h70.656v105.472h104.448v69.632zM191.488 543.232v32.768h1.024c-39.936 149.504-30.72 301.056-25.6 357.376l303.104 89.088 304.128-89.088c3.072-27.648 6.144-75.776 5.12-136.192h75.776c2.048 97.28-9.216 165.888-10.24 169.984-2.048 14.336-13.312 26.624-26.624 30.72l-336.896 100.352c-6.144 2.048-15.36 2.048-21.504 0l-336.896-99.328c-14.336-4.096-24.576-16.384-26.624-30.72-1.024-6.144-24.576-160.768 6.144-336.896 10.24-57.344 24.576-110.592 44.032-158.72h46.080l-1.024 70.656zM543.744 272.896c-22.528-14.336-46.080-27.648-73.728-36.864-57.344 22.528-105.472 55.296-144.384 94.208v-98.304h-2.048c39.936-30.72 83.968-54.272 134.144-71.68 4.096-1.024 8.192-2.048 12.288-2.048h2.048c4.096 0 8.192 1.024 12.288 2.048 20.48 8.192 40.96 16.384 60.416 26.624 0 1.024 0 1.024 0 2.048l-1.024 83.968zM901.12 764.416h-175.104c0 0-13.312-70.656 70.656-70.656 82.944 0 105.472 0 105.472 0 23.552 0 41.984-19.456 41.984-41.984v-462.848c0-24.576-19.456-41.984-41.984-41.984h-212.992c-23.552 0-41.984 18.432-41.984 41.984v702.464h-70.656v-702.464c0-62.464 50.176-113.664 112.64-113.664h211.968c62.464 0 113.664 51.2 113.664 113.664v462.848c0 62.464-51.2 112.64-113.664 112.64z" />
<glyph unicode="&#xe810;" glyph-name="home-phone" horiz-adv-x="551" d="M389.12 91.648h-225.28c-66.56 0-120.832 54.272-120.832 120.832v747.52h74.752v-747.52c0-25.6 20.48-46.080 46.080-46.080h225.28c25.6 0 46.080 20.48 46.080 46.080v493.568c0 25.6-20.48 46.080-46.080 46.080 0 0-51.2 0-117.76 0-68.608 0-68.608 74.752-68.608 74.752h186.368c66.56 0 120.832-54.272 120.832-120.832v-493.568c0-68.608-54.272-120.832-120.832-120.832zM550.912 10.752h-550.912c0 0-3.072-74.752 79.872-74.752 60.416 0 194.56 0 194.56 0v0c0 0 135.168 0 194.56 0 86.016 0 81.92 74.752 81.92 74.752z" />
<glyph unicode="&#xe811;" glyph-name="home-security" horiz-adv-x="1160" d="M915.456 136.704c0-57.344-46.080-103.424-103.424-103.424h-465.92c-57.344 0-103.424 46.080-103.424 103.424v226.304h-97.28v-226.304c0-110.592 90.112-200.704 200.704-200.704h465.92c110.592 0 200.704 90.112 200.704 200.704v226.304h-97.28v-226.304zM723.968 900.608c-38.912 37.888-88.064 59.392-142.336 59.392 0 0 0 0-2.048 0s0 0-1.024 0c-54.272 0-103.424-21.504-142.336-59.392l-436.224-436.224c0 0 59.392-78.848 138.24 0 77.824 78.848 367.616 367.616 367.616 367.616 18.432 19.456 45.056 30.72 72.704 30.72 0 0 0 0 1.024 0 0 0 0 0 2.048 0 28.672 0 54.272-11.264 72.704-30.72 0 0 289.792-288.768 367.616-367.616 78.848-78.848 138.24 0 138.24 0l-436.224 436.224z" />
<glyph unicode="&#xe812;" glyph-name="internet" horiz-adv-x="1345" d="M141.312 798.208c0 34.816 27.648 60.416 60.416 60.416h940.032c33.792 0 59.392-25.6 59.392-60.416v-493.568c0-33.792-27.648-59.392-59.392-59.392h-939.008c-33.792 0-59.392 27.648-59.392 59.392v493.568zM202.752 142.848h941.056c89.088 0 160.768 71.68 160.768 161.792v493.568c0 90.112-71.68 161.792-160.768 161.792h-941.056c-89.088 0-160.768-71.68-160.768-161.792v-493.568c0-90.112 71.68-161.792 160.768-161.792zM1344.512 37.376h-1344.512c0 0-4.096-101.376 107.52-101.376 79.872 0 1049.6 0 1129.472 0 111.616 0 107.52 101.376 107.52 101.376z" />
<glyph unicode="&#xe813;" glyph-name="live-chat" horiz-adv-x="1170" d="M1016.832 230.912c0 0-390.144 0-390.144 0s-211.968-249.856-211.968-249.856c-18.432-19.456-44.032-29.696-69.632-29.696-16.384 0-31.744 3.072-46.080 11.264-30.72 16.384-38.912 51.2-38.912 86.016 0 0 0 180.224 0 180.224s-125.952 0-125.952 0c-83.968 0-134.144 50.176-134.144 133.12 0 0 0 365.568 0 365.568s88.064 0 88.064 0c0 0 0-365.568 0-365.568 0-30.72 24.576-46.080 55.296-46.080 0 0 154.624 0 154.624 0 26.624 0 50.176-20.48 50.176-47.104 0 0 0-223.232 0-223.232s223.232 254.976 223.232 254.976c8.192 10.24 21.504 15.36 34.816 15.36 0 0 410.624 0 410.624 0 30.72 0 35.84 25.6 35.84 56.32 0 0 0 454.656 0 454.656 0 29.696-5.12 48.128-35.84 48.128 0 0-612.352 0-688.128 0-104.448 0-100.352 84.992-100.352 84.992s788.48 0 788.48 0c83.968 0 123.904-50.176 123.904-133.12 0 0 0-464.896 0-464.896 0-82.944-39.936-131.072-123.904-131.072zM535.552 551.424c0 0 0-20.48 0-20.48 0-41.984-32.768-67.584-74.752-67.584 0 0-246.784 0-246.784 0 0 52.224 43.008 88.064 95.232 88.064 0 0 226.304 0 226.304 0zM309.248 727.552c0 0 594.944 0 594.944 0s0-17.408 0-17.408c0-41.984-33.792-70.656-75.776-70.656 0 0-614.4 0-614.4 0 0 53.248 43.008 88.064 95.232 88.064z" />
<glyph unicode="&#xe814;" glyph-name="locator" horiz-adv-x="761" d="M502.784 42.496c-28.672-45.056-77.824-79.872-131.072-79.872s-101.376 34.816-130.048 79.872c-2.048 3.072-241.664 370.688-241.664 544.768 0 200.704 173.056 372.736 371.712 372.736 199.68 0 390.144-172.032 390.144-372.736 0-174.080-257.024-541.696-259.072-544.768zM371.712 849.408c-142.336 0-258.048-117.76-258.048-262.144 0-107.52 141.312-378.88 214.016-494.592 10.24-16.384 27.648-23.552 44.032-23.552 17.408 0 33.792 11.264 44.032 27.648 72.704 115.712 231.424 382.976 231.424 490.496 0 144.384-132.096 262.144-275.456 262.144zM251.904 577.024c0 65.536 53.248 119.808 119.808 119.808s120.832-54.272 120.832-119.808c0-66.56-54.272-120.832-120.832-120.832s-119.808 54.272-119.808 120.832z" />
<glyph unicode="&#xe815;" glyph-name="lock" horiz-adv-x="683" d="M437.248 544.256c93.184 0 171.008-77.824 171.008-171.008v-191.488c0-93.184-77.824-171.008-171.008-171.008h-191.488c-93.184 0-171.008 77.824-171.008 171.008v191.488c0 93.184 77.824 171.008 171.008 171.008h191.488zM437.248 619.008h-191.488c-135.168 0-245.76-110.592-245.76-245.76v-191.488c0-135.168 110.592-245.76 245.76-245.76h191.488c135.168 0 245.76 110.592 245.76 245.76v191.488c0 135.168-110.592 245.76-245.76 245.76v0zM547.84 670.208v87.040c0 27.648-6.144 53.248-16.384 75.776-13.312 33.792-36.864 62.464-65.536 83.968-34.816 26.624-78.848 43.008-124.928 43.008-47.104 0-89.088-16.384-123.904-40.96-14.336-11.264-27.648-23.552-37.888-37.888-27.648-33.792-44.032-76.8-44.032-122.88v-112.64c0 0 0 0 1.024 0 9.216 0 79.872 2.048 80.896 82.944v29.696c0 66.56 56.32 121.856 123.904 121.856 69.632 0 124.928-55.296 124.928-121.856v0-29.696c1.024-80.896 70.656-82.944 80.896-82.944h1.024v24.576zM283.648 174.592c-4.096 0-9.216 4.096-9.216 9.216l38.912 93.184c-17.408 11.264-27.648 27.648-27.648 48.128 0 29.696 24.576 55.296 55.296 55.296s55.296-24.576 55.296-55.296c0-20.48-10.24-38.912-27.648-48.128l39.936-92.16c0-5.12-4.096-10.24-8.192-10.24h-116.736zM340.992 376.32c29.696 0 52.224-22.528 52.224-51.2 0-21.504-11.264-38.912-28.672-46.080l39.936-95.232c0-3.072-2.048-5.12-5.12-5.12h-115.712c-3.072 0-6.144 2.048-6.144 5.12l40.96 95.232c-17.408 9.216-28.672 25.6-28.672 46.080-1.024 28.672 22.528 51.2 51.2 51.2zM340.992 382.464c-31.744 0-57.344-26.624-57.344-57.344 0-20.48 10.24-38.912 26.624-49.152l-37.888-90.112c0-1.024 0-1.024 0-2.048 0-7.168 5.12-11.264 11.264-11.264h115.712c6.144 0 11.264 6.144 11.264 11.264 0 1.024 0 1.024 0 2.048l-37.888 90.112c16.384 10.24 26.624 28.672 26.624 49.152 0 31.744-25.6 57.344-58.368 57.344v0z" />
<glyph unicode="&#xe816;" glyph-name="minus" d="M1024 385.536h-1024v124.928h1032.192v-124.928z" />
<glyph unicode="&#xe817;" glyph-name="north-america" horiz-adv-x="1261" d="M200.704 955.904c39.936 0 78.848 0 118.784 0 30.72-109.568 137.216-117.76 216.064-153.6 55.296-23.552 121.856-7.168 177.152 35.84 4.096-12.288 8.192-27.648 16.384-31.744 23.552-11.264 27.648 43.008 54.272 19.456 20.48-19.456 12.288-47.104-7.168-66.56-16.384-12.288-27.648-27.648-44.032-43.008-30.72-39.936-34.816-67.584 24.576-78.848 34.816-4.096 54.272-47.104 102.4-39.936 43.008 4.096 54.272 23.552 51.2 63.488-4.096 19.456 0 38.912 0 58.368 11.264 0 26.624 0 38.912 0 82.944 16.384 145.408-43.008 224.256-51.2 23.552-3.072 8.192-43.008 12.288-66.56 0-19.456 7.168-51.2 0-55.296-70.656-43.008-102.4-98.304-121.856-181.248-16.384-70.656-75.776-133.12-169.984-117.76-19.456 4.096-38.912 0-59.392 0-81.92-4.096-121.856-35.84-117.76-110.592 4.096-94.208 78.848-31.744 117.76-47.104 0-27.648 0-51.2 0-78.848-133.12-4.096-256 19.456-326.656 149.504-27.648 47.104-62.464 23.552-98.304 20.48-4.096 54.272-43.008 90.112-82.944 121.856-51.2 38.912-62.464 106.496-38.912 137.216 62.464 82.944-4.096 153.6-8.192 225.28-4.096 78.848-59.392 141.312-153.6 137.216-47.104 51.2-51.2 59.392-4.096 74.752 39.936 12.288 71.68 35.84 78.848 78.848zM831.488 89.6c27.648 0 74.752 82.944 86.016-23.552 4.096-23.552 95.232-23.552 70.656-94.208-30.72 0-62.464-8.192-86.016 26.624-19.456 27.648-47.104 8.192-70.656 12.288 0 27.648 0 51.2 0 78.848zM910.336 719.36c-8.192 16.384-12.288 31.744-24.576 44.032-23.552 34.816-26.624 62.464 24.576 74.752 74.752-19.456 23.552-78.848 38.912-118.784-12.288 0-23.552 0-38.912 0z" />
<glyph unicode="&#xe818;" glyph-name="online" horiz-adv-x="723" d="M211.968 8.704c-58.368-96.256-156.672-54.272-156.672-54.272s233.472 406.528 233.472 406.528c0 0-261.12 153.6-261.12 153.6-17.408 10.24-27.648 28.672-27.648 48.128s10.24 37.888 27.648 47.104c0 0 594.944 344.064 594.944 344.064 16.384 9.216 37.888 9.216 55.296 0 16.384-10.24 27.648-28.672 27.648-48.128 0 0 0-687.104 0-687.104s-121.856 0-121.856 0c0 0 0 590.848 0 590.848s-418.816-247.808-418.816-247.808c0 0 227.328-133.12 227.328-133.12 25.6-16.384 34.816-49.152 19.456-75.776 0 0-152.576-266.24-199.68-344.064z" />
<glyph unicode="&#xe819;" glyph-name="file" horiz-adv-x="758" d="M424.96 960h-275.456c-82.944 0-149.504-66.56-149.504-149.504v-729.088c0-82.944 66.56-149.504 149.504-149.504h458.752c82.944 0 149.504 66.56 149.504 149.504v545.792c0 28.672-12.288 54.272-29.696 70.656l-232.448 233.472c-21.504 16.384-46.080 28.672-70.656 28.672zM608.256 27.136h-458.752c-28.672 0-53.248 25.6-53.248 54.272v729.088c0 28.672 24.576 54.272 53.248 54.272h249.856v-191.488c0-29.696 25.6-54.272 54.272-54.272h203.776v-537.6c4.096-28.672-20.48-54.272-49.152-54.272z" />
<glyph unicode="&#xe81a;" glyph-name="people" horiz-adv-x="1029" d="M295.557 767.371h-76.903c-73.726 0-132.833-59.108-132.833-132.833v-76.903c0-73.726 59.108-132.833 132.833-132.833h76.903c73.726 0 132.833 59.108 132.833 132.833v76.903c0 73.726-59.108 132.833-132.833 132.833zM354.664 557.635c0-32.414-26.694-59.108-59.108-59.108h-76.903c-32.414 0-59.108 26.694-59.108 59.108v76.903c0 32.414 26.694 59.108 59.108 59.108h76.903c32.414 0 59.108-26.694 59.108-59.108v-76.903zM73.744 214.43c0 44.49 35.592 80.081 80.081 80.081h206.559c44.49 0 80.081-35.592 80.081-80.081v-85.801h73.726v85.801c0 85.801-68.005 153.807-153.807 153.807h-206.559c-85.801 0-153.807-68.005-153.807-153.807v-85.801h73.726v85.801zM809.728 767.371h-76.268c-74.361 0-133.469-59.108-133.469-132.833v-76.903c0-73.726 59.108-132.833 133.469-132.833h76.268c74.361 0 133.469 59.108 133.469 132.833v76.903c-3.178 73.726-62.285 132.833-133.469 132.833zM866.294 557.635c0-32.414-26.694-59.108-59.108-59.108h-76.903c-32.414 0-59.108 26.694-59.108 59.108v76.903c0 32.414 26.694 59.108 59.108 59.108h76.903c32.414 0 59.108-26.694 59.108-59.108v-76.903zM588.552 214.43c0 44.49 34.956 80.081 79.446 80.081h207.194c44.49 0 79.446-35.592 79.446-80.081v-85.801h74.361v85.801c0 85.801-68.005 153.807-153.807 153.807h-207.194c-85.801 0-153.807-68.005-153.807-153.807v-85.801h74.361v85.801z" />
<glyph unicode="&#xe81b;" glyph-name="arrow-left" horiz-adv-x="366" d="M365.568 704v-512q0-14.336-10.24-25.6t-26.624-11.264-25.6 11.264l-256 256q-10.24 11.264-10.24 25.6t10.24 25.6l256 256q11.264 11.264 25.6 11.264t26.624-11.264 10.24-25.6z" />
<glyph unicode="&#xe81c;" glyph-name="arrow-up" horiz-adv-x="585" d="M584.704 264.704q0-14.336-10.24-25.6t-25.6-10.24h-512q-15.36 0-25.6 10.24t-11.264 25.6 11.264 26.624l256 256q10.24 10.24 25.6 10.24t25.6-10.24l256-256q10.24-11.264 10.24-26.624z" />
<glyph unicode="&#xe81d;" glyph-name="arrow-down" horiz-adv-x="585" d="M584.704 557.568q0-14.336-10.24-25.6l-256-256q-11.264-11.264-25.6-11.264t-25.6 11.264l-256 256q-11.264 11.264-11.264 25.6t11.264 25.6 25.6 11.264h512q14.336 0 25.6-11.264t10.24-25.6z" />
<glyph unicode="&#xe81e;" glyph-name="twitter" horiz-adv-x="878" d="M731.136 611.84q-31.744-14.336-68.608-19.456 38.912 22.528 53.248 66.56-37.888-21.504-76.8-29.696-34.816 37.888-87.040 37.888-50.176 0-84.992-34.816t-35.84-84.992q0-16.384 3.072-27.648-73.728 4.096-138.24 37.888t-109.568 88.064q-16.384-28.672-16.384-60.416 0-65.536 52.224-100.352-27.648 1.024-57.344 15.36v-1.024q0-43.008 28.672-76.8t69.632-40.96q-16.384-5.12-28.672-5.12-7.168 0-22.528 2.048 12.288-35.84 43.008-59.392t68.608-23.552q-65.536-51.2-148.48-51.2-15.36 0-28.672 1.024 83.968-53.248 184.32-53.248 63.488 0 119.808 20.48t95.232 54.272 69.632 77.824 43.008 93.184 13.312 96.256q0 10.24 0 15.36 35.84 25.6 59.392 62.464zM877.568 722.432v-548.864q0-67.584-48.128-115.712t-116.736-49.152h-547.84q-68.608 0-116.736 49.152t-48.128 115.712v548.864q0 67.584 48.128 115.712t116.736 49.152h547.84q68.608 0 116.736-49.152t48.128-115.712z" />
<glyph unicode="&#xe81f;" glyph-name="os-windows" horiz-adv-x="950" d="M390.144 385.536v-372.736l-390.144 54.272v318.464h390.144zM390.144 809.472v-375.808h-390.144v322.56zM951.296 385.536v-449.536l-519.168 71.68v377.856h519.168zM951.296 887.296v-453.632h-519.168v381.952z" />
<glyph unicode="&#xe820;" glyph-name="gplus" horiz-adv-x="950" d="M419.84 505.344q0-20.48 18.432-40.96t44.032-37.888 52.224-41.984 44.032-60.416 18.432-80.896q0-51.2-27.648-98.304-40.96-69.632-120.832-103.424t-169.984-32.768q-75.776 0-141.312 24.576t-97.28 77.824q-21.504 34.816-21.504 74.752 0 47.104 25.6 86.016t67.584 65.536q74.752 47.104 230.4 57.344-18.432 24.576-26.624 41.984t-9.216 41.984q0 20.48 12.288 49.152-26.624-3.072-38.912-3.072-84.992 0-142.336 55.296t-58.368 140.288q0 46.080 20.48 90.112t56.32 74.752q44.032 37.888 104.448 56.32t124.928 18.432h238.592l-78.848-50.176h-74.752q41.984-35.84 63.488-75.776t21.504-92.16q0-40.96-13.312-73.728t-33.792-53.248-39.936-36.864-33.792-34.816-14.336-37.888zM336.896 559.616q21.504 0 44.032 10.24t37.888 24.576q30.72 32.768 30.72 91.136 0 32.768-10.24 70.656t-27.648 74.752-48.128 58.368-66.56 23.552q-24.576 0-47.104-11.264t-37.888-29.696q-26.624-33.792-26.624-91.136 0-26.624 5.12-56.32t18.432-58.368 29.696-53.248 43.008-37.888 55.296-15.36zM337.92 60.928q32.768 0 63.488 7.168t56.32 22.528 41.984 41.984 15.36 62.464q0 14.336-4.096 27.648t-8.192 24.576-15.36 23.552-16.384 19.456-22.528 20.48-20.48 16.384-23.552 16.384-21.504 15.36q-8.192 1.024-26.624 1.024-30.72 0-60.416-4.096t-61.44-14.336-55.296-25.6-38.912-43.008-15.36-60.416q0-39.936 19.456-70.656t52.224-47.104 68.608-25.6 72.704-8.192zM800.768 561.664h121.856v-61.44h-121.856v-124.928h-60.416v124.928h-120.832v61.44h120.832v123.904h60.416v-123.904z" />
<glyph unicode="&#xe821;" glyph-name="facebook" horiz-adv-x="585" d="M547.84 952.832v-150.528h-89.088q-49.152 0-66.56-20.48t-17.408-61.44v-108.544h167.936l-22.528-168.96h-145.408v-434.176h-175.104v434.176h-145.408v168.96h145.408v124.928q0 106.496 59.392 164.864t158.72 58.368q83.968 0 130.048-7.168z" />
<glyph unicode="&#xe822;" glyph-name="os-android" horiz-adv-x="804" d="M281.6 683.52q9.216 0 15.36 7.168t7.168 15.36-7.168 16.384-15.36 6.144-15.36-6.144-6.144-16.384 6.144-15.36 15.36-7.168zM523.264 683.52q9.216 0 15.36 7.168t6.144 15.36-6.144 16.384-15.36 6.144-16.384-6.144-6.144-16.384 6.144-15.36 16.384-7.168zM59.392 579.072q23.552 0 40.96-17.408t16.384-40.96v-245.76q0-24.576-16.384-41.984t-40.96-17.408-41.984 17.408-17.408 41.984v245.76q0 23.552 17.408 40.96t41.984 17.408zM664.576 567.808v-379.904q0-26.624-18.432-45.056t-44.032-18.432h-43.008v-130.048q0-24.576-16.384-40.96t-41.984-17.408-41.984 17.408-17.408 40.96v130.048h-78.848v-130.048q0-24.576-16.384-40.96t-41.984-17.408q-24.576 0-40.96 17.408t-17.408 40.96l-1.024 130.048h-41.984q-26.624 0-44.032 18.432t-18.432 45.056v379.904h524.288zM532.48 799.232q60.416-31.744 97.28-87.040t36.864-123.904h-528.384q0 67.584 35.84 123.904t98.304 87.040l-39.936 74.752q-4.096 8.192 2.048 11.264 8.192 4.096 12.288-3.072l40.96-75.776q54.272 24.576 114.688 24.576t114.688-24.576l40.96 75.776q4.096 7.168 11.264 3.072 7.168-3.072 3.072-11.264zM804.864 520.704v-245.76q0-24.576-17.408-41.984t-41.984-17.408q-23.552 0-40.96 17.408t-17.408 41.984v245.76q0 24.576 17.408 40.96t40.96 17.408q24.576 0 41.984-17.408t17.408-40.96z" />
<glyph unicode="&#xe823;" glyph-name="os-apple" horiz-adv-x="804" d="M795.648 265.728q-21.504-71.68-69.632-142.336-73.728-112.64-147.456-112.64-27.648 0-79.872 18.432-49.152 18.432-86.016 18.432-34.816 0-80.896-19.456-47.104-19.456-75.776-19.456-87.040 0-172.032 148.48-83.968 149.504-83.968 287.744 0 130.048 64.512 212.992t162.816 82.944q40.96 0 100.352-17.408t78.848-17.408q25.6 0 81.92 19.456 58.368 19.456 99.328 19.456 67.584 0 121.856-36.864 29.696-20.48 59.392-57.344-46.080-37.888-65.536-67.584-36.864-53.248-36.864-117.76 0-71.68 38.912-128t90.112-71.68zM581.632 936.448q0-34.816-17.408-77.824-16.384-43.008-53.248-78.848-30.72-30.72-61.44-41.984-20.48-6.144-59.392-9.216 2.048 84.992 45.056 146.432 41.984 61.44 142.336 84.992 1.024-2.048 2.048-6.144t1.024-6.144q0-3.072 0-6.144t1.024-5.12z" />
<glyph unicode="&#xe824;" glyph-name="redboard" d="M512 740.864q-116.736 0-218.112-39.936t-160.768-107.52-60.416-145.408q0-63.488 40.96-121.856t115.712-100.352l49.152-28.672-15.36-55.296q-13.312-51.2-39.936-97.28 87.040 35.84 157.696 97.28l24.576 21.504 31.744-3.072q39.936-5.12 74.752-5.12 116.736 0 218.112 39.936t160.768 107.52 60.416 145.408-60.416 145.408-160.768 107.52-218.112 39.936zM1024 448q0-99.328-68.608-183.296t-186.368-133.12-257.024-49.152q-39.936 0-82.944 4.096-112.64-99.328-263.168-138.24-27.648-7.168-64.512-12.288h-3.072q-8.192 0-15.36 6.144t-9.216 15.36v1.024q-2.048 2.048 0 7.168t1.024 5.12 2.048 5.12l4.096 5.12t4.096 5.12 4.096 5.12q4.096 5.12 17.408 19.456t20.48 22.528 17.408 22.528 18.432 28.672 15.36 33.792 15.36 43.008q-90.112 51.2-141.312 125.952t-52.224 160.768q0 99.328 68.608 183.296t186.368 133.12 257.024 49.152 257.024-49.152 186.368-133.12 68.608-183.296z" />
<glyph unicode="&#xe825;" glyph-name="social" horiz-adv-x="1097" d="M338.944 448q-92.16-3.072-151.552-72.704h-76.8q-46.080 0-78.848 22.528t-31.744 67.584q0 201.728 70.656 201.728 4.096 0 25.6-11.264t55.296-24.576 67.584-12.288q38.912 0 76.8 13.312-3.072-21.504-3.072-37.888 0-79.872 46.080-146.432zM951.296 83.456q0-67.584-41.984-107.52t-110.592-39.936h-499.712q-69.632 0-110.592 39.936t-41.984 107.52q0 30.72 2.048 59.392t8.192 62.464 14.336 62.464 24.576 55.296 35.84 46.080 49.152 30.72 63.488 11.264q6.144 0 24.576-12.288t41.984-26.624 60.416-27.648 77.824-12.288 76.8 12.288 61.44 27.648 41.984 26.624 23.552 12.288q35.84 0 64.512-11.264t48.128-30.72 35.84-46.080 24.576-55.296 15.36-62.464 8.192-62.464 2.048-59.392zM365.568 813.568q0-60.416-43.008-103.424t-103.424-43.008-103.424 43.008-43.008 103.424 43.008 103.424 103.424 43.008 103.424-43.008 43.008-103.424zM768 594.432q0-91.136-64.512-155.648t-154.624-63.488-155.648 63.488-64.512 155.648 64.512 154.624 155.648 64.512 154.624-64.512 64.512-154.624zM1096.704 465.408q0-44.032-31.744-67.584t-78.848-22.528h-76.8q-58.368 69.632-150.528 72.704 46.080 66.56 46.080 146.432 0 16.384-3.072 37.888 37.888-13.312 75.776-13.312 33.792 0 68.608 12.288t55.296 24.576 24.576 11.264q70.656 0 70.656-201.728zM1024 813.568q0-60.416-43.008-103.424t-103.424-43.008-103.424 43.008-43.008 103.424 43.008 103.424 103.424 43.008 103.424-43.008 43.008-103.424z" />
<glyph unicode="&#xe826;" glyph-name="chevron" horiz-adv-x="558" d="M116.736-64l-116.736 104.448 360.448 407.552-360.448 407.552 116.736 104.448 453.632-512-453.632-512z" />
<glyph unicode="&#xe827;" glyph-name="instagram" horiz-adv-x="878" d="M778.24 144.896v370.688h-76.8q11.264-35.84 11.264-74.752 0-72.704-36.864-133.12t-99.328-96.256-137.216-35.84q-112.64 0-192.512 77.824t-79.872 187.392q0 38.912 11.264 74.752h-80.896v-370.688q0-14.336 10.24-24.576t25.6-10.24h610.304q14.336 0 24.576 10.24t10.24 24.576zM616.448 450.048q0 70.656-52.224 120.832t-124.928 50.176-123.904-50.176-52.224-120.832 52.224-120.832 123.904-50.176q73.728 0 124.928 50.176t52.224 120.832zM778.24 655.872v94.208q0 15.36-11.264 27.648t-27.648 11.264h-100.352q-16.384 0-27.648-11.264t-11.264-27.648v-94.208q0-17.408 11.264-28.672t27.648-11.264h100.352q16.384 0 27.648 11.264t11.264 28.672zM877.568 774.656v-653.312q0-46.080-32.768-78.848t-79.872-33.792h-652.288q-46.080 0-79.872 33.792t-32.768 78.848v653.312q0 46.080 32.768 78.848t79.872 33.792h652.288q46.080 0 79.872-33.792t32.768-78.848z" />
<glyph unicode="&#xe828;" glyph-name="world" d="M509.952 960c-279.552 0-509.952-229.376-509.952-509.952 0-279.552 230.4-509.952 509.952-509.952s509.952 230.4 509.952 509.952c0 280.576-230.4 509.952-509.952 509.952zM885.76 650.752h-108.544c-16.384 66.56-41.984 130.048-70.656 180.224 78.848-41.984 142.336-105.472 179.2-180.224zM935.936 450.048c0-41.984-8.192-78.848-16.384-116.736h-124.928c4.096 37.888 8.192 74.752 8.192 116.736s-4.096 79.872-8.192 116.736h124.928c12.288-36.864 16.384-74.752 16.384-116.736zM83.968 450.048c0 41.984 8.192 79.872 16.384 116.736h124.928c-4.096-36.864-8.192-74.752-8.192-116.736s4.096-78.848 8.192-116.736h-124.928c-12.288 37.888-16.384 74.752-16.384 116.736zM305.152 450.048c0 41.984 4.096 79.872 8.192 116.736h158.72v-233.472h-158.72c-8.192 37.888-8.192 74.752-8.192 116.736zM551.936 867.84c58.368-24.576 112.64-104.448 142.336-217.088h-142.336v217.088zM467.968 867.84v-217.088h-138.24c29.696 112.64 79.872 188.416 138.24 217.088zM467.968 249.344v-217.088c-58.368 24.576-112.64 104.448-142.336 217.088h142.336zM551.936 32.256v217.088h142.336c-29.696-112.64-83.968-192.512-142.336-217.088zM551.936 333.312v233.472h158.72c4.096-36.864 8.192-74.752 8.192-116.736s-4.096-78.848-8.192-116.736h-158.72zM313.344 825.856c-28.672-45.056-54.272-108.544-70.656-175.104h-108.544c40.96 74.752 104.448 138.24 179.2 175.104zM134.144 249.344h108.544c16.384-66.56 41.984-129.024 70.656-179.2-74.752 40.96-138.24 104.448-179.2 179.2zM710.656 74.24c28.672 50.176 54.272 108.544 70.656 179.2h108.544c-40.96-78.848-104.448-142.336-179.2-179.2z" />
<glyph unicode="&#xe829;" glyph-name="briefcase" horiz-adv-x="1156" d="M92.16 538.112c0 28.672 24.576 56.32 56.32 56.32h863.232c28.672 0 56.32-23.552 56.32-56.32v-453.632c0-27.648-23.552-56.32-56.32-56.32h-863.232c-27.648 0-56.32 24.576-56.32 56.32v453.632zM148.48-64h863.232c80.896 0 148.48 64.512 148.48 148.48v453.632c0 80.896-63.488 148.48-148.48 148.48h-863.232c-79.872 0-148.48-63.488-148.48-148.48v-453.632c0-79.872 64.512-148.48 148.48-148.48zM409.6 755.2v56.32c0 27.648 24.576 56.32 56.32 56.32h228.352c28.672 0 56.32-24.576 56.32-56.32v-56.32h93.184v56.32c0 79.872-64.512 148.48-149.504 148.48h-228.352c-79.872 0-148.48-64.512-148.48-148.48v-56.32h92.16z" />
<glyph unicode="&#xe82a;" glyph-name="megaphone" horiz-adv-x="1118" d="M985.088 960c-12.288 0-23.552 0-34.816-4.096l-743.424-195.584-38.912 12.288c-11.264 7.168-27.648 7.168-43.008 7.168-34.816 0-62.464-11.264-86.016-34.816s-38.912-54.272-38.912-86.016v-292.864c0-70.656 54.272-124.928 124.928-124.928 15.36 0 31.744 4.096 47.104 7.168l38.912 12.288 113.664-27.648-19.456-66.56c-12.288-38.912-4.096-77.824 15.36-113.664 19.456-34.816 51.2-58.368 90.112-69.632l148.48-38.912c11.264-4.096 27.648-4.096 38.912-4.096 27.648 0 51.2 7.168 74.752 19.456 34.816 19.456 58.368 50.176 69.632 90.112l19.456 69.632 195.584-50.176c4.096-8.192 19.456-8.192 31.744-8.192 69.632 0 129.024 58.368 129.024 129.024v641.024c0 70.656-59.392 129.024-133.12 129.024zM124.928 327.168c-19.456 0-34.816 15.36-34.816 34.816v296.96c0 19.456 15.36 35.84 34.816 35.84 8.192 0 12.288 0 15.36-4.096l27.648-8.192v-339.968l-27.648-8.192c-3.072-3.072-11.264-7.168-15.36-7.168zM656.384 73.216c-4.096-16.384-15.36-27.648-26.624-35.84-16.384-7.168-31.744-11.264-47.104-7.168l-148.48 38.912c-16.384 4.096-27.648 15.36-35.84 27.648s-11.264 30.72-7.168 46.080l19.456 66.56 265.216-69.632-19.456-66.56zM1028.096 189.952c0-23.552-19.456-43.008-43.008-43.008-4.096 0-8.192 0-12.288 0l-714.752 191.488c0 101.376 0 246.784 0 344.064l718.848 187.392c4.096 0 8.192 0 12.288 0 19.456 0 43.008-19.456 43.008-43.008v-636.928z" />
<glyph unicode="&#xe82b;" glyph-name="monitor" horiz-adv-x="1389" d="M697.344 219.648c-37.888 0-70.656-32.768-70.656-71.68 0-31.744 21.504-59.392 49.152-70.656v0 0c5.12 0 5.12 0 10.24 0s11.264 0 11.264 0c5.12 0 11.264 0 11.264 0 5.12 0 5.12 0 10.24 0v0 0c27.648 11.264 49.152 38.912 49.152 70.656 0 38.912-32.768 71.68-70.656 71.68zM1165.312 960h-942.080c-124.928 0-223.232-98.304-223.232-223.232v-577.536c0-26.624 5.12-59.392 16.384-81.92 32.768-81.92 114.688-141.312 206.848-141.312h942.080c125.952 0 223.232 98.304 223.232 223.232v577.536c0 124.928-103.424 223.232-223.232 223.232zM1247.232 159.232c0-49.152-37.888-81.92-81.92-81.92h-353.28c-22.528-37.888-71.68-70.656-114.688-70.656-49.152 0-93.184 27.648-119.808 70.656h-354.304c-49.152 0-81.92 38.912-81.92 81.92v577.536c0 49.152 38.912 81.92 81.92 81.92h942.080c49.152 0 81.92-37.888 81.92-81.92v-577.536z" />
<glyph unicode="&#xe82c;" glyph-name="wireless" horiz-adv-x="550" d="M407.552-64h-265.216c-77.824 0-142.336 64.512-142.336 142.336v881.664h89.088v-881.664c0-29.696 23.552-53.248 53.248-53.248h265.216c30.72 0 53.248 23.552 53.248 53.248v580.608c0 30.72-22.528 53.248-53.248 53.248 0 0-28.672 0-131.072 0-105.472 0-88.064 89.088-88.064 89.088h219.136c78.848 0 142.336-63.488 142.336-142.336v-580.608c0-77.824-63.488-142.336-142.336-142.336zM322.56 165.376c0 25.6-21.504 47.104-46.080 47.104-26.624 0-47.104-21.504-47.104-47.104 0-24.576 21.504-46.080 47.104-46.080 24.576 0 46.080 19.456 46.080 46.080z" />
<glyph unicode="&#xe82d;" glyph-name="menu" horiz-adv-x="1365" d="M0-64c0 0 0 136.192 0 136.192s1364.992 0 1364.992 0c0 0 0-136.192 0-136.192s-1364.992 0-1364.992 0zM0 516.608c0 0 1364.992 0 1364.992 0s0-137.216 0-137.216c0 0-1364.992 0-1364.992 0s0 137.216 0 137.216zM0 960c0 0 1364.992 0 1364.992 0s0-136.192 0-136.192c0 0-1364.992 0-1364.992 0s0 136.192 0 136.192z" />
<glyph unicode="&#xe82e;" glyph-name="os-blackberry" horiz-adv-x="1027" d="M331.776 730.624c0 34.816-21.504 77.824-109.568 77.824-34.816 0-134.144 0-134.144 0l-38.912-177.152c0 0 74.752 0 141.312 0 109.568 0 141.312 50.176 141.312 99.328v0zM695.296 730.624c0 34.816-20.48 77.824-109.568 77.824-34.816 0-134.144 0-134.144 0l-38.912-177.152c0 0 74.752 0 141.312 0 109.568 0 141.312 50.176 141.312 99.328v0zM282.624 462.336c0 34.816-21.504 77.824-109.568 77.824-34.816 0-134.144 0-134.144 0l-38.912-177.152c0 0 73.728 0 141.312 0 109.568 0 141.312 53.248 141.312 99.328v0zM646.144 462.336c0 34.816-21.504 77.824-109.568 77.824-34.816 0-134.144 0-134.144 0l-38.912-177.152c0 0 74.752 0 141.312 0 109.568 0 141.312 53.248 141.312 99.328v0zM1027.072 571.904c0 34.816-20.48 77.824-108.544 77.824-35.84 0-134.144 0-134.144 0l-38.912-177.152c0 0 73.728 0 141.312 0 108.544 0 140.288 49.152 140.288 99.328v0zM974.848 292.352c0 35.84-21.504 77.824-109.568 77.824-35.84 0-134.144 0-134.144 0l-38.912-176.128c0 0 73.728 0 141.312 0 109.568 0 141.312 49.152 141.312 98.304v0zM592.896 182.784c0 35.84-20.48 77.824-109.568 77.824-34.816 0-134.144 0-134.144 0l-38.912-176.128c0 0 74.752 0 141.312 0 113.664 0 141.312 53.248 141.312 98.304v0z" />
<glyph unicode="&#xe82f;" glyph-name="add-phone" horiz-adv-x="882" d="M271.36 711.168c80.896 0 138.24 0 138.24 0 30.72 0 53.248-22.528 53.248-54.272v-119.808h89.088v119.808c0 80.896-62.464 143.36-142.336 143.36h-218.112c0 0 0-89.088 79.872-89.088zM462.848 269.824v-191.488c0-30.72-22.528-53.248-53.248-53.248h-267.264c-30.72 0-53.248 22.528-53.248 53.248v881.664h-89.088v-881.664c0-79.872 62.464-142.336 142.336-142.336h267.264c79.872 0 142.336 62.464 142.336 142.336v191.488h-89.088zM881.664 448h-164.864v164.864h-89.088v-164.864h-164.864v-89.088h164.864v-164.864h89.088v164.864h164.864v89.088z" />
<glyph unicode="&#xe830;" glyph-name="add-text" horiz-adv-x="1316" d="M1024 714.24h-478.208c-54.272 0-96.256-40.96-96.256-95.232v0h499.712c41.984 0 74.752 32.768 74.752 74.752v20.48zM774.144 530.944h-224.256c-54.272 0-96.256-40.96-96.256-95.232v0h245.76c41.984 0 74.752 32.768 74.752 74.752v20.48zM350.208 714.24h-124.928v124.928h-96.256v-124.928h-129.024v-95.232h129.024v-124.928h96.256v124.928h129.024v95.232zM1165.312 960h-790.528c0 0-4.096-95.232 99.328-95.232 75.776 0 691.2 0 691.2 0 29.696 0 54.272-25.6 54.272-54.272v-466.944c0-28.672-24.576-53.248-54.272-53.248h-411.648c-12.288 0-25.6-4.096-37.888-17.408l-224.256-245.76v217.088c0 24.576-21.504 46.080-46.080 46.080h-166.912c-28.672 0-53.248 24.576-53.248 53.248v58.368h-96.256v-58.368c0-82.944 66.56-149.504 149.504-149.504h116.736v-162.816c0-36.864 16.384-70.656 50.176-87.040 16.384-8.192 28.672-12.288 46.080-12.288 24.576 0 54.272 12.288 70.656 28.672l211.968 229.376h391.168c83.968 0 150.528 66.56 150.528 149.504v471.040c0 82.944-66.56 149.504-150.528 149.504z" />
<glyph unicode="&#xe831;" glyph-name="award" horiz-adv-x="982" d="M941.056 793.088c-32.768 36.864-74.752 60.416-125.952 60.416-4.096 23.552-13.312 41.984-27.648 60.416-22.528 27.648-60.416 46.080-97.28 46.080h-407.552c-36.864 0-69.632-18.432-97.28-46.080-14.336-18.432-23.552-36.864-23.552-60.416-50.176 0-92.16-23.552-124.928-60.416-31.744-36.864-41.984-88.064-31.744-134.144 0-9.216 4.096-14.336 4.096-18.432l64.512-176.128c19.456-74.752 78.848-120.832 157.696-120.832h23.552c13.312-55.296 64.512-97.28 120.832-97.28h22.528v-97.28h-36.864c-69.632 0-124.928-55.296-124.928-124.928v-18.432c0-41.984 31.744-74.752 73.728-74.752h357.376c40.96 0 73.728 32.768 73.728 74.752v18.432c0 69.632-55.296 124.928-124.928 124.928h-32.768v97.28h23.552c60.416 0 106.496 41.984 119.808 97.28h23.552c73.728 0 139.264 51.2 157.696 120.832l64.512 171.008c0 5.12 5.12 14.336 5.12 18.432 9.216 51.2-5.12 102.4-36.864 139.264zM139.264 487.936l-65.536 175.104c0 0 0 5.12 0 10.24-4.096 27.648 0 55.296 19.456 73.728s46.080 36.864 73.728 36.864h4.096l10.24-55.296h-14.336c-9.216 0-23.552-5.12-27.648-14.336-9.216-9.216-14.336-22.528-9.216-31.744l64.512-181.248c5.12-18.432 18.432-32.768 36.864-32.768l9.216-55.296h-9.216c-46.080 0-82.944 32.768-92.16 74.752zM616.448 79.36c27.648 0 51.2-22.528 51.2-51.2v-18.432h-357.376v18.432c0 28.672 23.552 51.2 51.2 51.2h102.4v172.032h50.176v-172.032h102.4zM607.232 321.024h-236.544c-18.432 0-32.768 9.216-41.984 22.528 0 5.12-4.096 5.12-4.096 9.216v0c0 5.12 0 9.216-5.12 9.216v0l-9.216 51.2-55.296 291.84-5.12 23.552-18.432 92.16c0 0 0 5.12 0 9.216v0c0 0 0 5.12 0 5.12v0c0 0 0 4.096 0 4.096v0c0 0 0 5.12 0 5.12 0 4.096 5.12 9.216 9.216 14.336 9.216 13.312 23.552 18.432 41.984 18.432h412.672c18.432 0 31.744-9.216 41.984-18.432 4.096 4.096 4.096 0 9.216-5.12v0c0 0 0-5.12 0-5.12v0c0 0 0-4.096 0-4.096v0c0 0 0-5.12 0-5.12v0c0 0 0-4.096 0-9.216l-19.456-101.376-13.312-74.752-18.432-115.712-5.12-31.744-18.432-93.184-9.216-51.2c0-4.096 0-9.216-4.096-9.216v0c0-4.096-5.12-4.096-5.12-9.216-9.216-13.312-27.648-22.528-46.080-22.528zM908.288 673.28c0-5.12 0-5.12 0-10.24l-64.512-175.104c-9.216-41.984-47.104-69.632-93.184-69.632h-9.216l9.216 55.296c18.432 0 32.768 14.336 36.864 32.768l69.632 176.128c0 9.216 0 22.528-9.216 31.744s-18.432 14.336-32.768 14.336h-13.312l9.216 55.296h4.096c28.672 0 56.32-13.312 74.752-32.768 13.312-22.528 22.528-50.176 18.432-77.824z" />
<glyph unicode="&#xe832;" glyph-name="sim-card" horiz-adv-x="1442" d="M360.448 678.4h238.592c35.84 0 64.512-28.672 64.512-64.512v-130.048c0-35.84-28.672-64.512-64.512-64.512h-238.592c-35.84 0-64.512 28.672-64.512 64.512v130.048c0 35.84 28.672 64.512 64.512 64.512zM1197.056 801.28c50.176 0 94.208-43.008 94.208-93.184v-310.272c0-28.672-14.336-51.2-29.696-65.536l-251.904-216.064c-14.336-14.336-35.84-21.504-64.512-21.504h-692.224c-51.2 0-94.208 43.008-94.208 94.208v526.336c0 50.176 43.008 93.184 94.208 93.184l944.128-7.168zM1197.056 960h-944.128c-137.216 0-252.928-115.712-252.928-251.904v-527.36c0-136.192 115.712-251.904 252.928-251.904h692.224c64.512 0 121.856 21.504 165.888 64.512l244.736 217.088c57.344 50.176 87.040 121.856 87.040 187.392v310.272c0 136.192-108.544 251.904-245.76 251.904v0z" />
<glyph unicode="&#xe833;" glyph-name="remote-control" horiz-adv-x="647" d="M482.304 854.528c36.864 0 64.512-27.648 64.512-64.512v-689.152c0-35.84-27.648-63.488-64.512-63.488h-312.32c-36.864 0-64.512 27.648-64.512 63.488v689.152c0 36.864 27.648 64.512 64.512 64.512h312.32zM482.304 960h-312.32c-96.256 0-169.984-73.728-169.984-169.984v-689.152c0-91.136 73.728-169.984 169.984-169.984h312.32c92.16 0 169.984 73.728 169.984 169.984v689.152c-5.12 96.256-77.824 169.984-169.984 169.984v0zM303.104 440.832c0 32.768-22.528 55.296-55.296 55.296-31.744 0-55.296-22.528-55.296-55.296 0-31.744 23.552-54.272 55.296-54.272s55.296 22.528 55.296 54.272zM463.872 440.832c0 32.768-22.528 55.296-55.296 55.296-31.744 0-55.296-22.528-55.296-55.296 0-31.744 23.552-54.272 55.296-54.272 32.768 0 55.296 22.528 55.296 54.272zM303.104 303.616c0 31.744-22.528 55.296-55.296 55.296-31.744 0-55.296-23.552-55.296-55.296 0-32.768 23.552-55.296 55.296-55.296s55.296 22.528 55.296 55.296zM463.872 303.616c0 31.744-22.528 55.296-55.296 55.296-31.744 0-55.296-23.552-55.296-55.296 0-32.768 23.552-55.296 55.296-55.296 32.768 0 55.296 22.528 55.296 55.296zM303.104 165.376c0 32.768-22.528 55.296-55.296 55.296-31.744 0-55.296-22.528-55.296-55.296 0-31.744 23.552-55.296 55.296-55.296 27.648 0 55.296 23.552 55.296 55.296zM463.872 165.376c0 32.768-22.528 55.296-55.296 55.296-31.744 0-55.296-22.528-55.296-55.296 0-31.744 23.552-55.296 55.296-55.296 32.768 0 55.296 23.552 55.296 55.296z" />
<glyph unicode="&#xe834;" glyph-name="calendar" horiz-adv-x="1066" d="M225.28 420.352c37.888 0 65.536-28.672 65.536-66.56s-27.648-65.536-65.536-65.536-65.536 28.672-65.536 65.536 32.768 66.56 65.536 66.56zM432.128 420.352c37.888 0 65.536-28.672 65.536-66.56s-27.648-65.536-65.536-65.536-65.536 28.672-65.536 65.536 27.648 66.56 65.536 66.56zM633.856 420.352c37.888 0 66.56-28.672 66.56-66.56s-28.672-65.536-66.56-65.536-65.536 28.672-65.536 65.536 32.768 66.56 65.536 66.56zM840.704 420.352c37.888 0 65.536-28.672 65.536-66.56s-27.648-65.536-65.536-65.536-65.536 28.672-65.536 65.536 27.648 66.56 65.536 66.56zM225.28 237.056c37.888 0 65.536-28.672 65.536-66.56s-27.648-65.536-65.536-65.536-65.536 28.672-65.536 65.536 32.768 66.56 65.536 66.56zM432.128 237.056c37.888 0 65.536-28.672 65.536-66.56s-27.648-65.536-65.536-65.536-65.536 28.672-65.536 65.536 27.648 66.56 65.536 66.56zM633.856 237.056c37.888 0 66.56-28.672 66.56-66.56s-28.672-65.536-66.56-65.536-65.536 28.672-65.536 65.536 32.768 66.56 65.536 66.56zM432.128 602.624c37.888 0 65.536-27.648 65.536-65.536s-27.648-65.536-65.536-65.536-65.536 32.768-65.536 70.656 27.648 60.416 65.536 60.416zM633.856 602.624c37.888 0 66.56-27.648 66.56-65.536s-28.672-65.536-66.56-65.536-65.536 28.672-65.536 65.536 32.768 65.536 65.536 65.536zM840.704 602.624c37.888 0 65.536-27.648 65.536-65.536s-27.648-65.536-65.536-65.536-65.536 28.672-65.536 65.536 27.648 65.536 65.536 65.536zM911.36 960h-756.736c-83.968 0-154.624-70.656-154.624-154.624v-709.632c0-84.992 70.656-154.624 154.624-154.624h756.736c84.992 0 154.624 69.632 154.624 154.624v709.632c0 83.968-69.632 154.624-154.624 154.624zM911.36 39.424h-756.736c-32.768 0-56.32 23.552-56.32 56.32v615.424h869.376v-615.424c0-32.768-28.672-56.32-56.32-56.32z" />
<glyph unicode="&#xe835;" glyph-name="error" horiz-adv-x="1104" d="M555.008 859.648c34.816 0 74.752-19.456 99.328-54.272l339.968-600.064c45.056-74.752-10.24-168.96-100.352-168.96h-678.912c-84.992 0-140.288 89.088-100.352 168.96l339.968 600.064c19.456 39.936 59.392 54.272 100.352 54.272zM555.008 960c-80.896 0-145.408-39.936-185.344-104.448l-339.968-600.064c-34.816-64.512-34.816-144.384 0-209.92 39.936-64.512 105.472-104.448 180.224-104.448h678.912c75.776 0 145.408 39.936 180.224 104.448 39.936 65.536 39.936 145.408 0 209.92l-339.968 600.064c-29.696 64.512-99.328 104.448-174.080 104.448v0zM504.832 315.904v0 289.792c0 54.272 45.056 99.328 99.328 99.328v0-294.912c-5.12-54.272-49.152-94.208-99.328-94.208zM555.008 241.152c29.696 0 59.392-25.6 59.392-60.416 0-29.696-24.576-59.392-59.392-59.392s-60.416 24.576-60.416 59.392c0 34.816 24.576 60.416 60.416 60.416z" />
<glyph unicode="&#xe836;" glyph-name="success" d="M515.072 867.84c188.416 0 361.472-126.976 407.552-320.512 55.296-224.256-81.92-453.632-311.296-509.952-35.84-9.216-66.56-9.216-101.376-9.216-189.44 0-362.496 126.976-407.552 320.512-51.2 224.256 91.136 453.632 315.392 504.832 30.72 10.24 66.56 14.336 97.28 14.336zM515.072 960v0c-40.96 0-81.92-5.12-122.88-15.36-275.456-66.56-443.392-346.112-376.832-621.568 56.32-229.376 260.096-392.192 499.712-392.192 39.936 0 80.896 5.12 121.856 15.36 132.096 30.72 244.736 116.736 315.392 234.496s92.16 254.976 61.44 387.072c-56.32 229.376-260.096 392.192-498.688 392.192v0zM763.904 578.048c-35.84 30.72-91.136 25.6-121.856-5.12l-229.376-249.856c-5.12-5.12-10.24-10.24-20.48-10.24s-20.48 5.12-25.6 20.48l-30.72 92.16c-10.24 34.816-45.056 55.296-80.896 50.176l-35.84-5.12 56.32-167.936c10.24-20.48 20.48-40.96 35.84-55.296 55.296-46.080 126.976-35.84 167.936 5.12l284.672 325.632z" />
<glyph unicode="&#xe837;" glyph-name="info" d="M512 868.864c187.392 0 360.448-126.976 405.504-319.488 56.32-223.232-80.896-451.584-309.248-506.88-35.84-10.24-65.536-10.24-101.376-10.24-187.392 0-359.424 126.976-405.504 319.488-50.176 223.232 91.136 451.584 314.368 501.76 30.72 10.24 65.536 15.36 96.256 15.36zM512 960v0c-40.96 0-80.896-5.12-121.856-15.36-273.408-65.536-441.344-344.064-374.784-618.496 55.296-228.352 258.048-390.144 496.64-390.144 40.96 0 80.896 5.12 121.856 15.36 132.096 30.72 242.688 116.736 314.368 233.472 70.656 115.712 91.136 252.928 60.416 385.024-55.296 228.352-258.048 390.144-496.64 390.144v0zM563.2 508.416v0-207.872c0-55.296-46.080-101.376-101.376-101.376v0 207.872c0 61.44 45.056 101.376 101.376 101.376zM512 696.832c30.72 0 60.416-25.6 60.416-61.44s-24.576-60.416-60.416-60.416-60.416 25.6-60.416 60.416 29.696 61.44 60.416 61.44z" />
<glyph unicode="&#xe838;" glyph-name="print" horiz-adv-x="1095" d="M427.008 242.176v-20.48h180.224c30.72 0 55.296 25.6 55.296 55.296v20.48h-180.224c-30.72-5.12-55.296-25.6-55.296-55.296zM427.008 107.008v-20.48h180.224c30.72 0 55.296 25.6 55.296 55.296v20.48h-180.224c-30.72 0-55.296-25.6-55.296-55.296zM978.944 679.424h-145.408v140.288c0 39.936-30.72 69.632-70.656 69.632v0 0-209.92h-436.224v164.864c0 25.6 19.456 45.056 45.056 45.056h250.88v70.656h-250.88c-65.536 0-115.712-50.176-115.712-115.712v-164.864h-140.288c-65.536 0-115.712-50.176-115.712-115.712v-351.232c0-65.536 50.176-115.712 115.712-115.712h145.408v-50.176c0-65.536 50.176-115.712 115.712-115.712h351.232c65.536 0 115.712 50.176 115.712 115.712v50.176h145.408c64.512 0 114.688 50.176 114.688 115.712v351.232c-9.216 65.536-64.512 115.712-124.928 115.712zM762.88 171.52v-119.808c0-25.6-19.456-45.056-45.056-45.056h-351.232c-25.6 0-45.056 19.456-45.056 45.056v280.576c0 25.6 19.456 45.056 45.056 45.056h351.232c25.6 0 45.056-19.456 45.056-45.056v-160.768zM1024 212.48c0-25.6-20.48-45.056-45.056-45.056h-145.408v159.744c0 65.536-50.176 115.712-115.712 115.712h-351.232c-65.536 0-115.712-50.176-115.712-115.712v-159.744h-135.168c-25.6 0-45.056 19.456-45.056 45.056v351.232c0 24.576 19.456 45.056 45.056 45.056h868.352c24.576 0 45.056-20.48 45.056-45.056l-5.12-351.232z" />
<glyph unicode="&#xe839;" glyph-name="save" d="M879.616 960h-734.208c-82.944 0-145.408-62.464-145.408-144.384v-739.328c0-77.824 62.464-145.408 145.408-145.408h738.304c77.824 0 145.408 63.488 145.408 145.408v739.328c-5.12 81.92-67.584 144.384-149.504 144.384zM309.248 872.96h405.504v-275.456c0-19.456-14.336-28.672-28.672-28.672h-348.16c-19.456 0-28.672 14.336-28.672 28.672v275.456zM714.752 23.040h-405.504v265.216c0 19.456 14.336 29.696 28.672 29.696h348.16c19.456 0 28.672-14.336 28.672-29.696v-265.216zM936.96 76.288c0-29.696-23.552-53.248-53.248-53.248h-76.8v265.216c0 67.584-53.248 120.832-120.832 120.832h-348.16c-67.584 0-120.832-53.248-120.832-120.832v-265.216h-71.68c-29.696 0-53.248 23.552-53.248 53.248v739.328c0 28.672 23.552 52.224 53.248 52.224h76.8v-274.432c-5.12-63.488 48.128-116.736 115.712-116.736h348.16c67.584 0 120.832 53.248 120.832 120.832v275.456h76.8c29.696 0 53.248-23.552 53.248-53.248v-743.424zM593.92 607.744h44.032c19.456 0 28.672 14.336 28.672 28.672v145.408c0 18.432-14.336 28.672-28.672 28.672h-44.032c-19.456 0-28.672-14.336-28.672-28.672v-145.408c0-14.336 14.336-28.672 28.672-28.672z" />
<glyph unicode="&#xe83a;" glyph-name="devices" horiz-adv-x="1479" d="M1315.84 605.696h-33.792v191.488c0 91.136-71.68 162.816-161.792 162.816h-957.44c-86.016 0-162.816-71.68-162.816-162.816v-501.76c0-91.136 71.68-162.816 162.816-162.816h425.984v-91.136c-57.344 0-157.696 0-215.040 0-115.712 0-110.592-100.352-110.592-100.352h655.36v100.352c-4.096 0-9.216 0-18.432 0-53.248 0-153.6 0-216.064 0v91.136h230.4v100.352h-751.616c-33.792 0-62.464 28.672-62.464 62.464v501.76c0 33.792 28.672 62.464 62.464 62.464h952.32c33.792 0 62.464-28.672 62.464-62.464v-215.040c0-43.008 32.768-81.92 80.896-81.92h52.224c33.792 0 57.344-28.672 57.344-61.44v-339.968c0-33.792-28.672-62.464-57.344-62.464h-161.792c-33.792 0-58.368 28.672-58.368 62.464v588.8c-57.344 0-100.352-43.008-100.352-100.352v-488.448c0-91.136 71.68-162.816 162.816-162.816h162.816c91.136 0 162.816 71.68 162.816 162.816v344.064c0 91.136-76.8 162.816-162.816 162.816zM1267.712 175.616c0 23.552-18.432 43.008-43.008 43.008-23.552 0-43.008-19.456-43.008-43.008 0-24.576 19.456-43.008 43.008-43.008 24.576 0 43.008 14.336 43.008 43.008z" />
<glyph unicode="&#xe83b;" glyph-name="person-edit" horiz-adv-x="1308" d="M1263.616 509.44l-66.56 71.68c-28.672 28.672-67.584 45.056-106.496 45.056s-77.824-16.384-105.472-45.056l-283.648-283.648-22.528-21.504-11.264-33.792-38.912-139.264c-5.12-16.384-5.12-38.912-5.12-55.296-173.056 0-495.616 0-506.88 0-16.384 0-16.384 11.264-16.384 21.504 0 11.264 0 67.584 0 67.584s0 27.648 11.264 44.032c11.264 22.528 32.768 38.912 55.296 45.056 16.384 5.12 27.648 11.264 50.176 21.504 16.384 6.144 16.384 6.144 50.176 22.528 27.648 11.264 33.792 11.264 61.44 22.528 21.504 5.12 50.176 11.264 55.296 27.648v61.44c0 5.12 0 16.384 0 22.528 0 10.24-5.12 16.384-11.264 21.504-11.264 11.264-16.384 17.408-27.648 27.648-11.264 17.408-16.384 45.056-27.648 72.704-6.144 27.648-11.264 61.44-11.264 95.232 0 38.912 5.12 77.824 16.384 105.472s22.528 55.296 38.912 71.68c17.408 17.408 33.792 33.792 56.32 38.912 21.504 6.144 44.032 11.264 66.56 11.264v0 0c0 0 0 0 5.12 0v0c0 0 0 0 0 0v0 0c0 0 0 0 0 0v0c0 0 0 0 6.144 0v0 0c21.504 0 44.032 0 61.44-11.264 21.504-10.24 38.912-21.504 55.296-38.912 16.384-16.384 27.648-38.912 38.912-71.68 11.264-27.648 16.384-66.56 16.384-105.472 0-33.792-5.12-61.44-11.264-89.088 0 0 0-6.144 0-6.144-16.384-50.176 6.144-111.616 56.32-133.12h5.12c0 0 6.144 5.12 6.144 11.264v0c16.384 27.648 27.648 60.416 38.912 99.328 10.24 33.792 16.384 72.704 16.384 117.76 0 55.296-6.144 99.328-22.528 138.24-11.264 45.056-32.768 77.824-61.44 111.616-27.648 33.792-60.416 55.296-99.328 72.704-22.528 5.12-56.32 16.384-89.088 16.384-6.144 0-11.264 0-11.264 0v0 0 0 0 0 0c-6.144 0-11.264 0-17.408 0-32.768 0-60.416-11.264-89.088-22.528-38.912-11.264-71.68-38.912-99.328-66.56-28.672-27.648-45.056-66.56-61.44-111.616-11.264-38.912-22.528-89.088-22.528-138.24 0-39.936 6.144-83.968 16.384-117.76 11.264-44.032 22.528-77.824 38.912-105.472 0 0 0 0 0-5.12 0 0 6.144-6.144 6.144-11.264-11.264 0-22.528-6.144-38.912-11.264l-6.144-5.12c-21.504-11.264-27.648-11.264-44.032-17.408h-11.264c-16.384-5.12-27.648-11.264-44.032-16.384-22.528-11.264-83.968-38.912-111.616-100.352-11.264-33.792-11.264-72.704-11.264-89.088v0-72.704c0-89.088 61.44-133.12 128-133.12h612.352c5.12 0 11.264 0 11.264 0 5.12 0 5.12 0 11.264 0 10.24 0 27.648 0 38.912 5.12l139.264 38.912 27.648 11.264 21.504 22.528 284.672 283.648c44.032 56.32 44.032 155.648-11.264 211.968zM1179.648 375.296l-283.648-283.648-44.032-11.264-89.088 89.088 10.24 45.056 284.672 283.648c5.12 5.12 16.384 11.264 27.648 11.264s22.528-6.144 27.648-11.264l66.56-72.704c17.408-11.264 17.408-32.768 0-50.176z" />
<glyph unicode="&#xe83c;" glyph-name="person-chat" horiz-adv-x="1200" d="M1010.688 764.416v16.384h-437.248c-39.936 0-69.632-29.696-69.632-69.632h457.728c25.6-3.072 49.152 23.552 49.152 53.248zM683.008 576c29.696 0 56.32 22.528 56.32 56.32v13.312h-165.888c-39.936 0-69.632-30.72-69.632-69.632h179.2zM1087.488 960h-659.456c-63.488 0-113.664-49.152-113.664-112.64v-288.768c0 0 0 0 0 0-3.072 0-6.144 0-9.216 0v0 0 0 0 0 0c-3.072 0-7.168 0-10.24 0-19.456 0-36.864-6.144-56.32-12.288-23.552-10.24-43.008-23.552-59.392-44.032-16.384-16.384-29.696-43.008-36.864-65.536-6.144-23.552-13.312-53.248-13.312-86.016 0-26.624 3.072-50.176 10.24-73.728 6.144-22.528 13.312-43.008 23.552-62.464 0 0 0 0 0-3.072 0-4.096 3.072-4.096 3.072-7.168-7.168-3.072-13.312-3.072-23.552-6.144h-3.072c-13.312-7.168-16.384-7.168-26.624-10.24h-6.144c-10.24-3.072-17.408-6.144-26.624-10.24-16.384-6.144-53.248-26.624-66.56-59.392-10.24-23.552-13.312-46.080-13.312-56.32v0-43.008c0-53.248 39.936-82.944 75.776-82.944h454.656c39.936 0 75.776 26.624 75.776 82.944 0 6.144 0 43.008 0 43.008v0c0 13.312-3.072 36.864-13.312 53.248-16.384 35.84-52.224 53.248-65.536 59.392-10.24 3.072-17.408 7.168-26.624 10.24l-7.168 3.072c-9.216 3.072-13.312 6.144-26.624 10.24l-6.144 3.072c-13.312 3.072-16.384 6.144-23.552 6.144 0 0 3.072 4.096 3.072 7.168v0c10.24 16.384 17.408 35.84 23.552 62.464 7.168 23.552 10.24 47.104 10.24 73.728 0 32.768-3.072 62.464-13.312 86.016-10.24 26.624-20.48 49.152-36.864 65.536-13.312 17.408-29.696 26.624-46.080 36.864v311.296c10.24 23.552 29.696 43.008 53.248 43.008h659.456c22.528 0 43.008-19.456 43.008-43.008v-348.16c0-22.528-20.48-43.008-43.008-43.008h-272.384l-178.176-195.584v136.192c0 32.768-26.624 59.392-60.416 59.392h-13.312v-195.584c0-29.696 17.408-52.224 44.032-65.536 9.216 0 19.456 0 29.696 0 19.456 0 35.84 6.144 52.224 22.528l159.744 173.056h238.592c62.464 0 112.64 49.152 112.64 112.64v344.064c-3.072 60.416-53.248 109.568-115.712 109.568zM404.48 416.256c6.144-16.384 10.24-39.936 10.24-65.536 0-20.48-4.096-39.936-7.168-56.32-6.144-17.408-10.24-33.792-16.384-47.104-3.072-6.144-7.168-9.216-10.24-13.312-3.072-3.072-3.072-6.144-6.144-13.312 0-3.072 0-9.216 0-13.312v-38.912c3.072-13.312 19.456-17.408 32.768-20.48 16.384-6.144 16.384-6.144 36.864-13.312s19.456-6.144 29.696-13.312c13.312-3.072 19.456-6.144 29.696-13.312 13.312-6.144 29.696-16.384 32.768-26.624 4.096-9.216 7.168-29.696 7.168-29.696s0-35.84 0-43.008c0-6.144 0-13.312-10.24-13.312s-444.416 0-453.632 0c-13.312 7.168-13.312 13.312-13.312 20.48 0 6.144 0 43.008 0 43.008s0 16.384 6.144 29.696c7.168 13.312 23.552 23.552 33.792 26.624 9.216 3.072 16.384 6.144 29.696 13.312 13.312 3.072 9.216 3.072 29.696 13.312 19.456 6.144 23.552 6.144 35.84 13.312 13.312 3.072 30.72 6.144 33.792 19.456v39.936c0 3.072 0 10.24 0 13.312-3.072 0-3.072 3.072-7.168 6.144-3.072 7.168-6.144 10.24-9.216 13.312-7.168 16.384-13.312 29.696-17.408 50.176-6.144 16.384-6.144 35.84-6.144 56.32 0 26.624 3.072 46.080 10.24 66.56 6.144 16.384 13.312 32.768 22.528 43.008 10.24 13.312 23.552 19.456 36.864 22.528 13.312 7.168 23.552 7.168 36.864 7.168v0 0c0 0 0 0 3.072 0v0c0 0 0 0 0 0v0 0c0 0 0 0 0 0v0c0 0 0 0 3.072 0v0 0c13.312 0 26.624-3.072 39.936-7.168 13.312-6.144 23.552-13.312 35.84-22.528 7.168-13.312 13.312-30.72 20.48-47.104z" />
<glyph unicode="&#xe83d;" glyph-name="person-call" horiz-adv-x="885" d="M884.736 382.464c0 13.312 0 39.936-12.288 65.536-17.408 38.912-61.44 60.416-78.848 69.632-12.288 4.096-21.504 8.192-33.792 8.192l-9.216 5.12c-13.312 4.096-17.408 4.096-30.72 12.288l-8.192 5.12c-13.312 4.096-21.504 8.192-25.6 8.192 0 0 4.096 4.096 4.096 8.192v0c12.288 22.528 21.504 44.032 25.6 69.632 9.216 26.624 9.216 56.32 9.216 87.040 0 38.912-5.12 69.632-13.312 99.328-9.216 30.72-21.504 57.344-43.008 78.848-22.528 21.504-44.032 38.912-69.632 47.104-21.504 9.216-44.032 13.312-65.536 13.312-4.096 0-8.192 0-12.288 0v0 0 0 0 0 0c-5.12 0-9.216 0-13.312 0-21.504 0-44.032-4.096-65.536-13.312-17.408-8.192-43.008-25.6-60.416-47.104-21.504-21.504-34.816-48.128-43.008-78.848-9.216-29.696-13.312-60.416-13.312-99.328 0-30.72 4.096-56.32 8.192-87.040 9.216-29.696 17.408-52.224 26.624-73.728 0 0 0 0 0 0s4.096-4.096 4.096-8.192c-8.192 0-13.312-4.096-25.6-9.216h-5.12c-4.096 0-4.096 0-8.192 0-4.096 5.12-9.216 13.312-13.312 21.504-4.096 5.12-8.192 13.312-13.312 22.528v0c-8.192 17.408-25.6 51.2-64.512 64.512-17.408 9.216-30.72 9.216-34.816 9.216-25.6 0-65.536-9.216-87.040-17.408-47.104-21.504-69.632-61.44-81.92-87.040v0 0c-21.504-34.816-30.72-73.728-30.72-112.64 0-48.128 17.408-87.040 25.6-117.76 0-4.096 5.12-8.192 5.12-17.408 12.288-29.696 21.504-60.416 38.912-86.016 47.104-78.848 138.24-169.984 217.088-217.088 25.6-17.408 52.224-30.72 86.016-38.912 5.12 0 9.216-5.12 13.312-5.12 30.72-12.288 69.632-25.6 117.76-25.6 38.912 0 77.824 8.192 112.64 30.72v0 0c21.504 12.288 64.512 34.816 81.92 77.824 9.216 21.504 17.408 60.416 17.408 87.040 0 8.192 0 21.504-8.192 38.912-13.312 38.912-48.128 56.32-69.632 64.512v0c-9.216 5.12-13.312 9.216-21.504 13.312-17.408 9.216-30.72 17.408-44.032 21.504 0 0 0 0-4.096 0-13.312 9.216-38.912 26.624-73.728 26.624-43.008 0-73.728-30.72-95.232-56.32-43.008 25.6-73.728 56.32-100.352 99.328 26.624 21.504 52.224 52.224 52.224 95.232 0 9.216 0 17.408-4.096 26.624 0 0 0 0 4.096 0 21.504 8.192 26.624 8.192 44.032 17.408 12.288 4.096 34.816 8.192 38.912 21.504v43.008c0 5.12 0 9.216 0 17.408 0 9.216 0 9.216-4.096 17.408 4.096 9.216 0 17.408-5.12 21.504-8.192 17.408-17.408 34.816-21.504 56.32-4.096 22.528-8.192 44.032-8.192 65.536 0 30.72 4.096 56.32 8.192 77.824s17.408 34.816 30.72 48.128c12.288 13.312 25.6 21.504 38.912 30.72 13.312 4.096 30.72 8.192 43.008 8.192v0 0c0 0 0 0 0 0v0c0 0 0 0 0 0v0 0c0 0 0 0 0 0v0c0 0 0 0 0 0v0 0c17.408 0 30.72-4.096 44.032-8.192 17.408-9.216 29.696-17.408 38.912-30.72 13.312-13.312 21.504-30.72 25.6-52.224 9.216-21.504 9.216-48.128 9.216-77.824 0-21.504-5.12-44.032-9.216-65.536s-12.288-38.912-21.504-56.32c-4.096-8.192-8.192-13.312-13.312-17.408s9.216-4.096 9.216-8.192c0-5.12 0-13.312 0-17.408v-44.032c4.096-12.288 21.504-17.408 38.912-21.504 17.408-8.192 21.504-8.192 43.008-17.408 21.504-8.192 21.504-8.192 34.816-12.288 13.312-5.12 21.504-9.216 34.816-13.312 13.312-9.216 30.72-17.408 38.912-30.72 4.096-13.312 4.096-30.72 4.096-30.72v-51.2h74.752c0 0 0 51.2 0 51.2 16.384-4.096 16.384-4.096 16.384 0zM395.264 166.4c8.192-5.12 21.504-17.408 34.816-17.408 21.504 0 56.32 73.728 81.92 73.728 13.312 0 25.6-13.312 34.816-17.408 21.504-13.312 48.128-26.624 69.632-38.912 8.192-5.12 25.6-13.312 29.696-22.528 0-4.096 0-4.096 0-8.192 0-13.312-8.192-43.008-12.288-56.32-9.216-21.504-30.72-30.72-48.128-44.032-21.504-12.288-48.128-21.504-73.728-21.504-38.912 0-69.632 17.408-104.448 26.624-21.504 8.192-47.104 21.504-68.608 29.696-69.632 44.032-148.48 125.952-191.488 191.488-13.312 21.504-21.504 47.104-30.72 69.632-12.288 34.816-25.6 68.608-25.6 103.424 0 26.624 9.216 52.224 21.504 73.728 9.216 17.408 21.504 39.936 44.032 48.128 12.288 8.192 38.912 13.312 56.32 13.312 4.096 0 4.096 0 8.192 0-4.096 4.096 4.096-13.312 9.216-21.504 12.288-22.528 25.6-48.128 38.912-69.632 8.192-9.216 17.408-21.504 17.408-34.816 0 0 0 0 0-4.096 0 0 0 0 0 0-9.216-26.624-69.632-57.344-69.632-73.728 0-9.216 8.192-26.624 17.408-34.816 38.912-78.848 87.040-125.952 160.768-164.864z" />
<glyph unicode="&#xe83e;" glyph-name="delivery" horiz-adv-x="1450" d="M373.76 615.936h-76.8c-62.464 0-110.592-48.128-110.592-110.592v-66.56c0-14.336 10.24-24.576 24.576-24.576h162.816c14.336 0 23.552 10.24 23.552 24.576v152.576c-5.12 10.24-14.336 24.576-23.552 24.576zM1282.048 960h-818.176v-157.696h-123.904c-186.368 0-339.968-153.6-339.968-339.968v-220.16c0-86.016 66.56-153.6 153.6-153.6h161.792c19.456-86.016 101.376-152.576 191.488-152.576 96.256 0 173.056 66.56 191.488 152.576v0h205.824c19.456-86.016 100.352-152.576 191.488-152.576 96.256 0 172.032 66.56 191.488 152.576v0c91.136 5.12 157.696 81.92 157.696 173.056v526.336c10.24 95.232-71.68 172.032-162.816 172.032zM325.632 194.048v0h-167.936c-23.552 0-47.104 24.576-47.104 48.128v215.040c0 130.048 104.448 234.496 233.472 234.496h119.808v-372.736c-61.44-14.336-114.688-62.464-138.24-124.928zM512 41.472c-52.224 0-91.136 43.008-91.136 91.136 0 52.224 43.008 90.112 91.136 90.112 52.224 0 91.136-43.008 91.136-90.112s-43.008-91.136-91.136-91.136zM1100.8 41.472c-53.248 0-91.136 43.008-91.136 91.136 0 52.224 43.008 90.112 91.136 90.112s91.136-43.008 91.136-90.112c0-53.248-43.008-91.136-91.136-91.136zM1344.512 261.632c0-33.792-23.552-62.464-62.464-62.464v0c-23.552 76.8-100.352 134.144-186.368 134.144s-157.696-57.344-186.368-134.144h-215.040c-19.456 57.344-67.584 105.472-130.048 124.928v0 530.432h708.608c33.792 0 62.464-28.672 62.464-62.464l9.216-530.432z" />
<glyph unicode="&#xe83f;" glyph-name="dollar" horiz-adv-x="554" d="M380.928 512.512v0h-39.936v173.056h28.672c27.648 0 44.032-22.528 44.032-44.032v-45.056h123.904v45.056c0 94.208-78.848 173.056-174.080 173.056h-27.648v145.408h-33.792c-50.176 0-89.088-38.912-89.088-95.232v-50.176h-39.936c-94.208 0-173.056-78.848-173.056-173.056v-83.968c0-95.232 78.848-174.080 173.056-174.080h33.792v-179.2h-38.912c-27.648 0-45.056 22.528-45.056 45.056v45.056h-122.88v-45.056c0-95.232 78.848-173.056 173.056-173.056h39.936v-146.432h32.768c51.2 0 95.232 39.936 95.232 95.232v51.2h39.936c95.232 0 173.056 77.824 173.056 173.056v83.968c0 100.352-77.824 179.2-173.056 179.2zM173.056 512.512c-21.504 0-44.032 16.384-44.032 45.056v83.968c0 27.648 22.528 44.032 44.032 44.032h33.792v-179.2l-33.792 6.144zM431.104 255.488c0-28.672-22.528-45.056-45.056-45.056h-45.056v179.2h39.936c27.648 0 44.032-22.528 44.032-45.056v-89.088z" />
<glyph unicode="&#xe840;" glyph-name="myrogers" horiz-adv-x="1077" d="M1069.056 262.656c-7.168 7.168-14.336 14.336-37.888 14.336-7.168 0-22.528 0-45.056-7.168 0 0-7.168 0-15.36 0v15.36c8.192 53.248 15.36 75.776 15.36 82.944v0 0 0l7.168 46.080c15.36 67.584 30.72 120.832 37.888 136.192 23.552 53.248 37.888 83.968 37.888 98.304 0 8.192 0 15.36 0 23.552s-14.336 7.168-22.528 7.168v0c-15.36 0-37.888-7.168-45.056-37.888l-37.888-98.304c-8.192-30.72-15.36-46.080-22.528-61.44v0c-53.248-113.664-68.608-129.024-68.608-129.024s-8.192 8.192 7.168 53.248c0 15.36 8.192 30.72 15.36 46.080 0 7.168 0 29.696 15.36 53.248l30.72 98.304c0 7.168 0 15.36 0 22.528s-23.552 8.192-30.72 8.192c-30.72 0-46.080-23.552-53.248-76.8-7.168-14.336-15.36-29.696-22.528-52.224-8.192-23.552-22.528-37.888-37.888-68.608-22.528-37.888-37.888-60.416-46.080-75.776 0 15.36 0 75.776 23.552 166.912 7.168 37.888 29.696 106.496 52.224 189.44 30.72 98.304 53.248 151.552 68.608 174.080v0c0 8.192 0 15.36-7.168 23.552-15.36 14.336-37.888 22.528-83.968 22.528v0c-15.36-8.192-29.696-22.528-29.696-46.080v-7.168c0-15.36-8.192-30.72-8.192-37.888 0-15.36 0-15.36-7.168-22.528-30.72-75.776-75.776-166.912-129.024-266.24-83.968-151.552-106.496-166.912-106.496-166.912s0 0-7.168 0c-15.36 30.72-22.528 53.248-15.36 144.384 0 37.888 7.168 75.776 15.36 121.856 0 37.888 7.168 82.944 15.36 129.024 14.336 67.584 29.696 105.472 37.888 129.024v7.168c-23.552 22.528-46.080 37.888-61.44 37.888-29.696 0-45.056-15.36-53.248-53.248-14.336-67.584-45.056-151.552-98.304-242.688-45.056-98.304-98.304-174.080-144.384-234.496-14.336-15.36-29.696-30.72-37.888-38.912v0l-14.336-14.336c-23.552-15.36-37.888-23.552-53.248-23.552-8.192 0-15.36 0-30.72 8.192s-22.528 0-45.056 7.168v0l-30.72-15.36v-7.168c22.528-37.888 45.056-53.248 83.968-53.248 90.112 0 189.44 106.496 303.104 326.656 15.36 29.696 29.696 60.416 37.888 75.776-8.192-75.776-8.192-91.136-8.192-99.328 0-14.336 0-29.696 0-37.888 0-14.336 0-14.336 0-22.528 0-98.304 8.192-158.72 37.888-189.44 8.192-15.36 23.552-15.36 38.912-15.36 45.056 0 98.304 68.608 165.888 204.8 23.552 46.080 46.080 83.968 61.44 113.664 0 8.192 7.168 15.36 15.36 23.552 0-8.192 0-15.36-8.192-30.72 0-15.36-7.168-30.72-7.168-37.888l-8.192-22.528c-14.336-61.44-22.528-121.856-22.528-182.272 0-53.248 0-83.968 15.36-91.136 7.168-7.168 15.36-7.168 30.72-7.168v0c0 0 7.168 0 7.168 0v0c15.36 0 37.888 22.528 60.416 60.416 0-22.528 8.192-37.888 15.36-53.248 7.168-7.168 22.528-15.36 37.888-15.36s30.72 8.192 46.080 22.528c0 0 7.168 15.36 14.336 23.552 0-8.192 0-15.36 0-30.72-7.168-15.36-7.168-30.72-7.168-53.248-37.888-7.168-83.968-29.696-129.024-60.416-68.608-37.888-106.496-91.136-113.664-137.216-8.192-37.888 0-67.584 15.36-82.944 15.36-22.528 37.888-37.888 75.776-37.888 98.304 0 158.72 75.776 196.608 227.328 0 0 0 8.192 0 15.36l8.192 37.888c0 0 0 8.192 0 8.192 29.696 7.168 37.888 7.168 37.888 7.168 15.36 0 29.696 0 45.056-7.168v0l15.36 7.168c7.168 7.168 7.168 15.36 7.168 15.36 8.192 0 8.192 7.168 0 15.36zM758.784-26.112c-15.36 0-22.528 7.168-30.72 15.36-7.168 15.36-7.168 29.696-7.168 37.888 7.168 37.888 29.696 68.608 67.584 98.304 30.72 22.528 68.608 46.080 106.496 53.248l-7.168-45.056c-8.192-37.888-23.552-76.8-46.080-106.496-22.528-30.72-53.248-53.248-82.944-53.248z" />
<glyph unicode="&#xe841;" glyph-name="record" horiz-adv-x="1019" d="M792.050 672.452c-125.728 0-226.946-101.218-226.946-226.946 0-43.574 9.532-77.162 29.049-111.204-63.091 0-116.197 0-169.302 0 19.517 34.042 29.049 72.623 29.049 111.204 0 125.728-101.218 226.946-226.946 226.946s-226.946-101.218-226.946-226.946c0-115.742 91.687-212.422 207.429-221.954v0h574.627c4.993 0 9.986 0 9.986 0 125.274 0 226.946 101.218 226.946 226.946s-101.672 221.954-226.946 221.954zM111.213 445.506c0 62.637 53.106 111.204 110.75 111.204s116.197-48.566 116.197-111.204-48.566-111.204-111.204-111.204-115.742 48.566-115.742 111.204zM792.050 334.303c-63.091 0-111.204 53.106-111.204 111.204s53.106 111.204 111.204 111.204c62.637 0 110.75-53.106 110.75-111.204s-48.112-111.204-110.75-111.204z" />
<glyph unicode="&#xe842;" glyph-name="youtube" d="M731.136 448q0 21.504-16.384 30.72l-292.864 183.296q-17.408 11.264-36.864 1.024t-19.456-31.744v-366.592q0-21.504 19.456-31.744 9.216-4.096 17.408-4.096 11.264 0 19.456 5.12l292.864 183.296q16.384 9.216 16.384 30.72zM1024 448q0-55.296-1.024-86.016t-4.096-77.824-13.312-83.968q-9.216-41.984-38.912-70.656t-71.68-32.768q-125.952-14.336-382.976-14.336t-382.976 14.336q-40.96 4.096-71.68 32.768t-39.936 70.656q-7.168 36.864-12.288 83.968t-4.096 77.824-1.024 86.016 1.024 86.016 4.096 77.824 13.312 83.968q9.216 41.984 38.912 70.656t71.68 32.768q125.952 14.336 382.976 14.336t382.976-14.336q40.96-4.096 71.68-32.768t39.936-70.656q8.192-36.864 12.288-83.968t4.096-77.824 1.024-86.016z" />
<glyph unicode="&#xe843;" glyph-name="more-info" d="M421.888 960h180.224c235.52 0 421.888-186.368 421.888-421.888v-180.224c0-235.52-186.368-421.888-421.888-421.888h-602.112v602.112c0 235.52 186.368 421.888 421.888 421.888z" />
<glyph unicode="&#xe844;" glyph-name="carousel-right" d="M0 448c0-282.624 229.376-512 512-512s512 229.376 512 512-229.376 512-512 512-512-229.376-512-512zM604.16 448l-214.016 241.664 66.56 57.344 264.192-299.008-264.192-297.984-66.56 56.32 214.016 241.664z" />
<glyph unicode="&#xe845;" glyph-name="carousel-left" d="M512 960c-282.624 0-512-229.376-512-512s229.376-512 512-512 512 229.376 512 512-229.376 512-512 512zM633.856 206.336l-66.56-56.32-264.192 297.984 264.192 299.008 66.56-57.344-214.016-241.664 214.016-241.664z" />
<glyph unicode="&#xe846;" glyph-name="chevron-down" d="M0 616.96l105.472 115.712 406.528-360.448 407.552 361.472 104.448-116.736-512-453.632-512 453.632z" />
<glyph unicode="&#xe847;" glyph-name="north-america-v2" horiz-adv-x="1094" d="M367.616 90.624c-3.072 13.312-23.552 9.216-34.816 12.288-1.024 0-6.144-4.096-6.144-5.12 1.024-15.36 3.072-28.672 11.264-41.984 14.336-25.6 26.624-52.224 38.912-79.872 4.096-9.216 6.144-19.456 14.336-26.624 3.072-2.048 3.072-8.192 4.096-13.312-11.264 10.24-21.504 18.432-29.696 27.648-4.096 4.096-7.168 11.264-7.168 16.384 1.024 15.36-8.192 22.528-18.432 30.72-6.144 5.12-12.288 10.24-18.432 15.36 13.312 12.288 13.312 18.432 2.048 31.744-15.36 18.432-19.456 41.984-24.576 63.488-4.096 19.456-12.288 34.816-29.696 44.032-18.432 9.216-19.456 28.672-25.6 44.032-3.072 10.24-4.096 21.504-7.168 31.744-9.216 27.648-9.216 54.272-1.024 82.944 5.12 14.336 11.264 28.672 16.384 44.032 5.12 18.432 9.216 37.888 14.336 57.344 1.024 5.12 3.072 10.24 4.096 15.36-6.144 10.24-13.312 21.504-19.456 31.744-4.096 8.192-6.144 16.384-2.048 26.624 6.144 14.336 1.024 30.72-3.072 46.080-1.024 7.168 1.024 14.336 1.024 22.528-1.024 9.216-2.048 19.456-3.072 29.696-2.048 0-3.072 0-4.096 1.024-2.048-3.072-4.096-7.168-6.144-10.24-6.144 4.096-8.192 10.24-5.12 17.408 1.024 3.072 2.048 6.144 2.048 9.216-1.024 7.168 2.048 11.264 8.192 13.312 3.072 1.024 5.12 4.096 7.168 7.168-1.024 1.024-2.048 2.048-3.072 3.072-6.144-3.072-12.288-7.168-19.456-11.264 0 8.192 2.048 16.384 2.048 23.552s-1.024 14.336-3.072 20.48c-4.096 22.528-14.336 40.96-31.744 56.32-7.168 6.144-13.312 14.336-12.288 26.624 0 7.168-8.192 9.216-12.288 6.144-14.336-11.264-26.624 0-41.984-2.048 7.168 16.384 20.48 17.408 32.768 20.48 0 2.048 0 3.072 0 4.096-6.144 1.024-12.288 3.072-17.408 2.048-9.216-2.048-18.432-4.096-27.648-7.168-2.048 0-4.096-1.024-5.12-2.048-5.12-11.264-15.36-8.192-24.576-9.216-16.384 0-31.744-1.024-47.104 1.024-8.192 1.024-17.408 7.168-26.624 11.264-3.072 1.024-5.12 3.072-8.192 6.144 27.648-9.216 55.296-14.336 79.872 5.12-7.168 11.264-14.336 22.528-22.528 33.792 8.192 7.168 16.384 14.336 24.576 21.504 2.048 1.024 3.072 4.096 4.096 5.12-2.048 1.024-5.12 1.024-7.168 1.024-1.024 0-2.048-1.024-3.072-1.024-4.096 0-8.192-1.024-13.312-1.024 1.024 5.12 1.024 11.264 3.072 16.384s6.144 10.24 10.24 15.36c1.024 2.048 3.072 4.096 5.12 4.096 12.288 1.024 23.552 10.24 35.84-2.048 9.216-9.216 25.6-6.144 32.768 4.096 1.024 1.024-1.024 8.192-3.072 8.192-12.288 4.096-15.36 14.336-17.408 23.552-2.048 5.12 5.12 12.288 9.216 17.408 1.024 2.048 7.168 0 11.264-1.024 8.192-3.072 13.312-5.12 10.24-15.36-1.024-2.048 5.12-8.192 8.192-8.192 2.048-1.024 7.168 4.096 8.192 7.168 4.096 11.264 7.168 22.528 11.264 33.792 1.024 6.144 5.12 8.192 11.264 6.144 13.312-3.072 26.624-9.216 38.912-10.24 21.504-1.024 28.672-14.336 36.864-30.72 7.168-15.36 14.336-30.72 28.672-44.032 9.216-9.216 15.36-22.528 21.504-33.792 3.072-7.168 5.12-11.264 13.312-9.216 4.096 0 8.192-2.048 11.264-4.096 10.24-11.264 15.36-12.288 27.648-5.12 9.216 6.144 13.312 3.072 19.456-5.12 4.096-6.144 13.312-8.192 20.48-11.264 5.12-3.072 12.288-6.144 18.432-9.216 10.24-8.192 19.456-15.36 29.696-23.552-6.144-10.24-5.12-13.312 6.144-16.384 10.24-2.048 21.504-4.096 32.768-6.144 1.024 0 4.096 4.096 5.12 6.144 3.072 3.072 5.12 9.216 9.216 10.24s10.24-2.048 12.288-5.12c10.24-13.312 23.552-16.384 37.888-13.312 4.096 1.024 9.216 6.144 10.24 10.24 2.048 4.096-2.048 9.216-4.096 16.384 1.024 0 3.072 4.096 6.144 9.216 5.12-5.12 9.216-8.192 14.336-12.288-18.432-11.264-1.024-18.432-1.024-28.672 16.384 15.36 17.408 25.6 3.072 40.96-3.072 3.072-6.144 7.168-6.144 11.264 0 13.312 1.024 26.624 2.048 39.936 12.288-21.504 22.528-43.008 33.792-63.488 15.36 6.144 15.36 6.144 19.456-6.144 1.024-5.12 3.072-10.24 5.12-14.336 1.024-2.048 4.096-3.072 6.144-2.048 2.048 0 3.072 3.072 3.072 5.12 2.048 11.264 2.048 22.528 4.096 33.792 0 3.072 6.144 6.144 9.216 10.24 4.096-5.12 12.288-11.264 12.288-16.384 0-7.168 2.048-11.264 4.096-17.408s3.072-13.312 0-19.456c-3.072-6.144-8.192-12.288-18.432-8.192-4.096 2.048-9.216 1.024-7.168-8.192 2.048-8.192-1.024-17.408-2.048-25.6-1.024-9.216-6.144-15.36-15.36-19.456-4.096-2.048-7.168-6.144-8.192-13.312-1.024-8.192-8.192-16.384-13.312-23.552-9.216-13.312-13.312-27.648-12.288-44.032 0-9.216 0-17.408 11.264-20.48 3.072-1.024 6.144-6.144 7.168-9.216 3.072-5.12 5.12-12.288 8.192-18.432 16.384 6.144 31.744 0 46.080-7.168 16.384-8.192 33.792-15.36 54.272-13.312 3.072 1.024 8.192-4.096 10.24-7.168 3.072-6.144 5.12-13.312 7.168-20.48 5.12-16.384 20.48-22.528 32.768-31.744 1.024-2.048 7.168-1.024 8.192 1.024 2.048 7.168 7.168 15.36 6.144 21.504-3.072 10.24-9.216 20.48-15.36 28.672-6.144 7.168-5.12 11.264 0 18.432 18.432 22.528 15.36 44.032-8.192 62.464-7.168 5.12-11.264 12.288-10.24 20.48 1.024 9.216-1.024 16.384-7.168 23.552-5.12 6.144-6.144 16.384-7.168 24.576-1.024 2.048 5.12 5.12 8.192 7.168 16.384 5.12 32.768 9.216 47.104-3.072 1.024-1.024 3.072-2.048 5.12-1.024 11.264 1.024 15.36-4.096 18.432-13.312 6.144-14.336 17.408-20.48 31.744-19.456 9.216 1.024 9.216 10.24 10.24 17.408 0 8.192-1.024 15.36-2.048 24.576 4.096-2.048 7.168-3.072 10.24-5.12 17.408-13.312 34.816-25.6 53.248-38.912 11.264-7.168 22.528-12.288 37.888-12.288 16.384 1.024 33.792-4.096 47.104-16.384 3.072-2.048 6.144-7.168 6.144-11.264 1.024-5.12 2.048-8.192 8.192-10.24 2.048-1.024 5.12-6.144 5.12-10.24 1.024-7.168 1.024-13.312 2.048-22.528 11.264 5.12 19.456 9.216 28.672 13.312 1.024 0 5.12 1.024 6.144 0 4.096-3.072 9.216-6.144 11.264-10.24s2.048-10.24 2.048-15.36c-1.024-6.144-3.072-11.264-5.12-17.408 0 3.072-1.024 6.144-1.024 10.24-15.36-9.216-28.672-17.408-44.032-26.624-4.096 25.6-7.168 49.152-11.264 72.704-9.216 1.024-14.336-3.072-15.36-11.264-4.096-22.528-18.432-33.792-37.888-41.984-8.192-4.096-15.36-9.216-23.552-13.312-1.024-1.024-2.048-2.048-4.096-3.072-12.288-13.312-16.384-31.744-23.552-48.128 1.024-1.024 2.048-2.048 3.072-2.048 6.144 6.144 10.24 11.264 16.384 16.384 5.12 6.144 11.264 11.264 17.408 15.36 3.072 3.072 8.192 2.048 12.288 2.048 0-4.096 1.024-8.192 0-12.288s-4.096-7.168-4.096-8.192c5.12-5.12 9.216-10.24 14.336-15.36 3.072-3.072 6.144-6.144 10.24-8.192 2.048-1.024 5.12 0 8.192 1.024 0 1.024-1.024 4.096-1.024 7.168 4.096 1.024 10.24 2.048 16.384 4.096 2.048-10.24 8.192-7.168 15.36-4.096 0 6.144 0 12.288 0 18.432 8.192 0 12.288-4.096 10.24-12.288-2.048-6.144-5.12-11.264-8.192-16.384-3.072-7.168-6.144-14.336-9.216-21.504-1.024-2.048-2.048-6.144-3.072-6.144-9.216-4.096-14.336-10.24-16.384-18.432-1.024-1.024-5.12-2.048-6.144-1.024-3.072 2.048-6.144 5.12-6.144 8.192 0 4.096 2.048 9.216 3.072 13.312 0 2.048 0 5.12 0 8.192-1.024 1.024-2.048 1.024-4.096 2.048-5.12-8.192-9.216-16.384-15.36-24.576-7.168-8.192-14.336-16.384-21.504-25.6-15.36-17.408-15.36-25.6 0-43.008 1.024-1.024 1.024-3.072 1.024-4.096-11.264-10.24-21.504-19.456-30.72-30.72-3.072-3.072-5.12-8.192-6.144-13.312-2.048-9.216-2.048-18.432-12.288-21.504 2.048-7.168 4.096-15.36 6.144-23.552-6.144 2.048-10.24 2.048-14.336 3.072 1.024-7.168 0-15.36 3.072-20.48 12.288-18.432 12.288-34.816-1.024-52.224-12.288-16.384-25.6-33.792-38.912-50.176-10.24-13.312-10.24-41.984 0-56.32 8.192-12.288 16.384-25.6 22.528-37.888 8.192-14.336 7.168-27.648-2.048-35.84-10.24 10.24-21.504 19.456-30.72 29.696-4.096 4.096-7.168 10.24-7.168 15.36 0 15.36-12.288 20.48-20.48 26.624-4.096 3.072-11.264 2.048-14.336 0-7.168-4.096-12.288-3.072-20.48-2.048-9.216 3.072-20.48 2.048-30.72 1.024-14.336-1.024-27.648-4.096-41.984-7.168-3.072 0-5.12-2.048-9.216-5.12 6.144-2.048 10.24-3.072 14.336-5.12-6.144-8.192-14.336-9.216-22.528-5.12-3.072 2.048-6.144 3.072-8.192 2.048-14.336-1.024-27.648-2.048-40.96-4.096-4.096-1.024-8.192-4.096-12.288-7.168-7.168-5.12-10.24 9.216-17.408 5.12zM825.344 773.632c-8.192 3.072-16.384 5.12-25.6 7.168-1.024-13.312 5.12-19.456 15.36-22.528s13.312-9.216 11.264-18.432c-1.024-4.096-4.096-8.192-7.168-14.336 2.048-3.072 6.144-9.216 10.24-15.36-21.504-6.144-34.816 4.096-49.152 13.312-7.168 4.096-13.312 6.144-20.48 0-4.096-3.072-8.192-5.12-13.312-6.144-2.048-1.024-7.168 1.024-7.168 2.048-1.024 2.048 0 6.144 1.024 8.192 4.096 3.072 9.216 4.096 12.288 8.192 3.072 3.072 7.168 7.168 7.168 11.264 1.024 9.216 0 17.408-2.048 25.6-1.024 5.12-4.096 9.216-7.168 13.312-5.12-3.072-10.24-5.12-15.36-9.216-3.072-2.048-5.12-6.144-7.168-9.216-1.024 4.096-4.096 8.192-3.072 10.24 0 3.072 5.12 5.12 8.192 6.144 5.12 2.048 10.24 2.048 14.336 5.12-18.432 6.144-32.768 17.408-46.080 24.576-10.24-5.12-18.432-10.24-26.624-11.264-10.24-2.048-21.504 0-31.744 1.024-9.216 1.024-12.288 4.096-6.144 11.264-4.096 3.072-8.192 6.144-9.216 9.216-3.072 10.24 0 12.288 10.24 11.264 8.192 0 15.36 1.024 23.552 1.024 25.6 0 52.224 0 77.824 0 7.168 0 14.336 0 20.48-2.048 4.096-2.048 10.24-4.096 9.216-12.288-1.024-4.096 4.096-10.24 8.192-11.264 11.264-3.072 22.528-5.12 33.792-6.144 13.312-1.024 15.36-8.192 14.336-19.456 1.024-3.072 1.024-7.168 0-11.264z" />
<glyph unicode="&#xe848;" glyph-name="twitter-alt" horiz-adv-x="1260" d="M0 51.712q30.72-3.072 61.44-3.072 180.224 0 321.536 110.592-83.968 1.024-150.528 51.2t-91.136 128q20.48-4.096 48.128-4.096 35.84 0 68.608 9.216-90.112 17.408-148.48 89.088t-59.392 163.84v3.072q54.272-30.72 117.76-31.744-53.248 34.816-83.968 92.16t-31.744 122.88q0 69.632 35.84 130.048 96.256-119.808 235.52-190.464t296.96-79.872q-7.168 33.792-7.168 59.392 0 106.496 75.776 182.272t183.296 75.776q111.616 0 188.416-81.92 89.088 18.432 163.84 63.488-28.672-93.184-112.64-143.36 74.752 9.216 147.456 40.96-49.152-76.8-128-134.144v-33.792q0-103.424-29.696-206.848t-92.16-198.656-148.48-168.96-205.824-117.76-259.072-43.008q-214.016 0-396.288 115.712z" />
<glyph unicode="&#xe849;" glyph-name="linkedin" horiz-adv-x="749" d="M162.816 74.24h-159.744v533.504h159.744v-533.504zM566.272 591.36q89.088 0 136.192-57.344t46.080-157.696v-302.080h-159.744v285.696q0 111.616-77.824 111.616-62.464 0-81.92-63.488v-333.824h-159.744q2.048 480.256 0 533.504h125.952l10.24-105.472h3.072q55.296 89.088 157.696 89.088zM0 740.864q0 80.896 82.944 80.896 81.92 0 81.92-80.896 0-78.848-81.92-78.848-82.944 0-82.944 78.848z" />
<glyph unicode="&#xe84a;" glyph-name="lock-alt" d="M860.16 486.912h-696.32c-37.888 0-68.608-30.72-68.608-69.632v-404.48c0-38.912 30.72-69.632 68.608-69.632h694.272c37.888 0 68.608 30.72 68.608 69.632v402.432c3.072 37.888-27.648 71.68-66.56 71.68zM256 540.16h87.040c15.36 0 28.672 13.312 28.672 28.672v99.328c0 76.8 61.44 138.24 138.24 138.24s138.24-61.44 138.24-138.24v-99.328c0-15.36 12.288-28.672 27.648-28.672h92.16c15.36 0 28.672 13.312 28.672 28.672v99.328c0 156.672-128 284.672-284.672 284.672s-283.648-125.952-283.648-284.672v-99.328c0-15.36 12.288-28.672 27.648-28.672z" />
<glyph unicode="&#xe84b;" glyph-name="logo" d="M890.88 768.512c64.512-73.728 119.808-185.344 119.808-324.608 0-225.28-136.192-363.52-282.624-363.52-71.68 0-142.336 24.576-183.296 56.32 232.448 99.328 369.664 304.128 369.664 476.16 1.024 68.608-10.24 119.808-23.552 155.648zM187.392 825.856c36.864 11.264 89.088 24.576 153.6 24.576 175.104 0 377.856-137.216 476.16-369.664 32.768 40.96 57.344 111.616 57.344 183.296 0 146.432-137.216 282.624-364.544 282.624-138.24-2.048-247.808-58.368-322.56-120.832zM131.072 120.32c-11.264 35.84-24.576 89.088-24.576 153.6 0 174.080 136.192 376.832 369.664 475.136-41.984 32.768-111.616 57.344-184.32 57.344-145.408 0-282.624-136.192-282.624-364.544 2.048-138.24 57.344-247.808 121.856-321.536zM836.608 62.976c-35.84-11.264-89.088-24.576-153.6-24.576-175.104 0-377.856 136.192-476.16 369.664-32.768-41.984-57.344-111.616-57.344-183.296 0-146.432 137.216-282.624 364.544-282.624 136.192 1.024 247.808 58.368 322.56 120.832z" />
<glyph unicode="&#xe84c;" glyph-name="security" d="M459.776 565.76h84.992v-84.992h-84.992v84.992zM619.52 480.768h84.992v84.992h-84.992v-84.992zM779.264 480.768h84.992v84.992h-84.992v-84.992zM619.52 313.856h84.992v84.992h-84.992v-84.992zM779.264 313.856h84.992v84.992h-84.992v-84.992zM544.768 728.576h-84.992v-84.992h84.992v84.992zM619.52 643.584h84.992v84.992h-84.992v-84.992zM779.264 643.584h84.992v84.992h-84.992v-84.992zM887.808 895.488h-455.68c-74.752 0-136.192-61.44-136.192-136.192v-309.248c44.032 0 81.92 33.792 84.992 80.896v0 228.352c0 27.648 23.552 51.2 51.2 51.2h455.68c27.648 0 51.2-23.552 51.2-51.2v-738.304h84.992v738.304c0 74.752-61.44 136.192-136.192 136.192zM319.488 105.984c89.088 0 166.912 64.512 204.8 102.4-37.888 36.864-115.712 101.376-204.8 101.376-88.064 0-165.888-64.512-203.776-101.376 40.96-37.888 118.784-102.4 203.776-102.4zM319.488 391.68c163.84 0 289.792-152.576 295.936-159.744 14.336-17.408 14.336-36.864 0-54.272-6.144-7.168-132.096-159.744-295.936-159.744-162.816 0-288.768 152.576-295.936 159.744-13.312 17.408-13.312 36.864 0 54.272 7.168 10.24 133.12 159.744 295.936 159.744zM269.312 208.384c0-30.72 23.552-54.272 54.272-54.272s50.176 23.552 50.176 54.272c0 30.72-23.552 54.272-54.272 54.272s-50.176-23.552-50.176-54.272z" />
<glyph unicode="&#xe84d;" glyph-name="services" d="M648.192 511.488l-444.416-491.52c0 0 0 0 0 0l-92.16 92.16 490.496 445.44c11.264 11.264 15.36 30.72 11.264 46.080-26.624 64.512-15.36 138.24 34.816 187.392 37.888 38.912 92.16 54.272 145.408 46.080l-53.248-53.248c-15.36-15.36-23.552-30.72-19.456-46.080 0-26.624 19.456-41.984 34.816-57.344 4.096-4.096 7.168-8.192 11.264-12.288 4.096-3.072 8.192-7.168 11.264-11.264 12.288-15.36 30.72-34.816 58.368-34.816 15.36 0 29.696 8.192 45.056 19.456l54.272 54.272c7.168-54.272-8.192-107.52-46.080-146.432-30.72-30.72-72.704-49.152-118.784-49.152-23.552 0-46.080 3.072-69.632 15.36-22.528 11.264-41.984 7.168-53.248-4.096zM762.88 423.424c65.536 0 131.072 26.624 177.152 72.704 76.8 76.8 95.232 199.68 41.984 299.008-8.192 11.264-19.456 19.456-30.72 19.456s-26.624-4.096-34.816-12.288l-88.064-88.064c-4.096 4.096-7.168 8.192-11.264 12.288-4.096 3.072-8.192 7.168-11.264 11.264l88.064 88.064c7.168 7.168 11.264 22.528 11.264 34.816 0 11.264-8.192 22.528-19.456 30.72-37.888 18.432-76.8 30.72-122.88 30.72-64.512 0-130.048-27.648-176.128-73.728-65.536-64.512-88.064-164.864-61.44-248.832l-472.064-429.056c0 0 0 0 0 0-14.336-15.36-26.624-34.816-26.624-58.368 0-22.528 8.192-41.984 23.552-57.344l95.232-92.16c15.36-15.36 34.816-22.528 58.368-22.528 22.528 0 41.984 7.168 57.344 22.528 0 0 0 0 0 0l429.056 472.064c23.552-8.192 50.176-11.264 72.704-11.264zM805.888 384.512c-54.272-18.432-84.992-18.432-100.352-18.432l199.68-199.68c11.264-11.264 15.36-23.552 15.36-38.912s-4.096-26.624-15.36-37.888l-57.344-57.344c-19.456-19.456-54.272-19.456-72.704 0l-195.584 198.656-54.272-60.416 195.584-196.608c26.624-26.624 57.344-37.888 96.256-37.888 34.816 0 68.608 15.36 95.232 37.888l58.368 58.368c26.624 26.624 37.888 57.344 37.888 95.232 0 34.816-15.36 69.632-37.888 96.256l-164.864 160.768zM184.32 549.376c7.168-11.264 19.456-18.432 34.816-18.432l37.888 3.072 53.248-53.248 61.44 57.344-68.608 65.536c-8.192 7.168-19.456 15.36-30.72 15.36 0 0-4.096 0-4.096 0l-30.72-4.096-103.424 142.336 50.176 49.152 145.408-103.424-4.096-30.72c0-11.264 4.096-22.528 12.288-30.72l72.704-72.704 61.44 57.344-61.44 61.44 4.096 38.912c0 15.36-4.096 26.624-15.36 33.792l-192.512 138.24c-15.36 11.264-37.888 11.264-53.248-4.096l-103.424-103.424c-15.36-15.36-15.36-37.888-4.096-53.248l138.24-188.416z" />
<glyph unicode="&#xe84e;" glyph-name="calendar-v2" horiz-adv-x="1057" d="M250.88 393.728c-28.672 0-50.176-23.552-50.176-50.176 0-28.672 21.504-51.2 50.176-51.2s51.2 22.528 51.2 51.2c0 26.624-22.528 50.176-51.2 50.176zM436.224 393.728c-28.672 0-51.2-23.552-51.2-50.176 0-28.672 22.528-51.2 51.2-51.2s50.176 22.528 50.176 51.2c0 26.624-21.504 50.176-50.176 50.176zM621.568 391.68c-28.672 0-51.2-23.552-51.2-50.176 0-28.672 22.528-51.2 51.2-51.2s50.176 22.528 50.176 51.2c0 26.624-22.528 50.176-50.176 50.176zM805.888 391.68c-28.672 0-50.176-23.552-50.176-50.176 0-28.672 21.504-51.2 50.176-51.2s51.2 22.528 51.2 51.2c2.048 26.624-22.528 50.176-51.2 50.176zM436.224 563.712c-28.672 0-51.2-24.576-51.2-51.2 0-27.648 22.528-50.176 51.2-50.176s50.176 22.528 50.176 50.176c0 26.624-21.504 51.2-50.176 51.2zM621.568 561.664c-28.672 0-51.2-24.576-51.2-51.2 0-28.672 22.528-50.176 51.2-50.176s50.176 21.504 50.176 50.176-22.528 51.2-50.176 51.2zM805.888 561.664c-28.672 0-50.176-24.576-50.176-51.2 0-28.672 21.504-50.176 50.176-50.176s51.2 21.504 51.2 50.176c2.048 28.672-22.528 51.2-51.2 51.2zM250.88 222.72c-28.672 0-50.176-24.576-50.176-51.2 0-28.672 21.504-50.176 50.176-50.176s51.2 21.504 51.2 50.176-22.528 51.2-51.2 51.2zM436.224 222.72c-28.672 0-51.2-24.576-51.2-51.2 0-28.672 22.528-50.176 51.2-50.176s50.176 21.504 50.176 50.176-21.504 51.2-50.176 51.2zM621.568 219.648c-28.672 0-51.2-23.552-51.2-50.176 0-28.672 22.528-50.176 51.2-50.176s50.176 21.504 50.176 50.176-22.528 50.176-50.176 50.176zM805.888 219.648c-28.672 0-50.176-23.552-50.176-50.176 0-28.672 21.504-50.176 50.176-50.176s51.2 21.504 51.2 50.176c2.048 28.672-22.528 50.176-51.2 50.176zM880.64 960h-704.512c-97.28 0-176.128-78.848-176.128-176.128v-671.744c0-97.28 78.848-176.128 176.128-176.128h704.512c97.28 0 176.128 78.848 176.128 176.128v447.488c-54.272 0-96.256-44.032-98.304-97.28v0-350.208c0-41.984-35.84-76.8-77.824-76.8h-704.512c-41.984 0-76.8 34.816-76.8 76.8v524.288h957.44v145.408c0 99.328-78.848 178.176-176.128 178.176zM99.328 737.792v46.080c0 41.984 34.816 76.8 76.8 76.8h704.512c41.984 0 77.824-34.816 77.824-76.8v-46.080h-859.136z" />
<glyph unicode="&#xe84f;" glyph-name="radio-off" d="M512 887.296c241.664 0 439.296-197.632 439.296-439.296s-197.632-439.296-439.296-439.296-439.296 197.632-439.296 439.296 197.632 439.296 439.296 439.296zM512 960c-281.6 0-512-230.4-512-512s230.4-512 512-512 512 230.4 512 512-230.4 512-512 512v0z" />
<glyph unicode="&#xe850;" glyph-name="radio-on" d="M512 960c-281.6 0-512-230.4-512-512s230.4-512 512-512 512 230.4 512 512-230.4 512-512 512zM512 8.704c-241.664 0-439.296 197.632-439.296 439.296s197.632 439.296 439.296 439.296 439.296-197.632 439.296-439.296-197.632-439.296-439.296-439.296zM512 667.136c120.832 0 219.136-98.304 219.136-219.136s-98.304-219.136-219.136-219.136-219.136 98.304-219.136 219.136 98.304 219.136 219.136 219.136z" />
<glyph unicode="&#xe851;" glyph-name="schedule-call" horiz-adv-x="951" d="M509.952-64c-160.768 0-326.656 162.816-334.848 171.008s-205.824 208.896-171.008 384c14.336 74.752 68.608 130.048 156.672 167.936 31.744 12.288 87.040 18.432 130.048-50.176l58.368-96.256c0-2.048 2.048-2.048 2.048-4.096 22.528-48.128 32.768-99.328-24.576-149.504l-4.096-4.096c8.192-10.24 18.432-24.576 36.864-43.008l16.384-16.384c16.384-16.384 30.72-28.672 43.008-36.864l4.096 4.096c50.176 57.344 99.328 45.056 147.456 24.576 2.048 0 2.048-2.048 4.096-2.048l96.256-58.368c68.608-43.008 62.464-98.304 50.176-128-37.888-90.112-93.184-144.384-169.984-160.768-12.288 0-26.624-2.048-40.96-2.048zM202.752 573.952c0 0-2.048 0-6.144-2.048-58.368-22.528-91.136-55.296-99.328-99.328-20.48-105.472 101.376-256 144.384-299.008s189.44-162.816 292.864-140.288c44.032 8.192 76.8 43.008 101.376 103.424 2.048 4.096 0 4.096 0 6.144v0c0 0-2.048 4.096-12.288 10.24l-95.232 55.296c-18.432 8.192-24.576 8.192-26.624 8.192 0 0-4.096-2.048-10.24-10.24l-30.72-32.768c-12.288-12.288-31.744-18.432-48.128-12.288-8.192 2.048-47.104 14.336-105.472 73.728l-16.384 17.408c-57.344 57.344-71.68 98.304-73.728 104.448-4.096 16.384 0 35.84 12.288 48.128l30.72 28.672c10.24 8.192 12.288 12.288 12.288 12.288s0 6.144-8.192 24.576l-55.296 95.232c-2.048 4.096-6.144 6.144-6.144 8.192zM631.808 543.232c-115.712 0-208.896 93.184-208.896 207.872s93.184 208.896 208.896 208.896 208.896-93.184 208.896-208.896-93.184-207.872-208.896-207.872zM631.808 866.816c-64.512 0-115.712-51.2-115.712-115.712s51.2-114.688 115.712-114.688 115.712 51.2 115.712 114.688-52.224 115.712-115.712 115.712zM951.296 181.76h-92.16c0 125.952-101.376 227.328-227.328 227.328-55.296 0-109.568-20.48-150.528-58.368l-62.464 70.656c58.368 51.2 134.144 79.872 212.992 79.872 177.152 0 319.488-142.336 319.488-319.488z" />
<glyph unicode="&#xe852;" glyph-name="comment-question" d="M532.48 437.76c-6.144 2.048-13.312 4.096-20.48 4.096s-13.312-2.048-20.48-4.096c-6.144-3.072-11.264-6.144-16.384-11.264-5.12-4.096-9.216-10.24-11.264-16.384-3.072-6.144-4.096-12.288-4.096-19.456s1.024-13.312 4.096-19.456c3.072-6.144 7.168-11.264 11.264-16.384 5.12-4.096 10.24-8.192 16.384-10.24 6.144-3.072 13.312-4.096 20.48-4.096 14.336 0 26.624 5.12 36.864 15.36 9.216 9.216 14.336 22.528 14.336 36.864 0 6.144-1.024 13.312-4.096 19.456-2.048 6.144-6.144 11.264-11.264 16.384-4.096 3.072-9.216 6.144-15.36 9.216zM578.56 535.040c9.216 7.168 16.384 13.312 23.552 19.456s12.288 12.288 17.408 19.456c5.12 7.168 9.216 15.36 12.288 23.552 2.048 9.216 4.096 18.432 4.096 30.72 0 17.408-4.096 32.768-10.24 45.056-7.168 13.312-16.384 24.576-27.648 32.768s-23.552 14.336-37.888 18.432c-14.336 3.072-28.672 5.12-44.032 5.12s-30.72-2.048-45.056-6.144c-14.336-5.12-27.648-11.264-38.912-21.504-11.264-9.216-21.504-20.48-28.672-33.792s-11.264-30.72-13.312-48.128l-1.024-5.12 87.040-9.216 1.024 5.12c0 10.24 4.096 20.48 10.24 28.672 5.12 8.192 14.336 12.288 25.6 12.288 10.24 0 17.408-3.072 22.528-8.192s7.168-11.264 7.168-21.504c0-6.144-1.024-11.264-4.096-15.36-4.096-5.12-8.192-10.24-13.312-14.336l-16.384-15.36c-6.144-5.12-12.288-11.264-16.384-16.384-5.12-5.12-9.216-11.264-12.288-16.384-4.096-6.144-6.144-12.288-8.192-19.456-1.024-7.168-2.048-15.36-2.048-23.552v-24.576h84.992v18.432c0 4.096 1.024 8.192 1.024 12.288 1.024 3.072 2.048 6.144 4.096 9.216 1.024 3.072 4.096 5.12 7.168 8.192 2.048 2.048 6.144 6.144 11.264 10.24zM871.424 909.824h-576.512c0-44.032 34.816-80.896 78.848-81.92v0h497.664c38.912 0 70.656-31.744 70.656-71.68v-431.104c0-38.912-31.744-70.656-70.656-70.656h-330.752c-9.216 0-17.408-3.072-24.576-9.216l-173.056-134.144-1.024 102.4c0 22.528-18.432 40.96-40.96 40.96h-148.48c-38.912 0-70.656 31.744-70.656 70.656v360.448h-81.92v-360.448c0-83.968 68.608-152.576 152.576-152.576h108.544l1.024-145.408c0-15.36 9.216-29.696 23.552-35.84 5.12-3.072 11.264-4.096 17.408-4.096 9.216 0 18.432 3.072 25.6 8.192l226.304 177.152h316.416c83.968 0 152.576 68.608 152.576 152.576v431.104c0 84.992-68.608 153.6-152.576 153.6z" />
<glyph unicode="&#xe853;" glyph-name="community-forums" d="M192.512 347.648c71.68 0 130.048 58.368 130.048 130.048s-58.368 129.024-130.048 129.024c-71.68 0-129.024-57.344-129.024-129.024s57.344-130.048 129.024-130.048zM192.512 530.944c29.696 0 53.248-24.576 53.248-53.248 0-29.696-23.552-53.248-53.248-53.248-28.672 0-53.248 23.552-53.248 53.248 0 28.672 24.576 53.248 53.248 53.248zM831.488 347.648c71.68 0 130.048 58.368 130.048 130.048s-58.368 129.024-130.048 129.024c-71.68 0-130.048-57.344-130.048-129.024s58.368-130.048 130.048-130.048zM831.488 530.944c29.696 0 53.248-24.576 53.248-53.248 0-29.696-23.552-53.248-53.248-53.248s-53.248 23.552-53.248 53.248c0 28.672 23.552 53.248 53.248 53.248zM831.488 320c-39.936 0-77.824-12.288-109.568-33.792-48.128 63.488-123.904 104.448-209.92 104.448s-161.792-40.96-209.92-104.448c-31.744 21.504-69.632 33.792-109.568 33.792-105.472 0-192.512-86.016-192.512-192.512h76.8c0 63.488 52.224 115.712 115.712 115.712 26.624 0 52.224-8.192 72.704-24.576-11.264-28.672-17.408-59.392-17.408-91.136h76.8c0 102.4 83.968 187.392 187.392 187.392s187.392-83.968 187.392-187.392h76.8c0 31.744-6.144 62.464-17.408 91.136 20.48 16.384 46.080 24.576 72.704 24.576 63.488 0 115.712-52.224 115.712-115.712h76.8c0 106.496-86.016 192.512-192.512 192.512zM512 424.448c94.208 0 172.032 76.8 172.032 172.032 0 94.208-77.824 172.032-172.032 172.032-95.232 0-172.032-77.824-172.032-172.032 0-95.232 76.8-172.032 172.032-172.032zM512 691.712c52.224 0 95.232-43.008 95.232-95.232s-43.008-95.232-95.232-95.232c-52.224 0-95.232 43.008-95.232 95.232s43.008 95.232 95.232 95.232z" />
</font>
</defs>
</svg>
