<?xml version="1.0" encoding="UTF-8"?>
<svg height="100%" width="100%" xmlns="http://www.w3.org/2000/svg">
	<defs>
		<font horiz-adv-x="387" id="web">
			<font-face alphabetic="0" ascent="968" descent="-253" font-family="" panose-1="2 0 5 7 0 0 0 0 0 4"/>
			<missing-glyph d="M0 718H512V0H0ZM50 667V50H462V667ZM259 609Q313 609 348 573T383 478Q383 444 370 418T320 358Q283 325 277 306T271 234H225L223 251Q223 307 236 332Q251 360 282 391Q313 420 322 437T332 474Q332 510 309 534T256 559Q223 559 201 536T174 464L124 472Q131 541 167 575T259 609ZM222 184H278V117H222Z" horiz-adv-x="512"/>
			<glyph d="" horiz-adv-x="250" unicode=" "/>
			<glyph d="M109 708H213L207 215H116ZM161 118Q187 118 206 99T225 55Q225 29 206 10T161 -8Q135 -8 116 10T98 55Q98 81 116 99T161 118Z" horiz-adv-x="323" unicode="!"/>
			<glyph d="M100 708H180V458H100ZM268 708H348V458H268Z" horiz-adv-x="449" unicode="&quot;"/>
			<glyph d="M202 708H272L242 492H363L393 708H462L433 492H528V427H424L404 282H500V217H395L365 0H296L326 217H204L175 0H106L135 217H38V282H144L164 427H66V492H173ZM233 427L214 282H335L354 427Z" horiz-adv-x="576" unicode="#"/>
			<glyph d="M271 790H322V721Q377 720 430 703T518 664L493 579Q464 602 416 620T322 641V397L331 394Q396 371 436 350T503 290T531 190Q531 102 470 50T322 -12V-84H268L269 -13Q208 -10 150 9T55 58L73 152Q113 118 165 96T269 72L270 318Q204 341 163 363T95 424T68 522Q68 608 126 658T271 719ZM271 637Q227 629 198 602T169 531Q169 488 193 463T270 417ZM322 299V75Q369 84 399 111T429 184Q429 228 402 253T322 299Z" horiz-adv-x="604" unicode="$"/>
			<glyph d="M619 738L677 709L247 -31L190 -2ZM215 718Q263 718 303 694T366 631T390 543Q390 494 366 454T303 390T215 367Q167 367 126 390T62 454T39 543Q39 591 62 631T126 694T215 718ZM215 649Q171 649 140 618T110 543Q110 498 140 467T215 437Q258 437 288 467T319 543Q319 587 288 618T215 649ZM654 341Q702 341 742 317T806 253T830 165Q830 117 806 77T742 13T654 -10Q606 -10 566 13T502 77T479 165Q479 213 502 253T566 317T654 341ZM654 271Q610 271 579 240T549 165Q549 120 579 89T654 59Q697 59 728 89T759 165Q759 209 728 240T654 271Z" horiz-adv-x="866" unicode="%"/>
			<glyph d="M323 726Q372 726 414 707T482 651T507 564Q507 501 466 457T351 375L497 220L589 376H697L559 162L717 0H591L501 95Q461 41 408 13T285 -15Q223 -15 171 8T88 78T57 189Q57 260 99 309T216 393Q174 437 154 476T134 559Q134 612 160 650T230 707T323 726ZM324 653Q282 653 254 626T226 557Q226 524 245 492T298 428Q355 456 386 486T418 560Q418 601 391 627T324 653ZM271 336Q217 311 186 276T155 191Q155 134 195 98T290 63Q383 63 442 156Z" horiz-adv-x="741" unicode="&amp;"/>
			<glyph d="M100 708H180V458H100Z" horiz-adv-x="281" unicode="'"/>
			<glyph d="M186 737L255 702Q194 618 160 508T126 288Q126 178 160 68T255 -126L186 -161Q120 -68 83 49T46 288Q46 410 83 527T186 737Z" horiz-adv-x="320" unicode="("/>
			<glyph d="M133 737Q200 644 237 526T274 288Q274 167 237 49T133 -161L64 -126Q125 -42 159 68T193 288Q193 398 159 508T64 702Z" horiz-adv-x="320" unicode=")"/>
			<glyph d="M199 708H267V561L409 606L431 543L288 499L378 377L322 337L232 461L143 339L88 379L178 499L34 545L57 608L199 561Z" horiz-adv-x="465" unicode="*"/>
			<glyph d="M294 561H373V342H591V265H374V46H295V265H75V342H294Z" horiz-adv-x="666" unicode="+"/>
			<glyph d="M136 137Q164 137 182 116T201 61Q201 0 166 -50T78 -137L45 -110Q73 -88 96 -57T128 8Q104 11 87 29T71 72Q71 99 90 118T136 137Z" horiz-adv-x="272" unicode=","/>
			<glyph d="M46 295H269V217H46Z" horiz-adv-x="316" unicode="-"/>
			<glyph d="M136 122Q163 122 182 103T201 57Q201 29 182 10T136 -8Q109 -8 90 11T71 57Q71 83 90 102T136 122Z" horiz-adv-x="272" unicode="."/>
			<glyph d="M313 744L383 720L76 -33L6 -10Z" horiz-adv-x="391" unicode="/"/>
			<glyph d="M303 724Q434 724 492 618T551 355Q551 197 492 90T303 -16Q171 -16 112 90T53 355Q53 513 112 618T303 724ZM303 639Q218 639 186 552T155 355Q155 244 186 157T303 70Q387 70 418 157T449 355Q449 465 418 552T303 639Z" horiz-adv-x="604" unicode="0"/>
			<glyph d="M294 708H386V0H286V595L138 473L93 552Z" horiz-adv-x="604" unicode="1"/>
			<glyph d="M290 724Q352 724 401 699T478 631T506 531Q506 463 471 406T362 277L182 87H544L529 0H58V85L304 342Q353 393 377 436T401 522Q401 574 366 606T278 639Q232 639 188 614T114 552L70 626Q106 670 161 697T290 724Z" horiz-adv-x="604" unicode="2"/>
			<glyph d="M294 724Q350 724 398 702T476 639T506 542Q506 479 471 435T378 374V371Q447 358 487 309T527 197Q527 132 497 83T414 9T294 -16Q148 -16 57 64L79 158Q118 119 172 93T283 68Q347 68 386 103T426 201Q426 267 374 299T254 331H228V407H256Q318 407 362 438T406 530Q406 582 372 612T287 642Q242 642 196 620T118 565L75 638Q161 724 294 724Z" horiz-adv-x="604" unicode="3"/>
			<glyph d="M335 708H459V242H580L565 160H459V0H365V160H34V248ZM363 604L132 242H366V604Z" horiz-adv-x="604" unicode="4"/>
			<glyph d="M125 708H498L484 622H214L205 434Q246 449 293 449Q362 449 416 421T500 343T531 225Q531 149 497 94T406 12T284 -16Q209 -16 152 4T55 57L74 146Q111 112 165 90T275 68Q316 68 351 86T409 138T431 220Q431 292 382 332T259 372Q226 372 185 363T110 339Z" horiz-adv-x="604" unicode="5"/>
			<glyph d="M373 716Q412 716 446 709T504 693L482 611Q434 633 371 633Q281 633 225 563T163 367H166Q192 402 235 422T329 443Q389 443 439 414T518 335T548 219Q548 149 518 95T434 13T312 -16Q238 -16 180 19T89 125T56 294Q56 423 92 518T200 664T373 716ZM307 367Q264 367 230 348T176 297T157 228Q157 187 175 150T228 90T307 67Q371 67 409 109T448 217Q448 282 408 324T307 367Z" horiz-adv-x="604" unicode="6"/>
			<glyph d="M75 708H522V624L240 0H125L417 622H60Z" horiz-adv-x="604" unicode="7"/>
			<glyph d="M302 724Q361 724 410 701T489 636T518 536Q518 482 487 438T405 377V374Q468 355 504 306T541 194Q541 129 509 81T422 9T302 -16Q236 -16 181 9T95 81T63 194Q63 258 100 307T199 374V376Q146 396 116 438T86 535Q86 592 115 635T193 701T302 724ZM302 646Q251 646 217 613T183 530Q183 481 216 446T302 412Q353 412 387 446T422 530Q422 580 387 613T302 646ZM302 334Q242 334 202 295T162 199Q162 140 201 102T302 64Q364 64 402 102T441 199Q441 257 401 295T302 334Z" horiz-adv-x="604" unicode="8"/>
			<glyph d="M298 716Q371 716 427 678T516 568T548 394Q548 193 469 88T246 -16Q202 -16 161 -8T96 13L112 94Q174 67 249 67Q330 67 383 135T442 336H440Q416 303 369 280T268 257Q208 257 160 285T84 365T56 481Q56 551 87 604T173 687T298 716ZM298 633Q236 633 195 590T155 483Q155 418 194 375T296 333Q338 333 373 352T428 401T448 460Q448 506 429 546T376 609T298 633Z" horiz-adv-x="604" unicode="9"/>
			<glyph d="M154 483Q180 483 199 464T218 420Q218 394 199 375T154 357Q128 357 109 375T90 420Q90 446 109 464T154 483ZM154 121Q180 121 199 102T218 58Q218 31 199 12T154 -6Q128 -6 109 12T90 57Q90 83 109 102T154 121Z" horiz-adv-x="308" unicode=":"/>
			<glyph d="M154 484Q180 484 199 465T218 420Q218 394 199 375T154 357Q128 357 109 375T91 420Q91 446 109 465T154 484ZM153 137Q180 137 199 116T218 61Q218 0 182 -50T94 -137L61 -110Q90 -90 114 -58T149 8Q123 10 105 28T87 72Q87 99 106 118T153 137Z" horiz-adv-x="308" unicode=";"/>
			<glyph d="M580 557V475L201 302L580 131V49L86 270V335Z" horiz-adv-x="666" unicode="&lt;"/>
			<glyph d="M81 429H585V353H81ZM81 254H585V179H81Z" horiz-adv-x="666" unicode="="/>
			<glyph d="M86 557L580 335V270L86 49V131L466 302L86 475Z" horiz-adv-x="666" unicode="&gt;"/>
			<glyph d="M253 725Q310 725 357 704T432 643T460 546Q460 505 447 474T415 421T361 366Q317 326 303 300T290 228V211H197V240Q197 286 214 323T276 404Q309 437 324 454T349 493T359 541Q359 586 326 613T243 640Q195 640 153 617T82 562L36 635Q122 725 253 725ZM246 118Q272 118 290 99T309 55Q309 29 291 10T246 -8Q220 -8 201 10T182 55Q182 81 201 99T246 118Z" horiz-adv-x="509" unicode="?"/>
			<glyph d="M415 727Q512 727 592 688T720 577T768 407Q768 335 743 279T675 191T572 160Q531 160 506 180T480 234H477Q460 204 427 182T351 160Q288 160 253 203T218 313Q218 372 242 427T312 518T414 553Q454 553 480 534T513 484H516L528 535H597L551 344Q540 298 540 269Q540 224 587 224Q639 224 670 274T701 404Q701 484 664 543T563 634T415 666Q327 666 257 624T148 510T109 353Q109 263 149 192T260 82T424 43Q500 43 565 71T679 149L721 104Q664 44 586 12T418 -19Q306 -19 219 29T84 163T36 354Q36 458 86 543T224 678T415 727ZM418 489Q381 489 353 462T310 394T295 312Q295 275 313 249T368 224Q407 224 435 253T477 324T491 399Q491 438 473 463T418 489Z" horiz-adv-x="800" unicode="@"/>
			<glyph d="M303 708H404L700 0H588L496 227H203L112 0H2ZM352 600L234 309H466Z" horiz-adv-x="702" unicode="A"/>
			<glyph d="M88 708H289Q386 708 453 667T520 532Q520 470 485 430T393 375V373Q458 364 504 318T551 198Q551 96 478 48T297 0H88ZM187 626V406H278Q340 406 380 434T421 519Q421 575 380 600T269 626ZM187 329V83H283Q356 83 403 112T450 205Q450 268 405 298T289 329Z" horiz-adv-x="605" unicode="B"/>
			<glyph d="M428 727Q499 727 565 704T672 649L645 554Q606 589 549 612T431 635Q353 635 292 598T197 497T163 354Q163 275 196 211T291 110T433 74Q500 74 557 98T657 161L675 70Q636 33 568 7T426 -19Q320 -19 235 29T102 162T54 354Q54 463 102 548T236 680T428 727Z" horiz-adv-x="710" unicode="C"/>
			<glyph d="M88 708H321Q429 708 518 671T661 556T716 355Q716 238 662 158T519 39T325 0H88ZM188 621V88H312Q445 88 527 155T610 355Q610 487 528 554T314 621Z" horiz-adv-x="770" unicode="D"/>
			<glyph d="M88 708H496L481 621H186V406H470L455 323H186V87H511L497 0H88Z" horiz-adv-x="557" unicode="E"/>
			<glyph d="M88 708H482L472 621H189V399H463L448 314H189V0H88Z" horiz-adv-x="522" unicode="F"/>
			<glyph d="M430 727Q503 727 572 705T689 651L652 566Q609 597 551 617T433 638Q354 638 292 600T195 498T161 355Q161 275 194 210T291 107T440 70Q533 70 605 105V303H447L462 386H699V44Q647 15 579 -2T434 -19Q324 -19 237 29T102 162T54 355Q54 464 102 548T237 680T430 727Z" horiz-adv-x="780" unicode="G"/>
			<glyph d="M88 708H190V411H580V708H681V0H580V324H190V0H88Z" horiz-adv-x="769" unicode="H"/>
			<glyph d="M88 708H190V0H88Z" horiz-adv-x="278" unicode="I"/>
			<glyph d="M208 708H309V214Q309 111 256 46T98 -18Q65 -18 41 -14L24 82Q51 73 82 73Q146 73 177 113T208 220Z" horiz-adv-x="393" unicode="J"/>
			<glyph d="M88 708H188V381L494 708H624L294 369L642 0H508L188 348V0H88Z" horiz-adv-x="645" unicode="K"/>
			<glyph d="M88 708H190V89H492L477 0H88Z" horiz-adv-x="513" unicode="L"/>
			<glyph d="M88 708H236L464 153L688 708H838V0H739L740 589L495 0H425L183 589L185 0H88Z" horiz-adv-x="926" unicode="M"/>
			<glyph d="M88 708H207L593 145H596L594 708H693V0H574L188 565H185L187 0H88Z" horiz-adv-x="781" unicode="N"/>
			<glyph d="M429 727Q536 727 621 680T755 548T804 355Q804 247 755 161T621 28T429 -19Q322 -19 236 28T102 161T54 355Q54 464 102 548T236 680T429 727ZM429 636Q351 636 290 599T195 497T162 355Q162 276 195 211T290 110T429 73Q507 73 568 110T662 211T696 355Q696 433 662 497T567 599T429 636Z" horiz-adv-x="858" unicode="O"/>
			<glyph d="M88 708H305Q415 708 484 657T554 501Q554 431 521 381T431 306T307 281H190V0H88ZM190 625V363H301Q365 363 409 398T453 500Q453 565 409 595T300 625Z" horiz-adv-x="596" unicode="P"/>
			<glyph d="M425 727Q530 727 615 680T748 551T796 364Q796 302 774 245T714 146T631 84V81L838 83L823 0H421Q314 0 230 45T99 172T52 362Q52 466 100 549T233 680T425 727ZM427 636Q351 636 290 600T196 501T162 360Q162 282 196 218T290 119T428 83Q503 83 563 119T658 219T693 360Q693 437 659 500T564 599T427 636Z" horiz-adv-x="858" unicode="Q"/>
			<glyph d="M88 708H304Q411 708 481 661T552 508Q552 433 507 379T397 308L596 0H477L298 293H188V0H88ZM188 625V370H293Q362 370 407 405T452 506Q452 569 406 597T292 625Z" horiz-adv-x="628" unicode="R"/>
			<glyph d="M308 727Q364 727 419 710T511 669L481 584Q450 608 402 625T310 642Q253 642 210 613T167 528Q167 491 185 468T232 431T312 400Q379 377 421 356T494 297T524 196Q524 127 490 78T401 5T286 -19Q223 -19 161 1T57 53L76 146Q119 109 173 88T280 67Q340 67 381 97T422 184Q422 222 401 246T349 285T258 320T159 362T92 423T66 522Q66 589 100 635T190 704T308 727Z" horiz-adv-x="579" unicode="S"/>
			<glyph d="M16 708H543L528 621H322V0H221V621H1Z" horiz-adv-x="543" unicode="T"/>
			<glyph d="M81 708H182V276Q182 191 224 131T366 72Q465 72 507 131T550 276V708H651V267Q651 186 619 121T523 18T365 -19Q271 -19 207 18T112 121T81 267Z" horiz-adv-x="731" unicode="U"/>
			<glyph d="M0 708H113L321 121H324L534 708H645L374 0H268Z" horiz-adv-x="645" unicode="V"/>
			<glyph d="M13 708H121L276 136H279L440 708H551L715 136H717L874 708H979L772 0H666L496 575H494L326 0H219Z" horiz-adv-x="992" unicode="W"/>
			<glyph d="M33 708H155L326 441L496 708H614L388 372L643 0H518L324 299L132 0H11L261 372Z" horiz-adv-x="653" unicode="X"/>
			<glyph d="M-4 708H119L308 392L497 708H615L355 304V0H253V304Z" horiz-adv-x="611" unicode="Y"/>
			<glyph d="M63 708H553V622L163 88H587L572 0H43V90L430 621H63Z" horiz-adv-x="610" unicode="Z"/>
			<glyph d="M63 732H243V668H143V-92H243V-156H63Z" horiz-adv-x="320" unicode="["/>
			<glyph d="M80 744L386 -10L316 -33L9 720Z" horiz-adv-x="391" unicode="\"/>
			<glyph d="M77 732H257V-156H77V-92H177V668H77Z" horiz-adv-x="320" unicode="]"/>
			<glyph d="M302 708H375L594 295H506L338 619L171 295H83Z" horiz-adv-x="677" unicode="^"/>
			<glyph d="M0 -82H500V-139H0Z" horiz-adv-x="500" unicode="_"/>
			<glyph d="M-13 712H91L194 568H118Z" horiz-adv-x="269" unicode="`"/>
			<glyph d="M265 494Q357 494 407 445T457 299V99Q457 37 464 0H376Q373 18 370 41T368 77H365Q345 34 298 10T199 -13Q138 -13 93 23T49 133Q49 224 128 258T324 293H364V312Q364 366 333 393T248 420Q211 420 169 404T100 365L75 437Q156 494 265 494ZM327 234Q140 234 140 135Q140 94 164 75T225 56Q269 56 301 76T350 129T367 197V234Z" horiz-adv-x="532" unicode="a"/>
			<glyph d="M180 770V396H183Q209 440 255 466T359 493Q428 493 481 459T564 368T593 241Q593 171 564 113T481 21T358 -13Q301 -13 251 14T177 89H174Q173 50 166 0H78Q83 58 83 117V756ZM338 413Q292 413 255 389T197 325T176 240Q176 194 197 154T255 91T338 68Q387 68 423 91T478 154T498 241Q498 287 478 326T423 389T338 413Z" horiz-adv-x="643" unicode="b"/>
			<glyph d="M308 494Q354 494 399 479T471 440L435 367Q411 388 377 400T309 413Q262 413 225 389T169 326T149 240Q149 193 169 153T227 91T316 68Q359 68 393 81T458 120L471 43Q443 18 398 2T301 -14Q231 -14 173 18T83 107T50 240Q50 314 83 372T176 462T308 494Z" horiz-adv-x="494" unicode="c"/>
			<glyph d="M560 771V119Q560 80 564 0H473Q469 60 469 89H467Q441 41 391 14T285 -13Q215 -13 161 21T79 113T50 241Q50 310 79 367T162 459T284 493Q341 493 387 467T461 396H463V756ZM305 413Q256 413 220 389T164 326T145 241Q145 194 164 154T220 91T305 68Q352 68 388 91T445 154T466 240Q466 286 445 326T388 389T305 413Z" horiz-adv-x="643" unicode="d"/>
			<glyph d="M295 494Q366 494 419 462T500 375T528 248Q528 228 527 218H143Q145 175 167 139T228 82T314 62Q363 62 406 77T484 116L498 41Q417 -14 303 -14Q231 -14 173 17T83 107T50 241Q50 315 82 372T171 462T295 494ZM296 424Q251 424 217 402T164 348T144 282H437Q436 345 398 384T296 424Z" horiz-adv-x="578" unicode="e"/>
			<glyph d="M282 771Q333 771 373 761L364 683Q324 692 293 692Q248 692 228 661T209 583V479H334L318 405H209V0H112V405H13L28 479H111V583Q111 672 154 721T282 771Z" horiz-adv-x="335" unicode="f"/>
			<glyph d="M285 493Q341 493 389 466T465 391H467Q467 421 473 479H563Q560 431 560 374V22Q560 -102 493 -173T299 -244Q240 -244 182 -227T81 -185L97 -100Q137 -128 188 -146T293 -164Q380 -164 422 -115T464 15V89H461Q436 44 389 18T286 -8Q216 -8 162 25T79 115T50 241Q50 310 79 367T161 459T285 493ZM305 413Q257 413 220 390T165 328T146 242Q146 196 165 157T220 94T305 71Q352 71 389 94T446 156T467 242Q467 288 446 327T389 390T305 413Z" horiz-adv-x="642" unicode="g"/>
			<glyph d="M180 768V393H182Q201 438 244 465T342 493Q432 493 474 436T517 294V0H419V271Q419 333 395 372T312 412Q254 412 217 366T180 243V0H83V754Z" horiz-adv-x="594" unicode="h"/>
			<glyph d="M132 716Q156 716 174 698T192 656Q192 631 174 613T132 596Q107 596 89 613T71 656Q71 681 89 698T132 716ZM83 479H180V0H83Z" horiz-adv-x="263" unicode="i"/>
			<glyph d="M133 716Q158 716 176 698T194 656Q194 631 176 613T133 596Q108 596 90 613T72 656Q72 681 90 698T133 716ZM85 479H182V-47Q182 -137 146 -187T18 -241L-6 -158Q42 -158 63 -131T85 -46Z" horiz-adv-x="265" unicode="j"/>
			<glyph d="M180 768V266H183L379 479H498L286 260L515 0H398L183 244H180V0H83V754Z" horiz-adv-x="527" unicode="k"/>
			<glyph d="M181 767V160Q181 121 192 100T233 62L180 -14Q83 29 83 145V753Z" horiz-adv-x="267" unicode="l"/>
			<glyph d="M336 493Q393 493 431 465T488 386Q511 437 554 465T654 493Q743 493 785 434T827 291V0H730V269Q730 332 706 372T626 413Q570 413 536 367T503 252V0H405V279Q405 343 379 378T304 413Q250 413 215 367T181 246V0H83V375Q83 431 78 479H172Q177 439 177 390H179Q198 436 240 464T336 493Z" horiz-adv-x="905" unicode="m"/>
			<glyph d="M341 493Q431 493 474 436T517 294V0H420V271Q420 332 395 372T312 413Q254 413 217 368T181 251V0H83V376Q83 431 78 479H172Q177 419 177 390H179Q198 436 242 464T341 493Z" horiz-adv-x="595" unicode="n"/>
			<glyph d="M309 494Q382 494 441 462T534 373T568 241Q568 166 534 108T441 18T309 -14Q236 -14 177 18T84 108T50 241Q50 315 84 373T177 462T309 494ZM309 413Q259 413 222 389T165 327T146 241Q146 194 165 154T222 91T309 68Q359 68 396 91T453 154T473 241Q473 288 453 327T396 389T309 413Z" horiz-adv-x="619" unicode="o"/>
			<glyph d="M357 493Q427 493 480 459T563 368T592 241Q592 171 563 113T480 21T357 -13Q302 -13 254 12T182 84H179V-240H82V388Q82 433 79 479H173L174 458Q176 418 176 392H179Q205 439 252 466T357 493ZM337 413Q291 413 254 389T196 325T175 240Q175 194 196 154T254 91T337 68Q386 68 422 91T477 154T497 241Q497 287 477 326T422 389T337 413Z" horiz-adv-x="642" unicode="p"/>
			<glyph d="M284 493Q342 493 390 466T464 392H467Q467 436 470 479H562Q560 425 560 395V-58Q560 -102 575 -125T627 -166L574 -242Q463 -200 463 -69V84H460Q435 38 387 12T285 -13Q215 -13 161 21T79 113T50 241Q50 311 79 368T161 459T284 493ZM305 413Q256 413 220 389T164 326T145 241Q145 194 164 154T220 91T305 68Q352 68 388 91T445 154T466 240Q466 286 445 326T388 389T305 413Z" horiz-adv-x="642" unicode="q"/>
			<glyph d="M307 493Q338 493 359 486L344 401Q325 408 302 408Q244 408 212 358T180 241V0H83V361Q83 439 78 479H171Q177 443 177 388H179Q196 437 231 465T307 493Z" horiz-adv-x="362" unicode="r"/>
			<glyph d="M227 494Q276 494 319 479T390 443L353 377Q328 396 296 409T233 422Q196 422 171 405T146 357Q146 327 169 311T254 278Q327 256 365 223T404 134Q404 85 378 51T312 2T225 -14Q172 -14 123 0T46 36L60 114Q132 59 216 59Q256 59 283 77T311 130Q311 160 284 178T193 215Q127 234 91 264T55 352Q55 398 80 430T145 478T227 494Z" horiz-adv-x="447" unicode="s"/>
			<glyph d="M189 612V479H322L307 405H189V145Q189 66 253 66Q286 66 324 85L336 15Q282 -11 221 -11Q159 -11 126 26T94 132V405H8L23 479H93V587Z" horiz-adv-x="347" unicode="t"/>
			<glyph d="M76 479H174V209Q174 147 198 107T281 67Q339 67 376 112T413 233V479H510V102Q510 51 517 0L423 -1Q417 31 415 89Q395 43 349 15T251 -13Q161 -13 118 44T76 186Z" horiz-adv-x="594" unicode="u"/>
			<glyph d="M5 479H111L245 101L378 479H480L298 0H191Z" horiz-adv-x="487" unicode="v"/>
			<glyph d="M17 479H121L226 109H228L345 479H445L563 109H565L671 479H772L616 0H515L394 366H392L272 0H171Z" horiz-adv-x="788" unicode="w"/>
			<glyph d="M31 479H146L263 314L381 479H493L323 252L514 0H397L261 187L125 0H11L202 252Z" horiz-adv-x="525" unicode="x"/>
			<glyph d="M11 479H119L265 104L390 479H493L283 -84Q255 -161 208 -196T85 -240L55 -158Q108 -151 139 -130T189 -68L215 1Z" horiz-adv-x="504" unicode="y"/>
			<glyph d="M56 479H424V405L154 77H443L429 0H39V76L307 403H41Z" horiz-adv-x="474" unicode="z"/>
			<glyph d="M196 732H263V666H216Q154 666 154 586V407Q154 351 128 322T71 289V287Q103 282 128 254T154 167V-10Q154 -90 216 -90H263V-156H196Q141 -156 108 -121T76 -20V159Q76 254 3 254V322Q76 322 76 415V596Q76 663 108 697T196 732Z" horiz-adv-x="320" unicode="{"/>
			<glyph d="M75 750H156V-250H76Z" horiz-adv-x="231" unicode="|"/>
			<glyph d="M57 732H124Q179 732 211 697T244 596V415Q244 322 317 322V254Q244 254 244 159V-20Q244 -87 211 -121T124 -156H57V-90H104Q166 -90 166 -10V167Q166 226 191 254T249 287V289Q218 294 192 322T166 407V586Q166 666 104 666H57Z" horiz-adv-x="320" unicode="}"/>
			<glyph d="M224 377Q253 377 279 368T335 341Q371 318 396 307T442 297Q472 297 495 317T541 373L584 312Q525 217 448 217Q418 217 394 225T340 253Q304 277 280 286T231 296Q199 296 175 276T133 220L89 281Q143 377 224 377Z" horiz-adv-x="666" unicode="~"/>
			<glyph d="" horiz-adv-x="250" unicode=" "/>
			<glyph d="M162 503Q188 503 206 484T225 441Q225 414 206 395T162 377Q136 377 117 395T98 440Q98 466 117 484T162 503ZM117 281H207L214 -213H110Z" horiz-adv-x="323" unicode="¡"/>
			<glyph d="M316 557H368V494Q412 491 453 476T520 440L484 367Q460 386 430 398T368 412V68Q410 69 443 81T507 120L520 43Q494 20 454 5T368 -14V-75H316V-13Q251 -6 199 27T118 115T89 240Q89 308 118 362T198 451T316 492ZM316 409Q257 397 222 350T188 240Q188 178 221 132T316 73Z" horiz-adv-x="604" unicode="¢"/>
			<glyph d="M399 726Q442 726 484 712T556 678L519 602Q496 619 465 630T403 642Q334 642 303 597T273 486V399H451L436 328H273V199Q273 157 256 127T210 84H537L522 0H74V84H86Q129 84 152 115T175 191V328H64L79 399H175V493Q175 555 199 608T273 693T399 726Z" horiz-adv-x="604" unicode="£"/>
			<glyph d="M190 608L283 516Q352 567 442 567Q533 567 600 517L691 608L744 556L654 466Q703 401 703 310Q703 214 651 148L744 54L692 1L596 97Q530 48 442 48Q356 48 287 99L189 1L136 54L232 150Q182 214 182 310Q182 398 229 464L136 556ZM442 483Q392 483 353 460T294 397T273 310Q273 261 294 220T353 156T442 133Q492 133 530 156T590 220T611 310Q611 358 590 397T530 460T442 483Z" horiz-adv-x="882" unicode="¤"/>
			<glyph d="M17 708H129L305 416L480 708H589L383 395H538L523 330H350V235H538L523 170H350V0H255V170H68L83 235H255V330H68L83 395H225Z" horiz-adv-x="604" unicode="¥"/>
			<glyph d="M76 675H155V326H76ZM76 176H155V-173H76Z" horiz-adv-x="231" unicode="¦"/>
			<glyph d="M312 727Q375 727 424 704T501 640L430 587Q413 615 382 631T314 648Q272 648 240 625T209 563Q209 537 222 519T263 487T353 448Q431 417 471 380T511 283Q511 235 483 200T411 151Q486 111 486 31Q486 -25 456 -64T378 -122T276 -141Q212 -141 154 -114T64 -40L138 13Q161 -22 199 -40T278 -59Q322 -59 354 -36T386 27Q386 54 372 72T327 105T229 148Q178 169 147 187T99 233T81 305Q81 356 111 391T186 442Q149 463 130 491T111 564Q111 616 140 653T215 708T312 727ZM253 402Q219 395 194 373T170 315Q170 277 195 257T272 218L344 189Q376 195 398 217T421 273Q421 311 395 333T319 375Z" horiz-adv-x="586" unicode="§"/>
			<glyph d="M39 712Q62 712 79 695T96 656Q96 633 79 616T39 600Q16 600 0 616T-17 656Q-17 679 0 695T39 712ZM230 712Q253 712 269 695T286 656Q286 633 269 616T230 600Q206 600 189 616T173 656Q173 679 190 695T230 712Z" horiz-adv-x="269" unicode="¨"/>
			<glyph d="M401 730Q504 730 591 679T729 542T780 353Q780 250 729 164T591 28T401 -22Q298 -22 210 28T71 164T20 353Q20 456 71 542T210 679T401 730ZM401 686Q310 686 233 641T111 519T66 353Q66 263 111 187T232 66T400 22Q490 22 567 66T689 187T734 353Q734 443 689 519T567 641T401 686ZM417 580Q458 580 500 565T567 530L546 465Q523 486 488 500T416 515Q349 515 307 469T266 353Q266 284 307 238T419 192Q456 192 491 204T548 236L558 171Q534 150 496 137T417 125Q353 125 301 153T219 233T189 353Q189 420 219 471T301 551T417 580Z" horiz-adv-x="800" unicode="©"/>
			<glyph d="M183 721Q248 721 278 690T309 606V488Q309 463 313 431H253Q249 457 249 477H248Q233 452 206 438T146 424Q107 424 76 446T46 511Q46 569 101 588T246 607V615Q246 643 227 658T178 673Q152 673 126 664T81 640L64 686Q113 721 183 721ZM234 567Q177 567 143 556T109 514Q109 491 125 480T165 470Q202 470 224 492T247 549V567Z" horiz-adv-x="368" unicode="ª"/>
			<glyph d="M193 461L253 421L139 246L254 70L194 30L50 246ZM391 461L450 421L336 246L451 70L391 30L247 246Z" horiz-adv-x="511" unicode="«"/>
			<glyph d="M71 425H591V139H512V350H71Z" horiz-adv-x="666" unicode="¬"/>
			<glyph d="M46 295H269V217H46Z" horiz-adv-x="316" unicode="­"/>
			<glyph d="M301 720Q363 720 415 689T497 607T528 493Q528 431 497 379T415 298T301 268Q239 268 186 298T103 379T72 493Q72 555 103 607T186 689T301 720ZM301 690Q247 690 201 663T129 592T103 493Q103 440 129 394T201 322T301 296Q355 296 400 322T471 394T497 493Q497 547 471 592T400 663T301 690ZM206 626H306Q350 626 379 607T408 548Q408 520 392 501T351 477L420 367H354L296 469H263V367H206ZM263 580V511H299Q321 511 335 520T349 548Q349 565 336 572T305 580Z" horiz-adv-x="600" unicode="®"/>
			<glyph d="M-10 665H278V608H-10Z" horiz-adv-x="269" unicode="¯"/>
			<glyph d="M204 721Q247 721 283 700T339 644T360 565Q360 522 339 486T283 429T204 408Q161 408 125 429T68 486T47 565Q47 608 68 644T125 700T204 721ZM204 668Q161 668 130 638T100 565Q100 522 130 491T204 461Q247 461 277 491T308 565Q308 608 277 638T204 668Z" horiz-adv-x="408" unicode="°"/>
			<glyph d="M295 574H375V415H596V338H375V181H295V338H76V415H295ZM77 117H595V40H77Z" horiz-adv-x="666" unicode="±"/>
			<glyph d="M184 886Q243 886 281 854T319 769Q319 729 300 697T241 625L128 512H335L320 449H35V505L197 671Q222 698 233 719T244 761Q244 790 224 806T173 823Q120 823 70 769L40 825Q97 886 184 886Z" horiz-adv-x="369" unicode="²"/>
			<glyph d="M179 886Q238 886 275 856T313 772Q313 738 294 712T243 674Q281 665 303 637T325 569Q325 507 281 473T178 440Q134 440 98 451T39 483L59 544Q76 527 109 514T173 501Q210 501 231 519T253 572Q253 608 225 625T157 643H130V698H158Q196 698 218 716T241 767Q241 795 222 810T173 826Q144 826 118 814T76 786L50 839Q102 886 179 886Z" horiz-adv-x="376" unicode="³"/>
			<glyph d="M178 712H282L151 568H75Z" horiz-adv-x="269" unicode="´"/>
			<glyph d="M79 479H181V213Q181 76 304 76Q378 76 410 123T442 262V479H545V0H466L452 84H447Q428 40 391 15T303 -10Q213 -10 180 52H178Q181 12 181 -50V-240H79Z" horiz-adv-x="624" unicode="µ"/>
			<glyph d="M280 708H524V-127H451V646H334V-127H260V334Q196 334 147 358T72 423T46 516Q46 614 108 661T280 708Z" horiz-adv-x="609" unicode="¶"/>
			<glyph d="M136 346Q163 346 182 327T201 282Q201 254 182 235T136 217Q109 217 90 235T71 281Q71 308 90 327T136 346Z" horiz-adv-x="272" unicode="·"/>
			<glyph d="M121 0H175L123 -72Q139 -68 157 -68Q196 -68 223 -85T251 -144Q251 -191 211 -212T121 -233Q96 -233 67 -227T16 -211L34 -170Q71 -188 117 -188Q143 -188 163 -178T183 -143Q183 -105 126 -105Q114 -105 99 -107T75 -114L54 -95Z" horiz-adv-x="269" unicode="¸"/>
			<glyph d="M182 877H249V449H175V795L85 727L59 788Z" unicode="¹"/>
			<glyph d="M184 722Q249 722 291 680T334 574Q334 508 291 466T184 424Q119 424 76 466T34 574Q34 639 76 680T184 722ZM184 667Q143 667 119 640T96 574Q96 534 119 506T184 479Q225 479 248 506T272 574Q272 613 248 640T184 667Z" horiz-adv-x="368" unicode="º"/>
			<glyph d="M120 461L264 245L121 30L61 70L175 245L60 421ZM317 461L462 245L317 30L257 70L372 245L257 421Z" horiz-adv-x="511" unicode="»"/>
			<glyph d="M608 738L664 711L247 -29L192 -2ZM184 708H250V280H177V626L87 558L61 619ZM667 428H752V154H814V94H752V0H685V94H489V155ZM683 347L559 154H685V347Z" horiz-adv-x="873" unicode="¼"/>
			<glyph d="M608 738L663 711L247 -29L191 -2ZM182 708H248V280H175V626L84 558L58 619ZM663 437Q722 437 760 405T798 320Q798 279 779 247T720 176L607 63H813L798 0H514V55L676 222Q701 249 712 269T723 311Q723 340 703 357T652 374Q622 374 595 358T549 320L519 375Q576 437 663 437Z" horiz-adv-x="873" unicode="½"/>
			<glyph d="M607 738L662 711L246 -29L190 -2ZM179 719Q238 719 275 689T313 605Q313 571 294 545T243 507Q281 498 303 470T325 402Q325 340 281 306T178 273Q134 273 98 284T39 316L59 377Q76 360 109 347T173 334Q210 334 231 352T253 405Q253 441 225 458T157 476H130V531H158Q196 531 218 549T241 600Q241 628 222 643T173 659Q144 659 118 647T76 619L50 672Q102 719 179 719ZM668 428H752V154H814V94H752V0H686V94H490V155ZM684 347L560 154H686V347Z" horiz-adv-x="873" unicode="¾"/>
			<glyph d="M265 503Q291 503 310 484T329 441Q329 414 310 395T265 377Q239 377 220 395T202 440Q202 466 220 484T265 503ZM221 284H314V256Q314 209 297 172T235 91Q189 46 171 19T153 -45Q153 -90 185 -117T268 -145Q316 -145 357 -122T429 -67L476 -140Q390 -230 259 -230Q202 -230 155 -209T80 -147T52 -50Q52 -9 64 22T96 75T151 129Q195 170 208 196T221 267Z" horiz-adv-x="509" unicode="¿"/>
			<glyph d="M303 708H404L700 0H588L496 227H203L112 0H2ZM352 600L234 309H466ZM191 908H295L398 764H322Z" horiz-adv-x="702" unicode="À"/>
			<glyph d="M303 708H404L700 0H588L496 227H203L112 0H2ZM352 600L234 309H466ZM412 908H516L385 764H309Z" horiz-adv-x="702" unicode="Á"/>
			<glyph d="M303 708H404L700 0H588L496 227H203L112 0H2ZM352 600L234 309H466ZM308 908H402L515 764H434L354 868L274 764H194Z" horiz-adv-x="702" unicode="Â"/>
			<glyph d="M303 708H404L700 0H588L496 227H203L112 0H2ZM352 600L234 309H466ZM464 884H511Q505 837 482 808T421 780Q388 780 348 802Q327 814 313 819T286 824Q253 824 243 778H196Q202 825 224 854T285 883Q317 883 358 861Q381 849 394 844T421 839Q440 839 449 850T464 884Z" horiz-adv-x="702" unicode="Ã"/>
			<glyph d="M303 708H404L700 0H588L496 227H203L112 0H2ZM352 600L234 309H466ZM258 909Q281 909 298 892T315 853Q315 829 298 812T258 796Q235 796 218 812T202 853Q202 876 218 892T258 909ZM449 909Q472 909 488 892T505 853Q505 829 488 812T449 796Q425 796 408 812T392 853Q392 876 408 892T449 909Z" horiz-adv-x="702" unicode="Ä"/>
			<glyph d="M303 708H404L700 0H588L496 227H203L112 0H2ZM352 600L234 309H466ZM354 954Q396 954 426 924T457 853Q457 810 427 781T354 752Q312 752 282 781T252 852Q252 895 282 924T354 954ZM354 918Q326 918 307 899T289 852Q289 825 308 806T354 788Q382 788 401 806T420 853Q420 881 401 899T354 918Z" horiz-adv-x="702" unicode="Å"/>
			<glyph d="M445 708H922L907 621H604V406H891L876 323H604V87H938L923 0H507V220H262L124 0H7ZM499 621L305 303H507V621Z" horiz-adv-x="983" unicode="Æ"/>
			<glyph d="M428 727Q499 727 565 704T672 649L645 554Q606 589 549 612T431 635Q353 635 292 598T197 497T163 354Q163 275 196 211T291 110T433 74Q500 74 557 98T657 161L675 70Q636 33 570 7T430 -19L392 -72Q408 -68 426 -68Q465 -68 492 -85T519 -144Q519 -191 479 -212T390 -233Q365 -233 336 -227T285 -211L302 -170Q320 -179 342 -183T385 -188Q412 -188 432 -178T452 -143Q452 -122 435 -113T395 -105Q383 -105 368 -107T344 -114L323 -95L378 -16Q284 -6 210 44T95 174T54 354Q54 463 102 548T236 680T428 727Z" horiz-adv-x="710" unicode="Ç"/>
			<glyph d="M88 708H496L481 621H186V406H470L455 323H186V87H511L497 0H88ZM151 909H255L358 765H282Z" horiz-adv-x="557" unicode="È"/>
			<glyph d="M88 708H496L481 621H186V406H470L455 323H186V87H511L497 0H88ZM340 907H444L313 763H237Z" horiz-adv-x="557" unicode="É"/>
			<glyph d="M88 708H496L481 621H186V406H470L455 323H186V87H511L497 0H88ZM254 907H348L461 763H380L300 867L220 763H140Z" horiz-adv-x="557" unicode="Ê"/>
			<glyph d="M88 708H496L481 621H186V406H470L455 323H186V87H511L497 0H88ZM198 909Q221 909 238 892T255 853Q255 829 238 812T198 796Q175 796 158 812T142 853Q142 876 158 892T198 909ZM389 909Q412 909 428 892T445 853Q445 829 428 812T389 796Q365 796 348 812T332 853Q332 876 348 892T389 909Z" horiz-adv-x="557" unicode="Ë"/>
			<glyph d="M88 708H190V0H88ZM-17 908H87L190 764H114Z" horiz-adv-x="278" unicode="Ì"/>
			<glyph d="M88 708H190V0H88ZM191 908H295L164 764H88Z" horiz-adv-x="278" unicode="Í"/>
			<glyph d="M88 708H190V0H88ZM92 908H186L299 764H218L138 868L58 764H-22Z" horiz-adv-x="278" unicode="Î"/>
			<glyph d="M88 708H190V0H88ZM44 909Q67 909 84 892T101 853Q101 829 84 812T44 796Q21 796 4 812T-12 853Q-12 876 4 892T44 909ZM235 909Q258 909 274 892T291 853Q291 829 274 812T235 796Q211 796 194 812T178 853Q178 876 194 892T235 909Z" horiz-adv-x="278" unicode="Ï"/>
			<glyph d="M88 708H328Q434 708 521 670T661 552T713 355Q713 239 659 159T518 39T328 0H88V333H18V400H88ZM187 619V400H412V333H187V89H308Q445 89 527 157T609 355Q609 483 529 551T315 619Z" horiz-adv-x="770" unicode="Ð"/>
			<glyph d="M88 708H207L593 145H596L594 708H693V0H574L188 565H185L187 0H88ZM505 884H552Q546 837 523 808T462 780Q429 780 389 802Q368 814 354 819T327 824Q294 824 284 778H237Q243 825 265 854T326 883Q358 883 399 861Q422 849 435 844T462 839Q481 839 490 850T505 884Z" horiz-adv-x="781" unicode="Ñ"/>
			<glyph d="M429 727Q536 727 621 680T755 548T804 355Q804 247 755 161T621 28T429 -19Q322 -19 236 28T102 161T54 355Q54 464 102 548T236 680T429 727ZM429 636Q351 636 290 599T195 497T162 355Q162 276 195 211T290 110T429 73Q507 73 568 110T662 211T696 355Q696 433 662 497T567 599T429 636ZM296 908H400L503 764H427Z" horiz-adv-x="858" unicode="Ò"/>
			<glyph d="M429 727Q536 727 621 680T755 548T804 355Q804 247 755 161T621 28T429 -19Q322 -19 236 28T102 161T54 355Q54 464 102 548T236 680T429 727ZM429 636Q351 636 290 599T195 497T162 355Q162 276 195 211T290 110T429 73Q507 73 568 110T662 211T696 355Q696 433 662 497T567 599T429 636ZM471 908H575L444 764H368Z" horiz-adv-x="858" unicode="Ó"/>
			<glyph d="M429 727Q536 727 621 680T755 548T804 355Q804 247 755 161T621 28T429 -19Q322 -19 236 28T102 161T54 355Q54 464 102 548T236 680T429 727ZM429 636Q351 636 290 599T195 497T162 355Q162 276 195 211T290 110T429 73Q507 73 568 110T662 211T696 355Q696 433 662 497T567 599T429 636ZM384 908H478L591 764H510L430 868L350 764H270Z" horiz-adv-x="858" unicode="Ô"/>
			<glyph d="M429 727Q536 727 621 680T755 548T804 355Q804 247 755 161T621 28T429 -19Q322 -19 236 28T102 161T54 355Q54 464 102 548T236 680T429 727ZM429 636Q351 636 290 599T195 497T162 355Q162 276 195 211T290 110T429 73Q507 73 568 110T662 211T696 355Q696 433 662 497T567 599T429 636ZM541 884H588Q582 837 559 808T498 780Q465 780 425 802Q404 814 390 819T363 824Q330 824 320 778H273Q279 825 301 854T362 883Q394 883 435 861Q458 849 471 844T498 839Q517 839 526 850T541 884Z" horiz-adv-x="858" unicode="Õ"/>
			<glyph d="M429 727Q536 727 621 680T755 548T804 355Q804 247 755 161T621 28T429 -19Q322 -19 236 28T102 161T54 355Q54 464 102 548T236 680T429 727ZM429 636Q351 636 290 599T195 497T162 355Q162 276 195 211T290 110T429 73Q507 73 568 110T662 211T696 355Q696 433 662 497T567 599T429 636ZM335 909Q358 909 375 892T392 853Q392 829 375 812T335 796Q312 796 295 812T279 853Q279 876 295 892T335 909ZM526 909Q549 909 565 892T582 853Q582 829 565 812T526 796Q502 796 485 812T469 853Q469 876 485 892T526 909Z" horiz-adv-x="858" unicode="Ö"/>
			<glyph d="M159 533L334 360L507 532L562 479L389 306L565 132L508 76L334 248L159 76L103 130L278 304L102 478Z" horiz-adv-x="666" unicode="×"/>
			<glyph d="M729 745L772 707L695 621Q746 570 773 503T800 355Q800 247 751 162T616 29T424 -19Q355 -19 295 1T189 59L110 -28L67 10L146 97Q100 146 74 212T49 355Q49 464 97 548T231 680T424 727Q554 727 651 658ZM424 639Q344 639 282 601T186 498T153 354Q153 243 215 172L586 587Q554 612 513 625T424 639ZM627 546L254 129Q323 70 424 70Q504 70 566 108T661 211T695 355Q695 411 677 460T627 546Z" horiz-adv-x="858" unicode="Ø"/>
			<glyph d="M81 708H182V276Q182 191 224 131T366 72Q465 72 507 131T550 276V708H651V267Q651 186 619 121T523 18T365 -19Q271 -19 207 18T112 121T81 267ZM229 908H333L436 764H360Z" horiz-adv-x="731" unicode="Ù"/>
			<glyph d="M81 708H182V276Q182 191 224 131T366 72Q465 72 507 131T550 276V708H651V267Q651 186 619 121T523 18T365 -19Q271 -19 207 18T112 121T81 267ZM400 908H504L373 764H297Z" horiz-adv-x="731" unicode="Ú"/>
			<glyph d="M81 708H182V276Q182 191 224 131T366 72Q465 72 507 131T550 276V708H651V267Q651 186 619 121T523 18T365 -19Q271 -19 207 18T112 121T81 267ZM320 908H414L527 764H446L366 868L286 764H206Z" horiz-adv-x="731" unicode="Û"/>
			<glyph d="M81 708H182V276Q182 191 224 131T366 72Q465 72 507 131T550 276V708H651V267Q651 186 619 121T523 18T365 -19Q271 -19 207 18T112 121T81 267ZM271 909Q294 909 311 892T328 853Q328 829 311 812T271 796Q248 796 231 812T215 853Q215 876 231 892T271 909ZM462 909Q485 909 501 892T518 853Q518 829 501 812T462 796Q438 796 421 812T405 853Q405 876 421 892T462 909Z" horiz-adv-x="731" unicode="Ü"/>
			<glyph d="M-4 708H119L308 392L497 708H615L355 304V0H253V304ZM369 908H473L342 764H266Z" horiz-adv-x="611" unicode="Ý"/>
			<glyph d="M88 708H190V568H314Q425 568 494 520T564 370Q564 269 494 217T316 166H190V0H88ZM190 486V249H309Q376 249 419 278T462 370Q462 432 418 459T309 486Z" horiz-adv-x="606" unicode="Þ"/>
			<glyph d="M318 768Q378 768 426 745T502 680T530 582Q530 522 497 480T413 424V423Q487 410 533 357T579 217Q579 148 549 96T464 16T337 -12Q304 -12 266 -4V80Q296 72 325 72Q396 72 438 111T480 222Q480 299 432 339T309 379H292V458H309Q360 458 396 486T433 574Q433 625 400 656T314 688Q242 688 210 639T179 519V0H82V521Q82 630 141 699T318 768Z" horiz-adv-x="627" unicode="ß"/>
			<glyph d="M265 494Q357 494 407 445T457 299V99Q457 37 464 0H376Q373 18 370 41T368 77H365Q345 34 298 10T199 -13Q138 -13 93 23T49 133Q49 224 128 258T324 293H364V312Q364 366 333 393T248 420Q211 420 169 404T100 365L75 437Q156 494 265 494ZM327 234Q140 234 140 135Q140 94 164 75T225 56Q269 56 301 76T350 129T367 197V234ZM136 712H240L343 568H267Z" horiz-adv-x="532" unicode="à"/>
			<glyph d="M265 494Q357 494 407 445T457 299V99Q457 37 464 0H376Q373 18 370 41T368 77H365Q345 34 298 10T199 -13Q138 -13 93 23T49 133Q49 224 128 258T324 293H364V312Q364 366 333 393T248 420Q211 420 169 404T100 365L75 437Q156 494 265 494ZM327 234Q140 234 140 135Q140 94 164 75T225 56Q269 56 301 76T350 129T367 197V234ZM312 712H416L285 568H209Z" horiz-adv-x="532" unicode="á"/>
			<glyph d="M265 494Q357 494 407 445T457 299V99Q457 37 464 0H376Q373 18 370 41T368 77H365Q345 34 298 10T199 -13Q138 -13 93 23T49 133Q49 224 128 258T324 293H364V312Q364 366 333 393T248 420Q211 420 169 404T100 365L75 437Q156 494 265 494ZM327 234Q140 234 140 135Q140 94 164 75T225 56Q269 56 301 76T350 129T367 197V234ZM223 712H317L430 568H349L269 672L189 568H109Z" horiz-adv-x="532" unicode="â"/>
			<glyph d="M265 494Q357 494 407 445T457 299V99Q457 37 464 0H376Q373 18 370 41T368 77H365Q345 34 298 10T199 -13Q138 -13 93 23T49 133Q49 224 128 258T324 293H364V312Q364 366 333 393T248 420Q211 420 169 404T100 365L75 437Q156 494 265 494ZM327 234Q140 234 140 135Q140 94 164 75T225 56Q269 56 301 76T350 129T367 197V234ZM381 688H428Q422 640 399 611T338 583Q306 583 265 606Q244 618 230 623T203 628Q171 628 160 582H113Q119 629 141 658T202 687Q234 687 275 665Q298 652 311 647T338 642Q356 642 366 653T381 688Z" horiz-adv-x="541" unicode="ã"/>
			<glyph d="M265 494Q357 494 407 445T457 299V99Q457 37 464 0H376Q373 18 370 41T368 77H365Q345 34 298 10T199 -13Q138 -13 93 23T49 133Q49 224 128 258T324 293H364V312Q364 366 333 393T248 420Q211 420 169 404T100 365L75 437Q156 494 265 494ZM327 234Q140 234 140 135Q140 94 164 75T225 56Q269 56 301 76T350 129T367 197V234ZM175 712Q198 712 215 695T232 656Q232 633 215 616T175 600Q152 600 135 616T119 656Q119 679 135 695T175 712ZM366 712Q389 712 405 695T422 656Q422 633 405 616T366 600Q342 600 325 616T309 656Q309 679 326 695T366 712Z" horiz-adv-x="532" unicode="ä"/>
			<glyph d="M265 494Q357 494 407 445T457 299V99Q457 37 464 0H376Q373 18 370 41T368 77H365Q345 34 298 10T199 -13Q138 -13 93 23T49 133Q49 224 128 258T324 293H364V312Q364 366 333 393T248 420Q211 420 169 404T100 365L75 437Q156 494 265 494ZM327 234Q140 234 140 135Q140 94 164 75T225 56Q269 56 301 76T350 129T367 197V234ZM270 757Q312 757 342 728T373 657Q373 614 343 585T270 556Q228 556 198 585T168 656Q168 699 198 728T270 757ZM270 722Q242 722 223 703T205 656Q205 629 224 610T270 591Q298 591 317 610T336 657Q336 684 317 703T270 722Z" horiz-adv-x="532" unicode="å"/>
			<glyph d="M268 494Q332 494 373 466T429 394Q456 440 502 467T607 494Q673 494 724 463T803 377T832 248Q832 227 831 217H461Q463 176 482 140T537 83T624 62Q669 62 713 77T789 113L803 40Q726 -14 611 -14Q547 -14 496 17T420 103Q401 49 352 18T224 -13Q154 -13 101 22T49 129Q49 217 129 249T338 281H374V304Q374 362 344 391T259 420Q185 420 113 362L83 428Q118 460 167 477T268 494ZM607 424Q563 424 530 402T480 347T461 282H741Q739 345 703 384T607 424ZM341 219Q247 219 193 201T140 132Q140 92 170 74T241 56Q308 56 342 93T376 189V219Z" horiz-adv-x="882" unicode="æ"/>
			<glyph d="M308 494Q354 494 399 479T471 440L435 367Q411 388 377 400T309 413Q262 413 225 389T169 326T149 240Q149 193 169 153T227 91T316 68Q359 68 393 81T458 120L471 43Q444 19 401 3T308 -14L267 -72Q283 -68 301 -68Q340 -68 367 -85T394 -144Q394 -191 354 -212T265 -233Q240 -233 211 -227T160 -211L177 -170Q195 -179 217 -183T260 -188Q287 -188 307 -178T327 -143Q327 -122 310 -113T270 -105Q240 -105 219 -114L198 -95L257 -11Q197 -1 150 32T76 119T50 240Q50 314 83 372T176 462T308 494Z" horiz-adv-x="494" unicode="ç"/>
			<glyph d="M295 494Q366 494 419 462T500 375T528 248Q528 228 527 218H143Q145 175 167 139T228 82T314 62Q363 62 406 77T484 116L498 41Q417 -14 303 -14Q231 -14 173 17T83 107T50 241Q50 315 82 372T171 462T295 494ZM296 424Q251 424 217 402T164 348T144 282H437Q436 345 398 384T296 424ZM154 712H258L361 568H285Z" horiz-adv-x="578" unicode="è"/>
			<glyph d="M295 494Q366 494 419 462T500 375T528 248Q528 228 527 218H143Q145 175 167 139T228 82T314 62Q363 62 406 77T484 116L498 41Q417 -14 303 -14Q231 -14 173 17T83 107T50 241Q50 315 82 372T171 462T295 494ZM296 424Q251 424 217 402T164 348T144 282H437Q436 345 398 384T296 424ZM335 712H439L308 568H232Z" horiz-adv-x="578" unicode="é"/>
			<glyph d="M295 494Q366 494 419 462T500 375T528 248Q528 228 527 218H143Q145 175 167 139T228 82T314 62Q363 62 406 77T484 116L498 41Q417 -14 303 -14Q231 -14 173 17T83 107T50 241Q50 315 82 372T171 462T295 494ZM296 424Q251 424 217 402T164 348T144 282H437Q436 345 398 384T296 424ZM255 712H349L462 568H381L301 672L221 568H141Z" horiz-adv-x="578" unicode="ê"/>
			<glyph d="M295 494Q366 494 419 462T500 375T528 248Q528 228 527 218H143Q145 175 167 139T228 82T314 62Q363 62 406 77T484 116L498 41Q417 -14 303 -14Q231 -14 173 17T83 107T50 241Q50 315 82 372T171 462T295 494ZM296 424Q251 424 217 402T164 348T144 282H437Q436 345 398 384T296 424ZM205 712Q228 712 245 695T262 656Q262 633 245 616T205 600Q182 600 165 616T149 656Q149 679 165 695T205 712ZM396 712Q419 712 435 695T452 656Q452 633 435 616T396 600Q372 600 355 616T339 656Q339 679 356 695T396 712Z" horiz-adv-x="578" unicode="ë"/>
			<glyph d="M83 479H180V0H83ZM-28 712H76L179 568H103Z" horiz-adv-x="263" unicode="ì"/>
			<glyph d="M83 479H180V0H83ZM186 712H290L159 568H83Z" horiz-adv-x="263" unicode="í"/>
			<glyph d="M83 479H180V0H83ZM87 712H181L294 568H213L133 672L53 568H-27Z" horiz-adv-x="263" unicode="î"/>
			<glyph d="M83 479H180V0H83ZM38 712Q61 712 78 695T95 656Q95 633 78 616T38 600Q15 600 -1 616T-18 656Q-18 679 -1 695T38 712ZM229 712Q252 712 268 695T285 656Q285 633 268 616T229 600Q205 600 188 616T172 656Q172 679 189 695T229 712Z" horiz-adv-x="263" unicode="ï"/>
			<glyph d="M240 783Q288 747 333 706L441 759L495 715L383 660Q459 580 513 476T567 261Q567 181 535 118T445 21T307 -14Q234 -14 175 18T82 108T49 241Q49 315 82 372T172 460T301 492Q377 492 430 443L434 445Q408 495 371 544T299 625L189 571L141 615L251 669Q210 708 164 738ZM307 412Q257 412 220 388T163 326T144 241Q144 194 164 154T221 91T308 68Q358 68 395 91T452 154T472 241Q472 287 452 326T394 388T307 412Z" horiz-adv-x="619" unicode="ð"/>
			<glyph d="M341 493Q431 493 474 436T517 294V0H420V271Q420 332 395 372T312 413Q254 413 217 368T181 251V0H83V376Q83 431 78 479H172Q177 419 177 390H179Q198 436 242 464T341 493ZM412 688H459Q453 640 430 611T369 583Q337 583 296 606Q275 618 261 623T234 628Q202 628 191 582H144Q150 629 172 658T233 687Q265 687 306 665Q329 652 342 647T369 642Q387 642 397 653T412 688Z" horiz-adv-x="595" unicode="ñ"/>
			<glyph d="M309 494Q382 494 441 462T534 373T568 241Q568 166 534 108T441 18T309 -14Q236 -14 177 18T84 108T50 241Q50 315 84 373T177 462T309 494ZM309 413Q259 413 222 389T165 327T146 241Q146 194 165 154T222 91T309 68Q359 68 396 91T453 154T473 241Q473 288 453 327T396 389T309 413ZM162 712H266L369 568H293Z" horiz-adv-x="619" unicode="ò"/>
			<glyph d="M309 494Q382 494 441 462T534 373T568 241Q568 166 534 108T441 18T309 -14Q236 -14 177 18T84 108T50 241Q50 315 84 373T177 462T309 494ZM309 413Q259 413 222 389T165 327T146 241Q146 194 165 154T222 91T309 68Q359 68 396 91T453 154T473 241Q473 288 453 327T396 389T309 413ZM352 712H456L325 568H249Z" horiz-adv-x="619" unicode="ó"/>
			<glyph d="M309 494Q382 494 441 462T534 373T568 241Q568 166 534 108T441 18T309 -14Q236 -14 177 18T84 108T50 241Q50 315 84 373T177 462T309 494ZM309 413Q259 413 222 389T165 327T146 241Q146 194 165 154T222 91T309 68Q359 68 396 91T453 154T473 241Q473 288 453 327T396 389T309 413ZM264 712H358L471 568H390L310 672L230 568H150Z" horiz-adv-x="619" unicode="ô"/>
			<glyph d="M309 494Q382 494 441 462T534 373T568 241Q568 166 534 108T441 18T309 -14Q236 -14 177 18T84 108T50 241Q50 315 84 373T177 462T309 494ZM309 413Q259 413 222 389T165 327T146 241Q146 194 165 154T222 91T309 68Q359 68 396 91T453 154T473 241Q473 288 453 327T396 389T309 413ZM420 688H467Q461 640 438 611T377 583Q345 583 304 606Q283 618 269 623T242 628Q210 628 199 582H152Q158 629 180 658T241 687Q273 687 314 665Q337 652 350 647T377 642Q395 642 405 653T420 688Z" horiz-adv-x="619" unicode="õ"/>
			<glyph d="M309 494Q382 494 441 462T534 373T568 241Q568 166 534 108T441 18T309 -14Q236 -14 177 18T84 108T50 241Q50 315 84 373T177 462T309 494ZM309 413Q259 413 222 389T165 327T146 241Q146 194 165 154T222 91T309 68Q359 68 396 91T453 154T473 241Q473 288 453 327T396 389T309 413ZM214 712Q237 712 254 695T271 656Q271 633 254 616T214 600Q191 600 174 616T158 656Q158 679 174 695T214 712ZM405 712Q428 712 444 695T461 656Q461 633 444 616T405 600Q381 600 364 616T348 656Q348 679 365 695T405 712Z" horiz-adv-x="619" unicode="ö"/>
			<glyph d="M333 541Q359 541 377 522T396 478Q396 453 377 434T333 416Q307 416 288 434T270 478Q270 504 288 522T333 541ZM84 342H582V265H84ZM333 190Q359 190 377 171T396 128Q396 102 377 83T333 65Q307 65 288 83T270 128Q270 154 288 172T333 190Z" horiz-adv-x="666" unicode="÷"/>
			<glyph d="M536 508L575 471L509 405Q538 374 553 332T568 241Q568 167 534 109T441 18T309 -14Q261 -14 219 0T147 41L76 -29L38 8L107 77Q80 108 65 150T50 241Q50 315 83 372T176 462T309 495Q403 495 470 442ZM308 416Q258 416 220 392T162 329T142 243Q142 214 150 188T172 143L409 381Q390 398 364 407T308 416ZM442 343L205 104Q224 86 251 75T309 65Q359 65 397 88T455 152T475 240Q475 269 466 296T442 343Z" horiz-adv-x="619" unicode="ø"/>
			<glyph d="M76 479H174V209Q174 147 198 107T281 67Q339 67 376 112T413 233V479H510V102Q510 51 517 0L423 -1Q417 31 415 89Q395 43 349 15T251 -13Q161 -13 118 44T76 186ZM147 712H251L354 568H278Z" horiz-adv-x="594" unicode="ù"/>
			<glyph d="M76 479H174V209Q174 147 198 107T281 67Q339 67 376 112T413 233V479H510V102Q510 51 517 0L423 -1Q417 31 415 89Q395 43 349 15T251 -13Q161 -13 118 44T76 186ZM331 712H435L304 568H228Z" horiz-adv-x="594" unicode="ú"/>
			<glyph d="M76 479H174V209Q174 147 198 107T281 67Q339 67 376 112T413 233V479H510V102Q510 51 517 0L423 -1Q417 31 415 89Q395 43 349 15T251 -13Q161 -13 118 44T76 186ZM247 712H341L454 568H373L293 672L213 568H133Z" horiz-adv-x="594" unicode="û"/>
			<glyph d="M76 479H174V209Q174 147 198 107T281 67Q339 67 376 112T413 233V479H510V102Q510 51 517 0L423 -1Q417 31 415 89Q395 43 349 15T251 -13Q161 -13 118 44T76 186ZM199 712Q222 712 239 695T256 656Q256 633 239 616T199 600Q176 600 159 616T143 656Q143 679 159 695T199 712ZM390 712Q413 712 429 695T446 656Q446 633 429 616T390 600Q366 600 349 616T333 656Q333 679 350 695T390 712Z" horiz-adv-x="594" unicode="ü"/>
			<glyph d="M11 479H119L265 104L390 479H493L283 -84Q255 -161 208 -196T85 -240L55 -158Q108 -151 139 -130T189 -68L215 1ZM311 712H415L284 568H208Z" horiz-adv-x="504" unicode="ý"/>
			<glyph d="M83 756H180V396H182Q209 441 255 467T358 493Q427 493 480 459T562 368T592 241Q592 171 563 113T480 21T357 -13Q301 -13 253 12T182 84H180V-240H83ZM337 413Q290 413 253 389T195 326T175 240Q175 194 195 154T253 91T337 68Q386 68 422 91T478 154T498 241Q498 287 478 326T422 389T337 413Z" horiz-adv-x="643" unicode="þ"/>
			<glyph d="M11 479H119L265 104L390 479H493L283 -84Q255 -161 208 -196T85 -240L55 -158Q108 -151 139 -130T189 -68L215 1ZM164 712Q187 712 204 695T221 656Q221 633 204 616T164 600Q141 600 124 616T108 656Q108 679 124 695T164 712ZM355 712Q378 712 394 695T411 656Q411 633 394 616T355 600Q331 600 314 616T298 656Q298 679 315 695T355 712Z" horiz-adv-x="504" unicode="ÿ"/>
			<glyph d="M303 708H404L700 0H588L496 227H203L112 0H2ZM352 600L234 309H466ZM208 861H496V805H208Z" horiz-adv-x="702" unicode="Ā"/>
			<glyph d="M265 494Q357 494 407 445T457 299V99Q457 37 464 0H376Q373 18 370 41T368 77H365Q345 34 298 10T199 -13Q138 -13 93 23T49 133Q49 224 128 258T324 293H364V312Q364 366 333 393T248 420Q211 420 169 404T100 365L75 437Q156 494 265 494ZM327 234Q140 234 140 135Q140 94 164 75T225 56Q269 56 301 76T350 129T367 197V234ZM131 665H419V608H131Z" horiz-adv-x="532" unicode="ā"/>
			<glyph d="M303 708H404L700 0H588L496 227H203L112 0H2ZM352 600L234 309H466ZM200 904H254Q261 865 287 846T352 827Q392 827 417 845T451 904H504Q497 837 456 803T351 769Q288 769 247 803T200 904Z" horiz-adv-x="702" unicode="Ă"/>
			<glyph d="M265 494Q357 494 407 445T457 299V99Q457 37 464 0H376Q373 18 370 41T368 77H365Q345 34 298 10T199 -13Q138 -13 93 23T49 133Q49 224 128 258T324 293H364V312Q364 366 333 393T248 420Q211 420 169 404T100 365L75 437Q156 494 265 494ZM327 234Q140 234 140 135Q140 94 164 75T225 56Q269 56 301 76T350 129T367 197V234ZM123 708H177Q184 669 210 650T275 631Q315 631 340 649T374 708H427Q420 641 379 607T274 573Q211 573 170 607T123 708Z" horiz-adv-x="532" unicode="ă"/>
			<glyph d="M303 708H404L700 0H649Q604 -39 581 -69T559 -127Q559 -148 573 -161T608 -175Q640 -175 667 -151L689 -193Q670 -209 643 -219T591 -229Q550 -229 521 -206T492 -143Q492 -106 519 -70T589 0H588L496 227H203L112 0H2ZM352 600L234 309H466Z" horiz-adv-x="702" unicode="Ą"/>
			<glyph d="M265 494Q357 494 407 445T457 299V99Q457 37 464 0H436Q392 -39 369 -69T347 -127Q347 -148 361 -161T396 -175Q428 -175 455 -151L477 -193Q458 -209 431 -219T378 -229Q337 -229 308 -206T280 -143Q280 -106 307 -70T377 0H376Q373 18 370 41T368 77H365Q345 34 298 10T199 -13Q138 -13 93 23T49 133Q49 224 128 258T324 293H364V312Q364 366 333 393T248 420Q211 420 169 404T100 365L75 437Q156 494 265 494ZM327 234Q140 234 140 135Q140 94 164 75T225 56Q269 56 301 76T350 129T367 197V234Z" horiz-adv-x="532" unicode="ą"/>
			<glyph d="M428 727Q499 727 565 704T672 649L645 554Q606 589 549 612T431 635Q353 635 292 598T197 497T163 354Q163 275 196 211T291 110T433 74Q500 74 557 98T657 161L675 70Q636 33 568 7T426 -19Q320 -19 235 29T102 162T54 354Q54 463 102 548T236 680T428 727ZM461 908H565L434 764H358Z" horiz-adv-x="710" unicode="Ć"/>
			<glyph d="M308 494Q354 494 399 479T471 440L435 367Q411 388 377 400T309 413Q262 413 225 389T169 326T149 240Q149 193 169 153T227 91T316 68Q359 68 393 81T458 120L471 43Q443 18 398 2T301 -14Q231 -14 173 18T83 107T50 240Q50 314 83 372T176 462T308 494ZM341 712H445L314 568H238Z" horiz-adv-x="494" unicode="ć"/>
			<glyph d="M428 727Q499 727 565 704T672 649L645 554Q606 589 549 612T431 635Q353 635 292 598T197 497T163 354Q163 275 196 211T291 110T433 74Q500 74 557 98T657 161L675 70Q636 33 568 7T426 -19Q320 -19 235 29T102 162T54 354Q54 463 102 548T236 680T428 727ZM383 908H477L590 764H509L429 868L349 764H269Z" horiz-adv-x="710" unicode="Ĉ"/>
			<glyph d="M308 494Q354 494 399 479T471 440L435 367Q411 388 377 400T309 413Q262 413 225 389T169 326T149 240Q149 193 169 153T227 91T316 68Q359 68 393 81T458 120L471 43Q443 18 398 2T301 -14Q231 -14 173 18T83 107T50 240Q50 314 83 372T176 462T308 494ZM251 712H345L458 568H377L297 672L217 568H137Z" horiz-adv-x="494" unicode="ĉ"/>
			<glyph d="M428 727Q499 727 565 704T672 649L645 554Q606 589 549 612T431 635Q353 635 292 598T197 497T163 354Q163 275 196 211T291 110T433 74Q500 74 557 98T657 161L675 70Q636 33 568 7T426 -19Q320 -19 235 29T102 162T54 354Q54 463 102 548T236 680T428 727ZM426 910Q451 910 468 893T485 853Q485 828 467 811T426 795Q402 795 385 811T368 853Q368 876 385 893T426 910Z" horiz-adv-x="710" unicode="Ċ"/>
			<glyph d="M308 494Q354 494 399 479T471 440L435 367Q411 388 377 400T309 413Q262 413 225 389T169 326T149 240Q149 193 169 153T227 91T316 68Q359 68 393 81T458 120L471 43Q443 18 398 2T301 -14Q231 -14 173 18T83 107T50 240Q50 314 83 372T176 462T308 494ZM301 714Q326 714 343 697T360 656Q360 632 342 615T301 599Q277 599 260 615T243 656Q243 680 260 697T301 714Z" horiz-adv-x="494" unicode="ċ"/>
			<glyph d="M428 727Q499 727 565 704T672 649L645 554Q606 589 549 612T431 635Q353 635 292 598T197 497T163 354Q163 275 196 211T291 110T433 74Q500 74 557 98T657 161L675 70Q636 33 568 7T426 -19Q320 -19 235 29T102 162T54 354Q54 463 102 548T236 680T428 727ZM268 908H349L429 804L509 908H589L475 764H382Z" horiz-adv-x="710" unicode="Č"/>
			<glyph d="M308 494Q354 494 399 479T471 440L435 367Q411 388 377 400T309 413Q262 413 225 389T169 326T149 240Q149 193 169 153T227 91T316 68Q359 68 393 81T458 120L471 43Q443 18 398 2T301 -14Q231 -14 173 18T83 107T50 240Q50 314 83 372T176 462T308 494ZM140 712H221L301 608L381 712H461L347 568H254Z" horiz-adv-x="494" unicode="č"/>
			<glyph d="M88 708H321Q429 708 518 671T661 556T716 355Q716 238 662 158T519 39T325 0H88ZM188 621V88H312Q445 88 527 155T610 355Q610 487 528 554T314 621ZM195 908H276L356 804L436 908H516L402 764H309Z" horiz-adv-x="770" unicode="Ď"/>
			<glyph d="M560 771V119Q560 80 564 0H473Q469 60 469 89H467Q441 41 391 14T285 -13Q215 -13 161 21T79 113T50 241Q50 310 79 367T162 459T284 493Q341 493 387 467T461 396H463V756ZM305 413Q256 413 220 389T164 326T145 241Q145 194 164 154T220 91T305 68Q352 68 388 91T445 154T466 240Q466 286 445 326T388 389T305 413ZM664 708H754L679 518H604Z" horiz-adv-x="723" unicode="ď"/>
			<glyph d="M88 708H328Q434 708 521 670T661 552T713 355Q713 239 659 159T518 39T328 0H88V333H18V400H88ZM187 619V400H412V333H187V89H308Q445 89 527 157T609 355Q609 483 529 551T315 619Z" horiz-adv-x="770" unicode="Đ"/>
			<glyph d="M463 756H560V627H616V570H560V107Q560 54 563 0H472Q469 45 469 89H467Q441 41 391 14T285 -13Q215 -13 161 21T79 113T50 241Q50 310 79 367T162 459T284 493Q341 493 387 467T461 396H463V570H289V627H463ZM305 413Q256 413 220 389T164 326T145 241Q145 194 164 154T220 91T305 68Q352 68 389 91T446 154T467 240Q467 286 446 326T389 389T305 413Z" horiz-adv-x="643" unicode="đ"/>
			<glyph d="M88 708H496L481 621H186V406H470L455 323H186V87H511L497 0H88ZM146 862H434V806H146Z" horiz-adv-x="557" unicode="Ē"/>
			<glyph d="M295 494Q366 494 419 462T500 375T528 248Q528 228 527 218H143Q145 175 167 139T228 82T314 62Q363 62 406 77T484 116L498 41Q417 -14 303 -14Q231 -14 173 17T83 107T50 241Q50 315 82 372T171 462T295 494ZM296 424Q251 424 217 402T164 348T144 282H437Q436 345 398 384T296 424ZM156 665H444V608H156Z" horiz-adv-x="578" unicode="ē"/>
			<glyph d="M88 708H496L481 621H186V406H470L455 323H186V87H511L497 0H88ZM144 897H198Q205 858 231 839T296 820Q336 820 361 838T395 897H448Q441 830 400 796T295 762Q232 762 191 796T144 897Z" horiz-adv-x="557" unicode="Ĕ"/>
			<glyph d="M295 494Q366 494 419 462T500 375T528 248Q528 228 527 218H143Q145 175 167 139T228 82T314 62Q363 62 406 77T484 116L498 41Q417 -14 303 -14Q231 -14 173 17T83 107T50 241Q50 315 82 372T171 462T295 494ZM296 424Q251 424 217 402T164 348T144 282H437Q436 345 398 384T296 424ZM148 708H202Q209 669 235 650T300 631Q340 631 365 649T399 708H452Q445 641 404 607T299 573Q236 573 195 607T148 708Z" horiz-adv-x="578" unicode="ĕ"/>
			<glyph d="M88 708H496L481 621H186V406H470L455 323H186V87H511L497 0H88ZM294 898Q319 898 336 881T353 841Q353 816 335 799T294 783Q270 783 253 799T236 841Q236 864 253 881T294 898Z" horiz-adv-x="557" unicode="Ė"/>
			<glyph d="M295 494Q366 494 419 462T500 375T528 248Q528 228 527 218H143Q145 175 167 139T228 82T314 62Q363 62 406 77T484 116L498 41Q417 -14 303 -14Q231 -14 173 17T83 107T50 241Q50 315 82 372T171 462T295 494ZM296 424Q251 424 217 402T164 348T144 282H437Q436 345 398 384T296 424ZM299 714Q324 714 341 697T358 656Q358 632 340 615T299 599Q275 599 258 615T241 656Q241 680 258 697T299 714Z" horiz-adv-x="578" unicode="ė"/>
			<glyph d="M88 708H496L481 621H186V406H470L455 323H186V87H511L497 0H440Q396 -39 373 -69T351 -127Q351 -148 365 -161T400 -175Q432 -175 459 -151L481 -193Q462 -209 435 -219T383 -229Q342 -229 313 -206T284 -143Q284 -106 311 -70T381 0H88Z" horiz-adv-x="557" unicode="Ę"/>
			<glyph d="M295 494Q366 494 419 462T500 375T528 248Q528 228 527 218H143Q145 175 167 139T228 82T314 62Q363 62 406 77T484 116L498 41Q445 3 372 -9Q333 -45 313 -73T293 -127Q293 -148 307 -161T342 -175Q357 -175 373 -168T401 -151L423 -193Q403 -209 377 -219T324 -229Q283 -229 254 -206T225 -143Q225 -84 305 -14H303Q231 -14 173 17T83 107T50 241Q50 315 82 372T171 462T295 494ZM296 424Q251 424 217 402T164 348T144 282H437Q436 345 398 384T296 424Z" horiz-adv-x="578" unicode="ę"/>
			<glyph d="M88 708H496L481 621H186V406H470L455 323H186V87H511L497 0H88ZM138 907H219L299 803L379 907H459L345 763H252Z" horiz-adv-x="557" unicode="Ě"/>
			<glyph d="M295 494Q366 494 419 462T500 375T528 248Q528 228 527 218H143Q145 175 167 139T228 82T314 62Q363 62 406 77T484 116L498 41Q417 -14 303 -14Q231 -14 173 17T83 107T50 241Q50 315 82 372T171 462T295 494ZM296 424Q251 424 217 402T164 348T144 282H437Q436 345 398 384T296 424ZM139 712H220L300 608L380 712H460L346 568H253Z" horiz-adv-x="578" unicode="ě"/>
			<glyph d="M430 727Q503 727 572 705T689 651L652 566Q609 597 551 617T433 638Q354 638 292 600T195 498T161 355Q161 275 194 210T291 107T440 70Q533 70 605 105V303H447L462 386H699V44Q647 15 579 -2T434 -19Q324 -19 237 29T102 162T54 355Q54 464 102 548T237 680T430 727ZM387 908H481L594 764H513L433 868L353 764H273Z" horiz-adv-x="780" unicode="Ĝ"/>
			<glyph d="M285 493Q341 493 389 466T465 391H467Q467 421 473 479H563Q560 431 560 374V22Q560 -102 493 -173T299 -244Q240 -244 182 -227T81 -185L97 -100Q137 -128 188 -146T293 -164Q380 -164 422 -115T464 15V89H461Q436 44 389 18T286 -8Q216 -8 162 25T79 115T50 241Q50 310 79 367T161 459T285 493ZM305 413Q257 413 220 390T165 328T146 242Q146 196 165 157T220 94T305 71Q352 71 389 94T446 156T467 242Q467 288 446 327T389 390T305 413ZM267 712H361L474 568H393L313 672L233 568H153Z" horiz-adv-x="642" unicode="ĝ"/>
			<glyph d="M430 727Q503 727 572 705T689 651L652 566Q609 597 551 617T433 638Q354 638 292 600T195 498T161 355Q161 275 194 210T291 107T440 70Q533 70 605 105V303H447L462 386H699V44Q647 15 579 -2T434 -19Q324 -19 237 29T102 162T54 355Q54 464 102 548T237 680T430 727ZM283 904H337Q344 865 370 846T435 827Q475 827 500 845T534 904H587Q580 837 539 803T434 769Q371 769 330 803T283 904Z" horiz-adv-x="780" unicode="Ğ"/>
			<glyph d="M285 493Q341 493 389 466T465 391H467Q467 421 473 479H563Q560 431 560 374V22Q560 -102 493 -173T299 -244Q240 -244 182 -227T81 -185L97 -100Q137 -128 188 -146T293 -164Q380 -164 422 -115T464 15V89H461Q436 44 389 18T286 -8Q216 -8 162 25T79 115T50 241Q50 310 79 367T161 459T285 493ZM305 413Q257 413 220 390T165 328T146 242Q146 196 165 157T220 94T305 71Q352 71 389 94T446 156T467 242Q467 288 446 327T389 390T305 413ZM163 708H217Q224 669 250 650T315 631Q355 631 380 649T414 708H467Q460 641 419 607T314 573Q251 573 210 607T163 708Z" horiz-adv-x="642" unicode="ğ"/>
			<glyph d="M430 727Q503 727 572 705T689 651L652 566Q609 597 551 617T433 638Q354 638 292 600T195 498T161 355Q161 275 194 210T291 107T440 70Q533 70 605 105V303H447L462 386H699V44Q647 15 579 -2T434 -19Q324 -19 237 29T102 162T54 355Q54 464 102 548T237 680T430 727ZM431 910Q456 910 473 893T490 853Q490 828 472 811T431 795Q407 795 390 811T373 853Q373 876 390 893T431 910Z" horiz-adv-x="780" unicode="Ġ"/>
			<glyph d="M285 493Q341 493 389 466T465 391H467Q467 421 473 479H563Q560 431 560 374V22Q560 -102 493 -173T299 -244Q240 -244 182 -227T81 -185L97 -100Q137 -128 188 -146T293 -164Q380 -164 422 -115T464 15V89H461Q436 44 389 18T286 -8Q216 -8 162 25T79 115T50 241Q50 310 79 367T161 459T285 493ZM305 413Q257 413 220 390T165 328T146 242Q146 196 165 157T220 94T305 71Q352 71 389 94T446 156T467 242Q467 288 446 327T389 390T305 413ZM312 714Q337 714 354 697T371 656Q371 632 353 615T312 599Q288 599 271 615T254 656Q254 680 271 697T312 714Z" horiz-adv-x="642" unicode="ġ"/>
			<glyph d="M430 727Q503 727 572 705T689 651L652 566Q609 597 551 617T433 638Q354 638 292 600T195 498T161 355Q161 275 194 210T291 107T440 70Q533 70 605 105V303H447L462 386H699V44Q647 15 579 -2T434 -19Q324 -19 237 29T102 162T54 355Q54 464 102 548T237 680T430 727ZM395 -44H485L410 -234H335Z" horiz-adv-x="780" unicode="Ģ"/>
			<glyph d="M285 493Q341 493 389 466T465 391H467Q467 421 473 479H563Q560 431 560 374V22Q560 -102 493 -173T299 -244Q240 -244 182 -227T81 -185L97 -100Q137 -128 188 -146T293 -164Q380 -164 422 -115T464 15V89H461Q436 44 389 18T286 -8Q216 -8 162 25T79 115T50 241Q50 310 79 367T161 459T285 493ZM305 413Q257 413 220 390T165 328T146 242Q146 196 165 157T220 94T305 71Q352 71 389 94T446 156T467 242Q467 288 446 327T389 390T305 413ZM337 758H413L352 568H263Z" horiz-adv-x="642" unicode="ģ"/>
			<glyph d="M88 708H190V411H580V708H681V0H580V324H190V0H88ZM328 908H422L535 764H454L374 868L294 764H214Z" horiz-adv-x="755" unicode="Ĥ"/>
			<glyph d="M180 768V393H182Q201 438 244 465T342 493Q432 493 474 436T517 294V0H419V271Q419 333 395 372T312 412Q254 412 217 366T180 243V0H83V754ZM251 937H345L458 793H377L297 897L217 793H137Z" horiz-adv-x="594" unicode="ĥ"/>
			<glyph d="M88 708H190V557H580V708H681V0H580V324H190V0H88ZM190 500V411H580V500Z" horiz-adv-x="769" unicode="Ħ"/>
			<glyph d="M83 756H180V627H353V570H180V393H182Q201 438 244 465T342 493Q432 493 474 436T517 294V0H419V271Q419 333 395 372T312 412Q254 412 217 367T180 250V0H83V570H26V627H83Z" horiz-adv-x="594" unicode="ħ"/>
			<glyph d="M88 708H190V0H88ZM251 884H298Q292 837 269 808T208 780Q175 780 135 802Q114 814 100 819T73 824Q40 824 30 778H-17Q-11 825 11 854T72 883Q104 883 145 861Q168 849 181 844T208 839Q227 839 236 850T251 884Z" horiz-adv-x="278" unicode="Ĩ"/>
			<glyph d="M83 479H180V0H83ZM244 688H291Q285 640 262 611T201 583Q169 583 128 606Q107 618 93 623T66 628Q34 628 23 582H-24Q-18 629 4 658T65 687Q97 687 138 665Q161 652 174 647T201 642Q219 642 229 653T244 688Z" horiz-adv-x="263" unicode="ĩ"/>
			<glyph d="M88 708H190V0H88ZM-5 861H283V805H-5Z" horiz-adv-x="278" unicode="Ī"/>
			<glyph d="M83 479H180V0H83ZM-11 665H277V608H-11Z" horiz-adv-x="263" unicode="ī"/>
			<glyph d="M88 708H190V0H88ZM-13 904H41Q48 865 74 846T139 827Q179 827 204 845T238 904H291Q284 837 243 803T138 769Q75 769 34 803T-13 904Z" horiz-adv-x="278" unicode="Ĭ"/>
			<glyph d="M83 479H180V0H83ZM-21 708H33Q40 669 66 650T131 631Q171 631 196 649T230 708H283Q276 641 235 607T130 573Q67 573 26 607T-21 708Z" horiz-adv-x="263" unicode="ĭ"/>
			<glyph d="M88 708H190V0H185Q140 -40 117 -70T95 -127Q95 -148 109 -161T144 -175Q177 -175 204 -151L226 -193Q206 -209 179 -219T127 -229Q86 -229 57 -206T28 -143Q28 -106 55 -70T125 0H88Z" horiz-adv-x="278" unicode="Į"/>
			<glyph d="M132 716Q156 716 174 698T192 656Q192 631 174 613T132 596Q107 596 89 613T71 656Q71 681 89 698T132 716ZM83 479H180V0H178Q134 -39 111 -69T89 -127Q89 -149 102 -162T138 -175Q153 -175 169 -168T197 -151L219 -193Q199 -209 172 -219T120 -229Q79 -229 50 -206T21 -143Q21 -106 48 -70T118 0H83Z" horiz-adv-x="263" unicode="į"/>
			<glyph d="M88 708H190V0H88ZM139 910Q164 910 181 893T198 853Q198 828 180 811T139 795Q115 795 98 811T81 853Q81 876 98 893T139 910Z" horiz-adv-x="278" unicode="İ"/>
			<glyph d="M83 479H180V0H83Z" horiz-adv-x="263" unicode="ı"/>
			<glyph d="M88 708H190V0H88ZM476 708H577V214Q577 111 524 46T366 -18Q333 -18 309 -14L292 82Q319 73 350 73Q414 73 445 113T476 220Z" horiz-adv-x="661" unicode="Ĳ"/>
			<glyph d="M132 716Q156 716 174 698T192 656Q192 631 174 613T132 596Q107 596 89 613T71 656Q71 681 89 698T132 716ZM83 479H180V0H83ZM394 716Q419 716 437 698T455 656Q455 631 437 613T394 596Q369 596 351 613T333 656Q333 681 351 698T394 716ZM346 479H443V-47Q443 -137 407 -187T279 -241L255 -158Q303 -158 324 -131T346 -46Z" horiz-adv-x="526" unicode="ĳ"/>
			<glyph d="M208 708H309V214Q309 111 256 46T98 -18Q65 -18 41 -14L24 82Q51 73 82 73Q146 73 177 113T208 220ZM203 908H297L410 764H329L249 868L169 764H89Z" horiz-adv-x="393" unicode="Ĵ"/>
			<glyph d="M85 479H182V-56Q182 -144 148 -192T25 -241Q-4 -241 -28 -234L-20 -153Q-2 -158 13 -158Q56 -158 70 -131T85 -55ZM85 712H179L292 568H211L131 672L51 568H-29Z" horiz-adv-x="265" unicode="ĵ"/>
			<glyph d="M88 708H188V381L494 708H624L294 369L642 0H508L188 348V0H88ZM301 -45H391L316 -235H241Z" horiz-adv-x="645" unicode="Ķ"/>
			<glyph d="M180 768V266H183L379 479H498L286 260L515 0H398L183 244H180V0H83V754ZM243 -45H333L258 -235H183Z" horiz-adv-x="527" unicode="ķ"/>
			<glyph d="M83 479H180V272H183L379 479H502L284 260L519 0H394L183 242H180V0H83Z" horiz-adv-x="527" unicode="ĸ"/>
			<glyph d="M88 708H190V89H492L477 0H88ZM203 888H307L176 744H100Z" horiz-adv-x="513" unicode="Ĺ"/>
			<glyph d="M181 767V160Q181 121 192 100T233 62L180 -14Q83 29 83 145V753ZM188 927H292L161 783H85Z" horiz-adv-x="267" unicode="ĺ"/>
			<glyph d="M88 708H190V89H492L477 0H88ZM250 -45H340L265 -235H190Z" horiz-adv-x="513" unicode="Ļ"/>
			<glyph d="M181 767V160Q181 121 192 100T233 62L180 -14Q83 29 83 145V753ZM100 -45H190L115 -235H40Z" horiz-adv-x="267" unicode="ļ"/>
			<glyph d="M88 708H190V89H492L477 0H88ZM324 709H414L339 519H264Z" horiz-adv-x="513" unicode="Ľ"/>
			<glyph d="M181 767V160Q181 121 192 100T233 62L180 -14Q83 29 83 145V753ZM285 708H374L300 518H224Z" horiz-adv-x="342" unicode="ľ"/>
			<glyph d="M88 708H190V89H492L477 0H88ZM341 424Q366 424 383 407T400 366Q400 342 382 325T341 309Q317 309 300 325T283 366Q283 390 300 407T341 424Z" horiz-adv-x="513" unicode="Ŀ"/>
			<glyph d="M181 767V160Q181 121 192 100T233 62L180 -14Q83 29 83 145V753ZM285 461Q310 461 327 444T344 403Q344 379 326 362T285 346Q261 346 244 362T227 403Q227 427 244 444T285 461Z" horiz-adv-x="352" unicode="ŀ"/>
			<glyph d="M88 708H190V381L391 558V470L190 292V89H501L486 0H88V217L21 157V246L88 305Z" horiz-adv-x="513" unicode="Ł"/>
			<glyph d="M181 767V477L250 542V453L181 388V160Q181 121 192 100T233 62L180 -14Q83 29 83 145V310L21 250V340L83 400V753Z" horiz-adv-x="267" unicode="ł"/>
			<glyph d="M88 708H207L593 145H596L594 708H693V0H574L188 565H185L187 0H88ZM443 908H547L416 764H340Z" horiz-adv-x="781" unicode="Ń"/>
			<glyph d="M341 493Q431 493 474 436T517 294V0H420V271Q420 332 395 372T312 413Q254 413 217 368T181 251V0H83V376Q83 431 78 479H172Q177 419 177 390H179Q198 436 242 464T341 493ZM341 712H445L314 568H238Z" horiz-adv-x="595" unicode="ń"/>
			<glyph d="M88 708H207L593 145H596L594 708H693V0H574L188 565H185L187 0H88ZM346 -45H436L361 -235H286Z" horiz-adv-x="781" unicode="Ņ"/>
			<glyph d="M341 493Q431 493 474 436T517 294V0H420V271Q420 332 395 372T312 413Q254 413 217 368T181 251V0H83V376Q83 431 78 479H172Q177 419 177 390H179Q198 436 242 464T341 493ZM259 -46H349L274 -236H199Z" horiz-adv-x="595" unicode="ņ"/>
			<glyph d="M88 708H207L593 145H596L594 708H693V0H574L188 565H185L187 0H88ZM232 908H313L393 804L473 908H553L439 764H346Z" horiz-adv-x="781" unicode="Ň"/>
			<glyph d="M341 493Q431 493 474 436T517 294V0H420V271Q420 332 395 372T312 413Q254 413 217 368T181 251V0H83V376Q83 431 78 479H172Q177 419 177 390H179Q198 436 242 464T341 493ZM141 712H222L302 608L382 712H462L348 568H255Z" horiz-adv-x="595" unicode="ň"/>
			<glyph d="M384 493Q474 493 517 436T560 294V0H463V271Q463 332 438 372T355 413Q297 413 260 368T224 251V0H126V376Q126 431 121 479H215Q220 419 220 390H222Q241 436 285 464T384 493ZM73 716H162L88 526H13Z" horiz-adv-x="638" unicode="ŉ"/>
			<glyph d="M88 708H207L593 163H596L594 708H693V-56Q693 -144 659 -192T536 -241Q508 -241 483 -234L491 -153Q509 -158 524 -158Q566 -158 580 -131T595 -55V-9L188 565H185L187 0H88Z" horiz-adv-x="781" unicode="Ŋ"/>
			<glyph d="M342 493Q432 493 474 436T517 294V-56Q517 -144 483 -192T360 -241Q332 -241 307 -234L316 -153Q334 -158 348 -158Q391 -158 405 -131T420 -55V271Q420 332 395 372T312 413Q254 413 217 368T181 251V0H83V383Q83 444 79 479H173Q177 431 177 390H179Q198 436 243 464T342 493Z" horiz-adv-x="595" unicode="ŋ"/>
			<glyph d="M429 727Q536 727 621 680T755 548T804 355Q804 247 755 161T621 28T429 -19Q322 -19 236 28T102 161T54 355Q54 464 102 548T236 680T429 727ZM429 636Q351 636 290 599T195 497T162 355Q162 276 195 211T290 110T429 73Q507 73 568 110T662 211T696 355Q696 433 662 497T567 599T429 636ZM285 861H573V805H285Z" horiz-adv-x="858" unicode="Ō"/>
			<glyph d="M309 494Q382 494 441 462T534 373T568 241Q568 166 534 108T441 18T309 -14Q236 -14 177 18T84 108T50 241Q50 315 84 373T177 462T309 494ZM309 413Q259 413 222 389T165 327T146 241Q146 194 165 154T222 91T309 68Q359 68 396 91T453 154T473 241Q473 288 453 327T396 389T309 413ZM164 665H452V608H164Z" horiz-adv-x="619" unicode="ō"/>
			<glyph d="M429 727Q536 727 621 680T755 548T804 355Q804 247 755 161T621 28T429 -19Q322 -19 236 28T102 161T54 355Q54 464 102 548T236 680T429 727ZM429 636Q351 636 290 599T195 497T162 355Q162 276 195 211T290 110T429 73Q507 73 568 110T662 211T696 355Q696 433 662 497T567 599T429 636ZM276 904H330Q337 865 363 846T428 827Q468 827 493 845T527 904H580Q573 837 532 803T427 769Q364 769 323 803T276 904Z" horiz-adv-x="858" unicode="Ŏ"/>
			<glyph d="M309 494Q382 494 441 462T534 373T568 241Q568 166 534 108T441 18T309 -14Q236 -14 177 18T84 108T50 241Q50 315 84 373T177 462T309 494ZM309 413Q259 413 222 389T165 327T146 241Q146 194 165 154T222 91T309 68Q359 68 396 91T453 154T473 241Q473 288 453 327T396 389T309 413ZM156 708H210Q217 669 243 650T308 631Q348 631 373 649T407 708H460Q453 641 412 607T307 573Q244 573 203 607T156 708Z" horiz-adv-x="619" unicode="ŏ"/>
			<glyph d="M429 727Q536 727 621 680T755 548T804 355Q804 247 755 161T621 28T429 -19Q322 -19 236 28T102 161T54 355Q54 464 102 548T236 680T429 727ZM429 636Q351 636 290 599T195 497T162 355Q162 276 195 211T290 110T429 73Q507 73 568 110T662 211T696 355Q696 433 662 497T567 599T429 636ZM471 908H611L479 763H369Z" horiz-adv-x="858" unicode="Ő"/>
			<glyph d="M309 494Q382 494 441 462T534 373T568 241Q568 166 534 108T441 18T309 -14Q236 -14 177 18T84 108T50 241Q50 315 84 373T177 462T309 494ZM309 413Q259 413 222 389T165 327T146 241Q146 194 165 154T222 91T309 68Q359 68 396 91T453 154T473 241Q473 288 453 327T396 389T309 413ZM355 712H495L363 567H253Z" horiz-adv-x="619" unicode="ő"/>
			<glyph d="M450 708H947L932 621H614V406H917L903 323H614V87H963L948 0H450Q343 0 254 38T111 155T57 354Q57 474 111 553T254 670T450 708ZM461 621Q328 621 246 554T164 353Q164 266 202 206T307 116T459 87H517V621Z" horiz-adv-x="1008" unicode="Œ"/>
			<glyph d="M308 494Q377 494 431 462T513 377Q542 430 593 462T709 494Q780 494 832 462T913 374T941 248Q941 227 940 217H557Q559 175 580 139T639 83T728 62Q777 62 821 76T898 113L912 41Q835 -14 715 -14Q646 -14 593 17T513 102Q486 48 432 17T308 -14Q235 -14 176 18T83 108T50 241Q50 316 83 373T176 462T308 494ZM708 424Q664 424 630 402T578 347T558 281H850Q848 345 810 384T708 424ZM309 413Q259 413 222 389T165 327T145 241Q145 194 165 154T222 91T309 68Q359 68 396 91T453 154T473 241Q473 288 453 327T396 389T309 413Z" horiz-adv-x="990" unicode="œ"/>
			<glyph d="M88 708H304Q411 708 481 661T552 508Q552 433 507 379T397 308L596 0H477L298 293H188V0H88ZM188 625V370H293Q362 370 407 405T452 506Q452 569 406 597T292 625ZM330 909H434L303 765H227Z" horiz-adv-x="628" unicode="Ŕ"/>
			<glyph d="M307 493Q338 493 359 486L344 401Q325 408 302 408Q244 408 212 358T180 241V0H83V361Q83 439 78 479H171Q177 443 177 388H179Q196 437 231 465T307 493ZM218 712H322L191 568H115Z" horiz-adv-x="362" unicode="ŕ"/>
			<glyph d="M88 708H304Q411 708 481 661T552 508Q552 433 507 379T397 308L596 0H477L298 293H188V0H88ZM188 625V370H293Q362 370 407 405T452 506Q452 569 406 597T292 625ZM275 -45H365L290 -235H215Z" horiz-adv-x="628" unicode="Ŗ"/>
			<glyph d="M307 493Q338 493 359 486L344 401Q325 408 302 408Q244 408 212 358T180 241V0H83V361Q83 439 78 479H171Q177 443 177 388H179Q196 437 231 465T307 493ZM97 -45H187L112 -235H37Z" horiz-adv-x="362" unicode="ŗ"/>
			<glyph d="M88 708H304Q411 708 481 661T552 508Q552 433 507 379T397 308L596 0H477L298 293H188V0H88ZM188 625V370H293Q362 370 407 405T452 506Q452 569 406 597T292 625ZM139 906H220L300 802L380 906H460L346 762H253Z" horiz-adv-x="628" unicode="Ř"/>
			<glyph d="M307 493Q338 493 359 486L344 401Q325 408 302 408Q244 408 212 358T180 241V0H83V361Q83 439 78 479H171Q177 443 177 388H179Q196 437 231 465T307 493ZM54 712H135L215 608L295 712H375L261 568H168Z" horiz-adv-x="362" unicode="ř"/>
			<glyph d="M308 727Q364 727 419 710T511 669L481 584Q450 608 402 625T310 642Q253 642 210 613T167 528Q167 491 185 468T232 431T312 400Q379 377 421 356T494 297T524 196Q524 127 490 78T401 5T286 -19Q223 -19 161 1T57 53L76 146Q119 109 173 88T280 67Q340 67 381 97T422 184Q422 222 401 246T349 285T258 320T159 362T92 423T66 522Q66 589 100 635T190 704T308 727ZM341 908H445L314 764H238Z" horiz-adv-x="579" unicode="Ś"/>
			<glyph d="M227 494Q276 494 319 479T390 443L353 377Q328 396 296 409T233 422Q196 422 171 405T146 357Q146 327 169 311T254 278Q327 256 365 223T404 134Q404 85 378 51T312 2T225 -14Q172 -14 123 0T46 36L60 114Q132 59 216 59Q256 59 283 77T311 130Q311 160 284 178T193 215Q127 234 91 264T55 352Q55 398 80 430T145 478T227 494ZM272 712H376L245 568H169Z" horiz-adv-x="447" unicode="ś"/>
			<glyph d="M308 727Q364 727 419 710T511 669L481 584Q450 608 402 625T310 642Q253 642 210 613T167 528Q167 491 185 468T232 431T312 400Q379 377 421 356T494 297T524 196Q524 127 490 78T401 5T286 -19Q223 -19 161 1T57 53L76 146Q119 109 173 88T280 67Q340 67 381 97T422 184Q422 222 401 246T349 285T258 320T159 362T92 423T66 522Q66 589 100 635T190 704T308 727ZM263 908H357L470 764H389L309 868L229 764H149Z" horiz-adv-x="579" unicode="Ŝ"/>
			<glyph d="M227 494Q276 494 319 479T390 443L353 377Q328 396 296 409T233 422Q196 422 171 405T146 357Q146 327 169 311T254 278Q327 256 365 223T404 134Q404 85 378 51T312 2T225 -14Q172 -14 123 0T46 36L60 114Q132 59 216 59Q256 59 283 77T311 130Q311 160 284 178T193 215Q127 234 91 264T55 352Q55 398 80 430T145 478T227 494ZM185 712H279L392 568H311L231 672L151 568H71Z" horiz-adv-x="447" unicode="ŝ"/>
			<glyph d="M308 727Q364 727 419 710T511 669L481 584Q450 608 402 625T310 642Q253 642 210 613T167 528Q167 491 185 468T232 431T312 400Q379 377 421 356T494 297T524 196Q524 132 495 86T419 14T316 -17L277 -72Q293 -68 311 -68Q350 -68 377 -85T404 -144Q404 -191 364 -212T274 -233Q249 -233 220 -227T170 -211L187 -170Q205 -179 227 -183T270 -188Q297 -188 317 -178T337 -143Q337 -122 320 -113T280 -105Q268 -105 253 -107T229 -114L207 -95L261 -18Q203 -14 149 5T57 53L76 146Q119 109 173 88T280 67Q340 67 381 97T422 184Q422 222 401 246T349 285T258 320T159 362T92 423T66 522Q66 589 100 635T190 704T308 727Z" horiz-adv-x="579" unicode="Ş"/>
			<glyph d="M227 494Q276 494 319 479T390 443L353 377Q328 396 296 409T233 422Q196 422 171 405T146 357Q146 327 169 311T254 278Q327 256 365 223T404 134Q404 69 360 32T253 -12L211 -72Q227 -68 245 -68Q284 -68 311 -85T338 -144Q338 -191 298 -212T208 -233Q183 -233 154 -227T104 -211L121 -170Q139 -179 161 -183T204 -188Q231 -188 251 -178T271 -143Q271 -122 254 -113T214 -105Q202 -105 187 -107T163 -114L141 -95L199 -13Q152 -9 111 4T46 36L60 114Q132 59 216 59Q256 59 283 77T311 130Q311 160 284 178T193 215Q127 234 91 264T55 352Q55 398 80 430T145 478T227 494Z" horiz-adv-x="447" unicode="ş"/>
			<glyph d="M308 727Q364 727 419 710T511 669L481 584Q450 608 402 625T310 642Q253 642 210 613T167 528Q167 491 185 468T232 431T312 400Q379 377 421 356T494 297T524 196Q524 127 490 78T401 5T286 -19Q223 -19 161 1T57 53L76 146Q119 109 173 88T280 67Q340 67 381 97T422 184Q422 222 401 246T349 285T258 320T159 362T92 423T66 522Q66 589 100 635T190 704T308 727ZM148 908H229L309 804L389 908H469L355 764H262Z" horiz-adv-x="579" unicode="Š"/>
			<glyph d="M227 494Q276 494 319 479T390 443L353 377Q328 396 296 409T233 422Q196 422 171 405T146 357Q146 327 169 311T254 278Q327 256 365 223T404 134Q404 85 378 51T312 2T225 -14Q172 -14 123 0T46 36L60 114Q132 59 216 59Q256 59 283 77T311 130Q311 160 284 178T193 215Q127 234 91 264T55 352Q55 398 80 430T145 478T227 494ZM70 712H151L231 608L311 712H391L277 568H184Z" horiz-adv-x="447" unicode="š"/>
			<glyph d="M16 708H543L528 621H322V0H221V621H1ZM235 -45H325L250 -235H175Z" horiz-adv-x="543" unicode="Ţ"/>
			<glyph d="M184 612V479H317L302 405H184V145Q184 66 248 66Q281 66 319 85L331 15Q277 -11 216 -11Q154 -11 121 26T89 132V405H3L18 479H88V587ZM165 -45H255L180 -235H105Z" horiz-adv-x="342" unicode="ţ"/>
			<glyph d="M16 708H543L528 621H322V0H221V621H1ZM122 908H203L283 804L363 908H443L329 764H236Z" horiz-adv-x="543" unicode="Ť"/>
			<glyph d="M184 612V479H317L302 405H184V145Q184 66 248 66Q281 66 319 85L331 15Q277 -11 216 -11Q154 -11 121 26T89 132V405H3L18 479H88V587ZM308 731H398L323 541H248Z" horiz-adv-x="372" unicode="ť"/>
			<glyph d="M16 708H543L528 621H322V512H475V455H322V0H221V455H69V512H221V621H1Z" horiz-adv-x="543" unicode="Ŧ"/>
			<glyph d="M189 612V479H322L307 405H189V296H235L303 253L257 239H189V145Q189 66 253 66Q286 66 324 85L336 15Q282 -11 221 -11Q159 -11 126 26T94 132V239H79L27 282L94 290V405H8L23 479H93V587Z" horiz-adv-x="347" unicode="ŧ"/>
			<glyph d="M81 708H182V276Q182 191 224 131T366 72Q465 72 507 131T550 276V708H651V267Q651 186 619 121T523 18T365 -19Q271 -19 207 18T112 121T81 267ZM479 884H526Q520 837 497 808T436 780Q403 780 363 802Q342 814 328 819T301 824Q268 824 258 778H211Q217 825 239 854T300 883Q332 883 373 861Q396 849 409 844T436 839Q455 839 464 850T479 884Z" horiz-adv-x="731" unicode="Ũ"/>
			<glyph d="M76 479H174V209Q174 147 198 107T281 67Q339 67 376 112T413 233V479H510V102Q510 51 517 0L423 -1Q417 31 415 89Q395 43 349 15T251 -13Q161 -13 118 44T76 186ZM405 688H452Q446 640 423 611T362 583Q330 583 289 606Q268 618 254 623T227 628Q195 628 184 582H137Q143 629 165 658T226 687Q258 687 299 665Q322 652 335 647T362 642Q380 642 390 653T405 688Z" horiz-adv-x="594" unicode="ũ"/>
			<glyph d="M81 708H182V276Q182 191 224 131T366 72Q465 72 507 131T550 276V708H651V267Q651 186 619 121T523 18T365 -19Q271 -19 207 18T112 121T81 267ZM224 861H512V805H224Z" horiz-adv-x="731" unicode="Ū"/>
			<glyph d="M76 479H174V209Q174 147 198 107T281 67Q339 67 376 112T413 233V479H510V102Q510 51 517 0L423 -1Q417 31 415 89Q395 43 349 15T251 -13Q161 -13 118 44T76 186ZM148 665H436V608H148Z" horiz-adv-x="594" unicode="ū"/>
			<glyph d="M81 708H182V276Q182 191 224 131T366 72Q465 72 507 131T550 276V708H651V267Q651 186 619 121T523 18T365 -19Q271 -19 207 18T112 121T81 267ZM214 904H268Q275 865 301 846T366 827Q406 827 431 845T465 904H518Q511 837 470 803T365 769Q302 769 261 803T214 904Z" horiz-adv-x="731" unicode="Ŭ"/>
			<glyph d="M76 479H174V209Q174 147 198 107T281 67Q339 67 376 112T413 233V479H510V102Q510 51 517 0L423 -1Q417 31 415 89Q395 43 349 15T251 -13Q161 -13 118 44T76 186ZM140 708H194Q201 669 227 650T292 631Q332 631 357 649T391 708H444Q437 641 396 607T291 573Q228 573 187 607T140 708Z" horiz-adv-x="594" unicode="ŭ"/>
			<glyph d="M81 708H182V276Q182 191 224 131T366 72Q465 72 507 131T550 276V708H651V267Q651 186 619 121T523 18T365 -19Q271 -19 207 18T112 121T81 267ZM369 954Q411 954 441 924T472 853Q472 810 442 781T369 752Q327 752 297 781T267 852Q267 895 297 924T369 954ZM369 918Q341 918 322 899T304 852Q304 825 323 806T369 788Q397 788 416 806T435 853Q435 881 416 899T369 918Z" horiz-adv-x="731" unicode="Ů"/>
			<glyph d="M76 479H174V209Q174 147 198 107T281 67Q339 67 376 112T413 233V479H510V102Q510 51 517 0L423 -1Q417 31 415 89Q395 43 349 15T251 -13Q161 -13 118 44T76 186ZM293 757Q335 757 365 728T396 657Q396 614 366 585T293 556Q251 556 221 585T191 656Q191 699 221 728T293 757ZM293 722Q265 722 246 703T228 656Q228 629 247 610T293 591Q321 591 340 610T359 657Q359 684 340 703T293 722Z" horiz-adv-x="594" unicode="ů"/>
			<glyph d="M81 708H182V276Q182 191 224 131T366 72Q465 72 507 131T550 276V708H651V267Q651 186 619 121T523 18T365 -19Q271 -19 207 18T112 121T81 267ZM410 908H550L418 763H308Z" horiz-adv-x="731" unicode="Ű"/>
			<glyph d="M76 479H174V209Q174 147 198 107T281 67Q339 67 376 112T413 233V479H510V102Q510 51 517 0L423 -1Q417 31 415 89Q395 43 349 15T251 -13Q161 -13 118 44T76 186ZM325 712H465L333 567H223Z" horiz-adv-x="594" unicode="ű"/>
			<glyph d="M81 708H182V276Q182 191 224 131T366 72Q465 72 507 131T550 276V708H651V267Q651 158 594 81T430 -14Q393 -49 374 -75T356 -127Q356 -148 370 -161T405 -175Q420 -175 436 -168T464 -151L486 -193Q466 -209 440 -219T387 -229Q346 -229 317 -206T288 -143Q288 -86 363 -19Q269 -19 206 19T112 121T81 267Z" horiz-adv-x="731" unicode="Ų"/>
			<glyph d="M76 479H174V209Q174 147 198 107T281 67Q339 67 376 112T413 233V479H510V102Q510 51 517 0H500Q456 -39 433 -69T411 -127Q411 -149 424 -162T460 -175Q475 -175 491 -168T519 -151L541 -193Q521 -209 494 -219T442 -229Q401 -229 372 -206T343 -143Q343 -106 369 -70T439 0L423 -1Q417 31 415 89Q395 43 349 15T251 -13Q161 -13 118 44T76 186Z" horiz-adv-x="594" unicode="ų"/>
			<glyph d="M13 708H121L276 136H279L440 708H551L715 136H717L874 708H979L772 0H666L496 575H494L326 0H219ZM450 908H544L657 764H576L496 868L416 764H336Z" horiz-adv-x="992" unicode="Ŵ"/>
			<glyph d="M17 479H121L226 109H228L345 479H445L563 109H565L671 479H772L616 0H515L394 366H392L272 0H171ZM349 712H443L556 568H475L395 672L315 568H235Z" horiz-adv-x="788" unicode="ŵ"/>
			<glyph d="M-4 708H119L308 392L497 708H615L355 304V0H253V304ZM261 908H355L468 764H387L307 868L227 764H147Z" horiz-adv-x="611" unicode="Ŷ"/>
			<glyph d="M11 479H119L265 104L390 479H493L283 -84Q255 -161 208 -196T85 -240L55 -158Q108 -151 139 -130T189 -68L215 1ZM213 712H307L420 568H339L259 672L179 568H99Z" horiz-adv-x="504" unicode="ŷ"/>
			<glyph d="M-4 708H119L308 392L497 708H615L355 304V0H253V304ZM213 909Q236 909 253 892T270 853Q270 829 253 812T213 796Q190 796 173 812T157 853Q157 876 173 892T213 909ZM404 909Q427 909 443 892T460 853Q460 829 443 812T404 796Q380 796 363 812T347 853Q347 876 363 892T404 909Z" horiz-adv-x="611" unicode="Ÿ"/>
			<glyph d="M63 708H553V622L163 88H587L572 0H43V90L430 621H63ZM361 908H465L334 764H258Z" horiz-adv-x="610" unicode="Ź"/>
			<glyph d="M56 479H424V405L154 77H443L429 0H39V76L307 403H41ZM278 712H382L251 568H175Z" horiz-adv-x="474" unicode="ź"/>
			<glyph d="M63 708H553V622L163 88H587L572 0H43V90L430 621H63ZM313 910Q338 910 355 893T372 853Q372 828 354 811T313 795Q289 795 272 811T255 853Q255 876 272 893T313 910Z" horiz-adv-x="610" unicode="Ż"/>
			<glyph d="M56 479H424V405L154 77H443L429 0H39V76L307 403H41ZM240 714Q265 714 282 697T299 656Q299 632 281 615T240 599Q216 599 199 615T182 656Q182 680 199 697T240 714Z" horiz-adv-x="474" unicode="ż"/>
			<glyph d="M63 708H553V622L163 88H587L572 0H43V90L430 621H63ZM148 908H229L309 804L389 908H469L355 764H262Z" horiz-adv-x="610" unicode="Ž"/>
			<glyph d="M56 479H424V405L154 77H443L429 0H39V76L307 403H41ZM80 712H161L241 608L321 712H401L287 568H194Z" horiz-adv-x="474" unicode="ž"/>
			<glyph d="M446 721Q508 721 551 694L513 622Q485 639 457 639Q417 639 397 611T369 540L347 423H477L463 354H333L270 18Q255 -59 216 -100T104 -141Q53 -141 12 -120L48 -47Q73 -61 98 -61Q137 -61 154 -34T182 45L240 354H123L138 423H253L276 546Q291 626 328 673T446 721Z" horiz-adv-x="604" unicode="ƒ"/>
			<glyph d="M445 708H922L907 621H604V406H891L876 323H604V87H938L923 0H507V220H262L124 0H7ZM499 621L305 303H507V621ZM682 908H786L655 764H579Z" horiz-adv-x="983" unicode="Ǽ"/>
			<glyph d="M268 494Q332 494 373 466T429 394Q456 440 502 467T607 494Q673 494 724 463T803 377T832 248Q832 227 831 217H461Q463 176 482 140T537 83T624 62Q669 62 713 77T789 113L803 40Q726 -14 611 -14Q547 -14 496 17T420 103Q401 49 352 18T224 -13Q154 -13 101 22T49 129Q49 217 129 249T338 281H374V304Q374 362 344 391T259 420Q185 420 113 362L83 428Q118 460 167 477T268 494ZM607 424Q563 424 530 402T480 347T461 282H741Q739 345 703 384T607 424ZM341 219Q247 219 193 201T140 132Q140 92 170 74T241 56Q308 56 342 93T376 189V219ZM502 712H606L475 568H399Z" horiz-adv-x="882" unicode="ǽ"/>
			<glyph d="M729 745L772 707L695 621Q746 570 773 503T800 355Q800 247 751 162T616 29T424 -19Q355 -19 295 1T189 59L110 -28L67 10L146 97Q100 146 74 212T49 355Q49 464 97 548T231 680T424 727Q554 727 651 658ZM424 639Q344 639 282 601T186 498T153 354Q153 243 215 172L586 587Q554 612 513 625T424 639ZM627 546L254 129Q323 70 424 70Q504 70 566 108T661 211T695 355Q695 411 677 460T627 546ZM472 908H576L445 764H369Z" horiz-adv-x="858" unicode="Ǿ"/>
			<glyph d="M536 508L575 471L509 405Q538 374 553 332T568 241Q568 167 534 109T441 18T309 -14Q261 -14 219 0T147 41L76 -29L38 8L107 77Q80 108 65 150T50 241Q50 315 83 372T176 462T309 495Q403 495 470 442ZM308 416Q258 416 220 392T162 329T142 243Q142 214 150 188T172 143L409 381Q390 398 364 407T308 416ZM442 343L205 104Q224 86 251 75T309 65Q359 65 397 88T455 152T475 240Q475 269 466 296T442 343ZM355 712H459L328 568H252Z" horiz-adv-x="619" unicode="ǿ"/>
			<glyph d="M308 727Q364 727 419 710T511 669L481 584Q450 608 402 625T310 642Q253 642 210 613T167 528Q167 491 185 468T232 431T312 400Q379 377 421 356T494 297T524 196Q524 127 490 78T401 5T286 -19Q223 -19 161 1T57 53L76 146Q119 109 173 88T280 67Q340 67 381 97T422 184Q422 222 401 246T349 285T258 320T159 362T92 423T66 522Q66 589 100 635T190 704T308 727ZM251 -45H341L266 -235H191Z" horiz-adv-x="579" unicode="Ș"/>
			<glyph d="M227 494Q276 494 319 479T390 443L353 377Q328 396 296 409T233 422Q196 422 171 405T146 357Q146 327 169 311T254 278Q327 256 365 223T404 134Q404 85 378 51T312 2T225 -14Q172 -14 123 0T46 36L60 114Q132 59 216 59Q256 59 283 77T311 130Q311 160 284 178T193 215Q127 234 91 264T55 352Q55 398 80 430T145 478T227 494ZM182 -45H272L197 -235H122Z" horiz-adv-x="447" unicode="ș"/>
			<glyph d="M16 708H543L528 621H322V0H221V621H1ZM233 -45H323L248 -235H173Z" horiz-adv-x="543" unicode="Ț"/>
			<glyph d="M184 612V479H317L302 405H184V145Q184 66 248 66Q281 66 319 85L331 15Q277 -11 216 -11Q154 -11 121 26T89 132V405H3L18 479H88V587ZM165 -45H255L180 -235H105Z" horiz-adv-x="347" unicode="ț"/>
			<glyph d="M85 479H182V-56Q182 -144 148 -192T25 -241Q-4 -241 -28 -234L-20 -153Q-2 -158 13 -158Q56 -158 70 -131T85 -55Z" horiz-adv-x="265" unicode="ȷ"/>
			<glyph d="M88 712H182L295 568H214L134 672L54 568H-26Z" horiz-adv-x="269" unicode="ˆ"/>
			<glyph d="M-26 712H55L135 608L215 712H295L181 568H88Z" horiz-adv-x="269" unicode="ˇ"/>
			<glyph d="M-10 861H278V804H-10Z" horiz-adv-x="269" unicode="ˉ"/>
			<glyph d="M-18 708H36Q43 669 69 650T134 631Q174 631 199 649T233 708H286Q279 641 238 607T133 573Q70 573 29 607T-18 708Z" horiz-adv-x="269" unicode="˘"/>
			<glyph d="M134 714Q159 714 176 697T193 656Q193 632 175 615T134 599Q110 599 93 615T76 656Q76 680 93 697T134 714Z" horiz-adv-x="269" unicode="˙"/>
			<glyph d="M134 757Q176 757 206 728T237 657Q237 614 207 585T134 556Q92 556 62 585T32 656Q32 699 62 728T134 757ZM134 722Q106 722 87 703T69 656Q69 629 88 610T134 591Q162 591 181 610T200 657Q200 684 181 703T134 722Z" horiz-adv-x="269" unicode="˚"/>
			<glyph d="M124 2H184Q138 -39 115 -69T92 -127Q92 -149 106 -162T142 -175Q157 -175 173 -168T201 -151L223 -193Q203 -209 176 -219T124 -229Q83 -229 54 -206T25 -143Q25 -105 52 -69T124 2Z" horiz-adv-x="269" unicode="˛"/>
			<glyph d="M245 688H292Q286 640 263 611T202 583Q170 583 129 606Q108 618 94 623T67 628Q35 628 24 582H-23Q-17 629 5 658T66 687Q98 687 139 665Q162 652 175 647T202 642Q220 642 230 653T245 688Z" horiz-adv-x="269" unicode="˜"/>
			<glyph d="M161 712H301L169 567H59Z" horiz-adv-x="269" unicode="˝"/>
			<glyph d="M-163 -45H-73L-148 -235H-223Z" horiz-adv-x="0" unicode="̦"/>
			<glyph d="M123 733H230L146 544H75Z" horiz-adv-x="228" unicode="ʹ"/>
			<glyph d="M160 22H230L182 -166H75Z" horiz-adv-x="228" unicode="͵"/>
			<glyph d="M256 711H378L623 58V0H10V59ZM316 631Q302 581 285 537L118 82H514L349 533Q324 601 316 631Z" horiz-adv-x="669" unicode="Δ"/>
			<glyph d="M391 720Q490 720 565 681T682 570T724 398Q724 184 543 83H750V0H450V91Q536 142 575 211T615 388Q615 467 586 523T506 608T391 637Q327 637 276 607T196 521T167 387Q167 280 207 212T331 91V0H33V83H238Q153 131 105 211T58 398Q58 495 100 568T217 680T391 720Z" horiz-adv-x="764" unicode="Ω"/>
			<glyph d="M79 479H181V213Q181 76 304 76Q378 76 410 123T442 262V479H545V0H466L452 84H447Q428 40 391 15T303 -10Q213 -10 180 52H178Q181 12 181 -50V-240H79Z" horiz-adv-x="624" unicode="μ"/>
			<glyph d="M103 479H653V402H537V136Q537 67 592 67Q622 67 649 78V10Q632 2 607 -4T556 -10Q493 -10 463 25T434 130V402H232V0H129V402H12V450Z" horiz-adv-x="685" unicode="π"/>
			<glyph d="M13 708H121L276 136H279L440 708H551L715 136H717L874 708H979L772 0H666L496 575H494L326 0H219ZM335 908H439L542 764H466Z" horiz-adv-x="992" unicode="Ẁ"/>
			<glyph d="M17 479H121L226 109H228L345 479H445L563 109H565L671 479H772L616 0H515L394 366H392L272 0H171ZM229 712H333L436 568H360Z" horiz-adv-x="788" unicode="ẁ"/>
			<glyph d="M13 708H121L276 136H279L440 708H551L715 136H717L874 708H979L772 0H666L496 575H494L326 0H219ZM553 908H657L526 764H450Z" horiz-adv-x="992" unicode="Ẃ"/>
			<glyph d="M17 479H121L226 109H228L345 479H445L563 109H565L671 479H772L616 0H515L394 366H392L272 0H171ZM457 712H561L430 568H354Z" horiz-adv-x="788" unicode="ẃ"/>
			<glyph d="M13 708H121L276 136H279L440 708H551L715 136H717L874 708H979L772 0H666L496 575H494L326 0H219ZM400 909Q423 909 440 892T457 853Q457 829 440 812T400 796Q377 796 360 812T344 853Q344 876 360 892T400 909ZM591 909Q614 909 630 892T647 853Q647 829 630 812T591 796Q567 796 550 812T534 853Q534 876 550 892T591 909Z" horiz-adv-x="992" unicode="Ẅ"/>
			<glyph d="M17 479H121L226 109H228L345 479H445L563 109H565L671 479H772L616 0H515L394 366H392L272 0H171ZM298 712Q321 712 338 695T355 656Q355 633 338 616T298 600Q275 600 258 616T242 656Q242 679 258 695T298 712ZM489 712Q512 712 528 695T545 656Q545 633 528 616T489 600Q465 600 448 616T432 656Q432 679 449 695T489 712Z" horiz-adv-x="788" unicode="ẅ"/>
			<glyph d="M-4 708H119L308 392L497 708H615L355 304V0H253V304ZM149 908H253L356 764H280Z" horiz-adv-x="611" unicode="Ỳ"/>
			<glyph d="M11 479H119L265 104L390 479H493L283 -84Q255 -161 208 -196T85 -240L55 -158Q108 -151 139 -130T189 -68L215 1ZM96 712H200L303 568H227Z" horiz-adv-x="504" unicode="ỳ"/>
			<glyph d="M46 295H269V217H46Z" horiz-adv-x="316" unicode="‐"/>
			<glyph d="M30 288H370V223H30Z" horiz-adv-x="400" unicode="–"/>
			<glyph d="M30 288H570V223H30Z" horiz-adv-x="600" unicode="—"/>
			<glyph d="M30 288H570V223H30Z" horiz-adv-x="600" unicode="―"/>
			<glyph d="M171 708L204 681Q176 660 152 629T120 563Q144 560 160 542T177 499Q177 472 158 453T112 434Q85 434 66 454T47 508Q47 569 82 620T171 708Z" horiz-adv-x="274" unicode="‘"/>
			<glyph d="M139 708Q166 708 185 687T204 634Q204 573 168 522T80 434L47 461Q75 483 98 513T130 579Q106 582 89 600T73 643Q73 670 92 689T139 708Z" horiz-adv-x="274" unicode="’"/>
			<glyph d="M136 137Q164 137 182 116T201 61Q201 0 166 -50T78 -137L45 -110Q73 -88 96 -57T128 8Q104 11 87 29T71 72Q71 99 90 118T136 137Z" horiz-adv-x="272" unicode="‚"/>
			<glyph d="M168 708L201 681Q173 659 150 628T118 563Q142 560 158 542T175 499Q175 472 156 453T110 434Q82 434 63 454T45 508Q45 569 80 620T168 708ZM370 708L403 681Q375 659 351 628T319 563Q343 560 359 542T376 499Q376 472 357 453T311 434Q284 434 265 454T246 508Q246 569 281 620T370 708Z" horiz-adv-x="473" unicode="“"/>
			<glyph d="M139 708Q166 708 185 687T204 634Q204 573 168 522T80 434L47 461Q75 483 98 513T130 579Q106 582 89 600T73 643Q73 670 92 689T139 708ZM340 708Q367 708 386 687T405 634Q405 573 370 522T282 434L248 461Q276 482 299 513T332 579Q308 582 291 600T275 643Q275 670 294 689T340 708Z" horiz-adv-x="476" unicode="”"/>
			<glyph d="M136 137Q164 137 182 117T201 63Q201 2 166 -49T78 -137L45 -110Q73 -88 96 -57T128 8Q104 11 87 29T71 72Q71 99 90 118T136 137ZM338 137Q365 137 384 116T403 63Q403 2 367 -49T279 -137L246 -110Q274 -88 297 -57T329 8Q305 11 288 29T272 72Q272 99 291 118T338 137Z" horiz-adv-x="473" unicode="„"/>
			<glyph d="M239 708H326V504H521V428H326V-127H239V428H44V504H239Z" horiz-adv-x="565" unicode="†"/>
			<glyph d="M239 708H326V517H518V441H326V140H518V64H326V-127H240V64H48V140H240V441H48V517H239Z" horiz-adv-x="565" unicode="‡"/>
			<glyph d="M250 531Q298 531 338 507T403 442T427 354Q427 306 403 265T338 201T250 177Q202 177 161 201T97 265T73 354Q73 402 97 442T161 507T250 531Z" horiz-adv-x="500" unicode="•"/>
			<glyph d="M166 122Q193 122 212 103T231 57Q231 29 212 10T166 -8Q139 -8 120 11T101 57Q101 83 120 102T166 122ZM501 122Q527 122 546 103T565 57Q565 30 546 11T501 -8Q474 -8 454 11T435 57Q435 84 454 103T501 122ZM834 122Q860 122 879 103T899 57Q899 30 880 11T834 -8Q807 -8 787 11T768 57Q768 84 787 103T834 122Z" horiz-adv-x="1000" unicode="…"/>
			<glyph d="M549 738L605 711L188 -29L132 -2ZM199 719Q243 719 280 697T340 638T362 556Q362 511 340 474T280 415T199 393Q155 393 117 414T58 473T36 556Q36 601 58 638T117 697T199 719ZM199 654Q159 654 131 625T103 556Q103 515 130 487T199 459Q239 459 267 487T295 556Q295 597 267 625T199 654ZM550 317Q594 317 632 295T692 235T714 153Q714 109 692 71T632 12T550 -9Q506 -9 468 12T409 71T387 153Q387 198 409 235T468 295T550 317ZM920 317Q964 317 1002 295T1062 235T1084 153Q1084 109 1062 71T1002 12T920 -9Q876 -9 838 12T779 71T757 153Q757 198 779 235T838 295T920 317ZM550 251Q509 251 482 223T455 153Q455 112 482 84T550 56Q590 56 618 84T646 153Q646 195 618 223T550 251ZM920 251Q880 251 852 223T825 153Q825 112 852 84T920 56Q961 56 988 84T1016 153Q1016 195 988 223T920 251Z" horiz-adv-x="1117" unicode="‰"/>
			<glyph d="M194 461L254 421L140 246L255 70L195 30L51 246Z" horiz-adv-x="316" unicode="‹"/>
			<glyph d="M122 461L265 245L122 30L62 70L177 245L61 421Z" horiz-adv-x="316" unicode="›"/>
			<glyph d="M253 725Q310 725 357 704T432 643T460 546Q460 505 447 474T415 421T361 366Q317 326 303 300T290 228V211H197V529H278L276 404Q309 437 324 454T349 493T359 541Q359 586 326 613T243 640Q195 640 153 617T82 562L36 635Q122 725 253 725ZM246 118Q272 118 290 99T309 55Q309 29 291 10T246 -8Q220 -8 201 10T182 55Q182 81 201 99T246 118Z" horiz-adv-x="509" unicode="‽"/>
			<glyph d="M221 738L277 711L-140 -29L-196 -2Z" horiz-adv-x="100" unicode="⁄"/>
			<glyph d="M194 886Q276 886 311 822T347 663Q347 568 311 504T194 440Q111 440 75 504T39 663Q39 759 75 822T194 886ZM194 824Q148 824 130 775T113 663Q113 600 130 551T194 502Q239 502 256 551T274 663Q274 726 256 775T194 824Z" unicode="⁰"/>
			<glyph d="M209 877H294V603H360L345 543H294V449H227V543H31V604ZM225 796L101 603H227V796Z" unicode="⁴"/>
			<glyph d="M83 877H323L313 814H145L142 717Q168 725 195 725Q259 725 299 687T340 587Q340 518 296 479T189 440Q92 440 43 489L61 553Q111 501 183 501Q221 501 245 523T269 584Q269 623 244 645T175 668Q154 668 127 662T77 646Z" unicode="⁵"/>
			<glyph d="M239 880Q286 880 318 865L303 810Q286 816 272 819T238 823Q186 823 152 782T115 668H117Q132 687 157 698T211 709Q267 709 304 672T342 578Q342 515 303 477T200 440Q131 440 86 488T42 628Q42 744 93 812T239 880ZM195 658Q160 658 136 636T112 583Q112 549 135 522T195 496Q231 496 252 518T273 577Q273 611 250 634T195 658Z" unicode="⁶"/>
			<glyph d="M63 877H336V821L169 449H86L258 814H48Z" unicode="⁷"/>
			<glyph d="M194 886Q250 886 289 854T328 770Q328 740 312 715T268 677V675Q302 662 321 633T341 569Q341 509 298 474T194 440Q131 440 88 474T46 569Q46 605 66 633T120 675V677Q91 690 75 714T59 769Q59 822 98 854T194 886ZM194 828Q166 828 147 810T129 766Q129 739 147 720T194 702Q221 702 239 721T258 766Q258 793 239 810T194 828ZM194 646Q161 646 138 624T116 572Q116 540 138 519T194 499Q228 499 249 519T271 572Q271 603 248 624T194 646Z" unicode="⁸"/>
			<glyph d="M185 880Q254 880 298 831T343 692Q343 576 291 508T146 440Q99 440 67 455L82 510Q99 504 113 500T147 497Q200 497 233 538T270 652H268Q253 632 228 621T174 610Q118 610 80 647T43 742Q43 805 82 842T185 880ZM190 824Q154 824 133 801T112 743Q112 709 134 685T190 662Q225 662 249 683T273 737Q273 771 250 797T190 824Z" unicode="⁹"/>
			<glyph d="M170 655H217V526H345V481H217V352H171V481H42V526H170Z" unicode="⁺"/>
			<glyph d="M45 524H341V480H45Z" unicode="⁻"/>
			<glyph d="M45 583H341V539H45ZM45 480H341V436H45Z" horiz-adv-x="388" unicode="⁼"/>
			<glyph d="M160 841L212 807Q166 743 139 660T113 496Q113 414 139 331T212 184L160 150Q107 223 78 313T49 496Q49 587 78 677T160 841Z" horiz-adv-x="277" unicode="⁽"/>
			<glyph d="M102 851Q154 777 183 686T212 505Q212 414 183 323T102 159L50 193Q96 258 122 341T149 505Q149 586 122 669T50 816Z" horiz-adv-x="273" unicode="⁾"/>
			<glyph d="M194 296Q276 296 311 232T347 73Q347 -22 311 -86T194 -150Q111 -150 75 -86T39 73Q39 169 75 232T194 296ZM194 234Q148 234 130 185T113 73Q113 10 130 -39T194 -88Q239 -88 256 -39T274 73Q274 136 256 185T194 234Z" unicode="₀"/>
			<glyph d="M185 287H252V-141H178V205L88 137L62 198Z" unicode="₁"/>
			<glyph d="M184 296Q243 296 281 264T319 179Q319 139 300 107T241 35L128 -78H335L320 -141H35V-85L197 81Q222 108 233 129T244 171Q244 200 224 216T173 233Q120 233 70 179L40 235Q97 296 184 296Z" unicode="₂"/>
			<glyph d="M179 296Q238 296 275 266T313 182Q313 148 294 122T243 84Q281 75 303 47T325 -21Q325 -83 281 -116T178 -150Q134 -150 98 -138T39 -107L59 -46Q76 -63 109 -76T173 -89Q210 -89 231 -70T253 -18Q253 18 225 35T157 53H130V108H158Q196 108 218 126T241 177Q241 205 222 220T173 236Q144 236 118 224T76 196L50 249Q102 296 179 296Z" unicode="₃"/>
			<glyph d="M209 287H294V13H360L345 -47H294V-141H227V-47H31V14ZM225 206L101 13H227V206Z" unicode="₄"/>
			<glyph d="M83 287H323L313 224H145L142 127Q168 135 195 135Q259 135 299 97T340 -3Q340 -72 296 -111T189 -150Q92 -150 43 -101L61 -37Q111 -89 183 -89Q221 -89 245 -67T269 -6Q269 33 244 55T175 78Q154 78 127 72T77 56Z" unicode="₅"/>
			<glyph d="M239 290Q286 290 318 275L303 220Q286 226 272 229T238 233Q186 233 152 192T115 78H117Q132 97 157 108T211 119Q267 119 304 82T342 -12Q342 -75 303 -112T200 -150Q131 -150 86 -101T42 38Q42 154 93 222T239 290ZM195 68Q160 68 136 46T112 -7Q112 -41 135 -67T195 -94Q231 -94 252 -71T273 -13Q273 21 250 44T195 68Z" unicode="₆"/>
			<glyph d="M63 287H336V231L169 -141H86L258 224H48Z" unicode="₇"/>
			<glyph d="M194 296Q250 296 289 264T328 180Q328 150 312 125T268 87V85Q302 72 321 43T341 -21Q341 -81 298 -115T194 -150Q131 -150 88 -115T46 -21Q46 15 66 43T120 85V87Q91 100 75 124T59 179Q59 232 98 264T194 296ZM194 238Q166 238 147 220T129 176Q129 149 147 130T194 112Q221 112 239 131T258 176Q258 203 239 220T194 238ZM194 56Q161 56 138 34T116 -18Q116 -50 138 -70T194 -91Q228 -91 249 -70T271 -18Q271 13 248 34T194 56Z" unicode="₈"/>
			<glyph d="M185 290Q254 290 298 241T343 102Q343 -14 291 -82T146 -150Q99 -150 67 -135L82 -80Q99 -86 113 -89T147 -93Q200 -93 233 -52T270 62H268Q253 42 228 31T174 20Q118 20 80 57T43 152Q43 215 82 252T185 290ZM190 234Q154 234 133 211T112 153Q112 119 134 95T190 72Q225 72 249 93T273 147Q273 181 250 207T190 234Z" unicode="₉"/>
			<glyph d="M170 374H217V245H345V200H217V71H171V200H42V245H170Z" unicode="₊"/>
			<glyph d="M45 244H341V200H45Z" unicode="₋"/>
			<glyph d="M46 296H342V252H46ZM46 193H342V149H46Z" horiz-adv-x="388" unicode="₌"/>
			<glyph d="M160 556L212 522Q166 458 139 375T113 211Q113 129 139 46T212 -101L160 -135Q107 -62 78 28T49 211Q49 302 78 392T160 556Z" horiz-adv-x="277" unicode="₍"/>
			<glyph d="M102 567Q154 493 183 402T212 221Q212 130 183 39T102 -125L50 -91Q96 -26 122 57T149 221Q149 302 122 385T50 532Z" horiz-adv-x="273" unicode="₎"/>
			<glyph d="M412 727Q454 727 496 718T566 696L535 619Q485 646 409 646Q335 646 279 600T202 472H499L477 407H187Q183 386 183 350Q183 316 185 302H447L426 237H197Q212 159 269 111T405 63Q487 63 542 100L568 24Q538 3 493 -8T396 -19Q316 -19 254 14T153 106T99 237H19L42 302H91Q89 330 89 351Q89 386 93 407H22L44 472H102Q132 593 214 660T412 727Z" horiz-adv-x="604" unicode="€"/>
			<glyph d="M616 738L673 709L242 -31L185 -2ZM218 722Q254 722 286 712T342 686L317 621Q299 636 273 645T219 655Q174 655 147 624T120 546Q120 501 149 469T225 438Q278 438 318 471L342 410Q318 392 286 381T220 371Q169 371 128 393T65 454T42 546Q42 598 65 638T128 700T218 722ZM652 339Q702 339 742 317T806 255T830 165Q830 113 806 72T742 10T652 -12Q602 -12 561 10T498 72T475 165Q475 216 498 255T561 317T652 339ZM652 273Q605 273 578 241T551 165Q551 119 578 87T652 55Q699 55 726 87T754 165Q754 210 726 241T652 273Z" horiz-adv-x="872" unicode="℅"/>
			<glyph d="M291 721Q347 721 380 684T414 585Q414 512 370 434T237 271V135Q237 92 257 73T307 55Q350 55 395 93H397L429 45Q363 -14 285 -14Q221 -14 183 21T146 120V210L88 153H86L53 203L145 287V539Q145 593 164 634T216 698T291 721ZM291 658Q268 658 252 631T237 555V351Q287 408 313 467T339 579Q339 614 325 636T291 658Z" horiz-adv-x="500" unicode="ℓ"/>
			<glyph d="M401 730Q504 730 591 679T729 542T780 353Q780 250 729 164T591 28T401 -22Q298 -22 210 28T71 164T20 353Q20 456 71 542T210 679T401 730ZM401 686Q310 686 233 641T111 519T66 353Q66 263 111 187T232 66T400 22Q490 22 567 66T689 187T734 353Q734 443 689 519T567 641T401 686ZM277 568H439Q512 568 557 533T603 429Q603 361 558 323T442 286H352V127H277ZM352 506V348H440Q481 348 504 369T528 428Q528 466 503 486T439 506Z" horiz-adv-x="800" unicode="℗"/>
			<glyph d="M72 708H395L385 647H263V296H193V647H62ZM478 708H578L701 397L824 708H924V296H856V617H854L724 296H676L547 617H545V296H478Z" horiz-adv-x="1000" unicode="™"/>
			<glyph d="M391 720Q490 720 565 681T682 570T724 398Q724 184 543 83H750V0H450V91Q536 142 575 211T615 388Q615 467 586 523T506 608T391 637Q327 637 276 607T196 521T167 387Q167 280 207 212T331 91V0H33V83H238Q153 131 105 211T58 398Q58 495 100 568T217 680T391 720Z" horiz-adv-x="764" unicode="Ω"/>
			<glyph d="M302 535Q378 535 436 500T528 402T561 259H157V78Q216 19 302 19Q365 19 411 47T495 139L530 118Q484 46 432 14T302 -17Q225 -17 166 19T76 119T44 259Q44 336 76 399T166 498T302 535ZM301 500Q217 500 157 440V295H448V440Q385 500 301 500Z" horiz-adv-x="555" unicode="℮"/>
			<glyph d="M608 738L663 711L247 -29L191 -2ZM182 708H248V280H175V626L84 558L58 619ZM660 437Q719 437 756 407T794 323Q794 289 775 263T724 225Q762 216 784 188T806 120Q806 58 762 24T659 -9Q615 -9 579 2T520 34L540 95Q557 78 590 65T654 52Q691 52 712 70T734 123Q734 159 706 176T638 194H611V249H639Q677 249 699 267T722 318Q722 346 703 361T654 377Q625 377 599 365T557 337L531 390Q583 437 660 437Z" horiz-adv-x="873" unicode="⅓"/>
			<glyph d="M608 738L663 711L247 -29L191 -2ZM184 717Q243 717 281 685T319 600Q319 560 300 528T241 456L128 343H335L320 280H35V336L197 502Q222 529 233 550T244 592Q244 621 224 637T173 654Q120 654 70 600L40 656Q97 717 184 717ZM660 437Q719 437 756 407T794 323Q794 289 775 263T724 225Q762 216 784 188T806 120Q806 58 762 24T659 -9Q615 -9 579 2T520 34L540 95Q557 78 590 65T654 52Q691 52 712 70T734 123Q734 159 706 176T638 194H611V249H639Q677 249 699 267T722 318Q722 346 703 361T654 377Q625 377 599 365T557 337L531 390Q583 437 660 437Z" horiz-adv-x="866" unicode="⅔"/>
			<glyph d="M608 738L663 711L247 -29L191 -2ZM182 708H248V280H175V626L84 558L58 619ZM671 437Q727 437 766 405T805 321Q805 291 789 266T745 228V226Q779 213 798 184T818 120Q818 60 775 25T671 -9Q608 -9 565 25T523 120Q523 156 543 184T597 226V228Q568 241 552 265T536 320Q536 373 575 405T671 437ZM671 379Q643 379 624 361T606 317Q606 290 624 271T671 253Q698 253 716 272T735 317Q735 344 716 361T671 379ZM671 197Q638 197 615 175T593 123Q593 91 615 70T671 50Q705 50 726 70T748 123Q748 154 725 175T671 197Z" horiz-adv-x="878" unicode="⅛"/>
			<glyph d="M589 738L644 711L228 -29L172 -2ZM179 717Q238 717 275 687T313 603Q313 569 294 543T243 505Q281 496 303 468T325 400Q325 338 281 304T178 271Q134 271 98 282T39 314L59 375Q76 358 109 345T173 332Q210 332 231 350T253 403Q253 439 225 456T157 474H130V529H158Q196 529 218 547T241 598Q241 626 222 641T173 657Q144 657 118 645T76 617L50 670Q102 717 179 717ZM639 437Q695 437 734 405T773 321Q773 291 757 266T713 228V226Q747 213 766 184T786 120Q786 60 743 25T639 -9Q576 -9 533 25T491 120Q491 156 511 184T565 226V228Q536 241 520 265T504 320Q504 373 543 405T639 437ZM639 379Q611 379 592 361T574 317Q574 290 592 271T639 253Q666 253 684 272T703 317Q703 344 684 361T639 379ZM639 197Q606 197 583 175T561 123Q561 91 583 70T639 50Q673 50 694 70T716 123Q716 154 693 175T639 197Z" horiz-adv-x="841" unicode="⅜"/>
			<glyph d="M589 738L644 711L228 -29L172 -2ZM73 708H313L303 645H135L132 548Q158 556 185 556Q249 556 289 518T330 418Q330 349 286 310T179 271Q82 271 33 320L51 384Q101 332 173 332Q211 332 235 354T259 415Q259 454 234 476T165 499Q144 499 117 493T67 477ZM639 437Q695 437 734 405T773 321Q773 291 757 266T713 228V226Q747 213 766 184T786 120Q786 60 743 25T639 -9Q576 -9 533 25T491 120Q491 156 511 184T565 226V228Q536 241 520 265T504 320Q504 373 543 405T639 437ZM639 379Q611 379 592 361T574 317Q574 290 592 271T639 253Q666 253 684 272T703 317Q703 344 684 361T639 379ZM639 197Q606 197 583 175T561 123Q561 91 583 70T639 50Q673 50 694 70T716 123Q716 154 693 175T639 197Z" horiz-adv-x="841" unicode="⅝"/>
			<glyph d="M553 738L609 711L192 -29L137 -2ZM63 708H336V652L169 280H86L258 645H48ZM634 437Q690 437 729 405T768 321Q768 291 752 266T708 228V226Q742 213 761 184T781 120Q781 60 738 25T634 -9Q571 -9 528 25T486 120Q486 156 506 184T560 226V228Q531 241 515 265T499 320Q499 373 538 405T634 437ZM634 379Q606 379 587 361T569 317Q569 290 587 271T634 253Q661 253 679 272T698 317Q698 344 679 361T634 379ZM634 197Q601 197 578 175T556 123Q556 91 578 70T634 50Q668 50 689 70T711 123Q711 154 688 175T634 197Z" horiz-adv-x="841" unicode="⅞"/>
			<glyph d="M249 723Q384 723 445 619T507 362Q507 191 449 88T267 -14Q205 -14 156 16T79 99T52 217Q52 282 78 332T152 409T262 436Q306 436 345 417T412 367L413 416Q413 477 394 528T338 609T250 640Q184 640 127 592L80 653Q156 723 249 723ZM273 358Q215 358 182 316T150 214Q150 155 182 110T269 66Q337 66 370 130T406 284Q378 318 344 338T273 358Z" horiz-adv-x="569" unicode="∂"/>
			<glyph d="M256 711H378L623 58V0H10V59ZM316 631Q302 581 285 537L118 82H514L349 533Q324 601 316 631Z" horiz-adv-x="669" unicode="∆"/>
			<glyph d="M73 786H656V-214H565V705H163V-214H73Z" horiz-adv-x="728" unicode="∏"/>
			<glyph d="M46 786H587V705H160L452 291L145 -133H599V-214H33V-144L348 290L46 716Z" horiz-adv-x="629" unicode="∑"/>
			<glyph d="M81 342H585V267H81Z" horiz-adv-x="666" unicode="−"/>
			<glyph d="M221 738L277 711L-140 -29L-196 -2Z" horiz-adv-x="100" unicode="∕"/>
			<glyph d="M136 346Q163 346 182 327T201 282Q201 254 182 235T136 217Q109 217 90 235T71 281Q71 308 90 327T136 346Z" horiz-adv-x="272" unicode="∙"/>
			<glyph d="M440 786H527L316 -215H234L77 117L23 91L-9 160L120 219L260 -83Z" horiz-adv-x="523" unicode="√"/>
			<glyph d="M207 418Q258 418 302 386T393 304Q438 355 483 386T579 418Q648 418 690 372T732 257Q732 187 690 140T579 94Q530 94 484 124T393 204Q344 152 302 123T209 94Q140 94 97 140T54 256Q54 326 96 372T207 418ZM578 346Q546 346 513 322T439 254Q481 210 514 188T580 166Q617 166 638 191T659 255Q659 294 637 320T578 346ZM207 345Q171 345 149 319T127 255Q127 217 149 192T209 167Q241 167 274 189T347 254Q305 298 271 321T207 345Z" horiz-adv-x="780" unicode="∞"/>
			<glyph d="M363 781Q395 781 422 766T449 720Q449 701 436 688T404 675Q390 675 382 682T367 702Q361 712 357 716T346 721Q311 721 311 563V62Q311 -67 281 -138T182 -210Q149 -210 123 -194T97 -148Q97 -131 110 -118T141 -105Q154 -105 162 -112T177 -132Q184 -142 187 -146T198 -150Q214 -150 223 -108T233 -1V483V524Q233 601 240 654T276 744T363 781Z" horiz-adv-x="583" unicode="∫"/>
			<glyph d="M514 439H574Q568 369 532 327T434 285Q405 285 372 294T290 322Q249 337 222 345T174 353Q140 353 121 333T98 282H39Q45 345 78 388T178 431Q207 431 238 422T315 397Q363 381 389 373T441 366Q503 366 514 439ZM514 238H574Q566 174 533 131T434 88Q405 88 371 97T289 125Q245 141 219 148T173 156Q110 156 97 82H38Q44 146 77 190T175 235Q204 235 236 226T314 201Q360 185 388 177T441 169Q474 169 490 187T514 238Z" horiz-adv-x="666" unicode="≈"/>
			<glyph d="M420 564L490 530L432 418H571V340H392L334 224H571V147H293L215 -8L146 27L208 147H74V224H247L306 340H74V418H345Z" horiz-adv-x="666" unicode="≠"/>
			<glyph d="M579 610V528L201 362L579 198V115L87 329V397ZM87 85H579V10H87Z" horiz-adv-x="666" unicode="≤"/>
			<glyph d="M87 610L579 397V329L87 115V198L465 362L87 528ZM87 85H579V10H87Z" horiz-adv-x="666" unicode="≥"/>
			<glyph d="M261 747H336L511 356L336 -35H260L89 356ZM298 660L174 356L298 52L424 356Z" horiz-adv-x="599" unicode="◊"/>
			<glyph d="M0 718H512V0H0ZM50 667V50H462V667ZM259 609Q313 609 348 573T383 478Q383 445 370 418T320 358Q294 335 284 321T273 291T271 234H225L223 251Q223 303 234 329T282 391Q313 422 322 438T332 474Q332 510 309 534T256 559Q223 559 201 536T174 464L124 472Q131 541 167 575T259 609ZM222 184H278V117H222Z" horiz-adv-x="512" unicode=""/>
			<glyph d="M282 771Q333 771 373 761L364 683Q324 692 293 692Q248 692 228 661T209 583V479H440V583Q440 672 483 721T611 771Q661 771 701 761L693 683Q653 692 622 692Q576 692 556 661T537 583V479H663L647 405H537V0H440V405H209V0H112V405H13L28 479H111V583Q111 672 154 721T282 771Z" horiz-adv-x="663" unicode="ﬀ"/>
			<glyph d="M273 771Q323 771 363 761L355 683Q317 692 289 692Q246 692 227 661T209 583V479H329L314 405H209V0H112V405H13L28 479H111V583Q111 672 152 721T273 771ZM452 716Q476 716 494 698T512 656Q512 631 494 613T452 596Q427 596 409 613T391 656Q391 681 409 698T452 716ZM403 479H500V0H403Z" horiz-adv-x="583" unicode="ﬁ"/>
			<glyph d="M312 771Q359 771 419 755L502 767V160Q502 120 513 99T553 61L501 -15Q404 29 404 144V677Q361 692 319 692Q261 692 235 656T209 563V479H329L314 405H209V0H112V405H13L28 479H111V563Q111 661 162 716T312 771Z" horiz-adv-x="588" unicode="ﬂ"/>
			<glyph d="M282 771Q333 771 373 761L364 683Q324 692 293 692Q248 692 228 661T209 583V479H439V583Q439 672 480 721T601 771Q651 771 691 761L683 683Q645 692 617 692Q574 692 555 661T537 583V479H657L642 405H537V0H440V405H209V0H112V405H13L28 479H111V583Q111 672 154 721T282 771ZM780 716Q805 716 823 698T841 656Q841 631 823 613T780 596Q755 596 737 613T719 656Q719 681 737 698T780 716ZM732 479H829V0H732Z" horiz-adv-x="892" unicode="ﬃ"/>
			<glyph d="M282 771Q333 771 373 761L364 683Q324 692 293 692Q248 692 228 661T209 583V479H424V563Q424 661 475 716T625 771Q672 771 732 755L814 767V160Q814 120 825 99T866 61L813 -15Q716 30 716 144V677Q675 692 631 692Q574 692 548 656T522 563V479H642L626 405H522V0H425V405H209V0H112V405H13L28 479H111V583Q111 672 154 721T282 771Z" horiz-adv-x="901" unicode="ﬄ"/>
		</font>
</defs>
</svg>
