<?xml version="1.0" encoding="UTF-8"?>
<svg height="100%" width="100%" xmlns="http://www.w3.org/2000/svg">
	<defs>
		<font horiz-adv-x="538" id="web">
			<font-face alphabetic="0" ascent="968" descent="-253" font-family="" panose-1="2 0 5 7 0 0 0 0 0 4"/>
			<missing-glyph d="M0 718H512V0H0ZM50 667V50H462V667ZM259 609Q313 609 348 573T383 478Q383 445 370 418T320 358Q294 334 284 320T273 292T271 234H225L223 251Q223 289 228 311T245 349T282 391Q313 422 322 438T332 474Q332 510 309 534T256 559Q223 559 201 536T174 464L124 472Q131 541 167 575T259 609ZM222 184H278V117H222Z" horiz-adv-x="512"/>
			<glyph d="" horiz-adv-x="250" unicode=" "/>
			<glyph d="M182 708H280L193 214H95ZM126 117Q151 117 167 101T184 60Q184 32 165 12T120 -7Q94 -7 77 9T61 50Q61 78 80 97T126 117Z" horiz-adv-x="313" unicode="!"/>
			<glyph d="M244 708H340L295 459H200Z" horiz-adv-x="445" unicode="&quot;"/>
			<glyph d="M277 708H346L278 492H400L468 708H536L468 492H564L553 427H447L402 282H498L487 217H382L315 0H247L314 217H191L124 0H56L124 217H26L37 282H143L190 427H92L102 492H210ZM258 427L212 282H334L380 427Z" horiz-adv-x="575" unicode="#"/>
			<glyph d="M361 791H409L398 726Q448 722 494 706T570 668L533 586Q508 607 466 624T384 645L341 399Q429 368 474 323T520 206Q520 139 487 89T396 11T268 -19L257 -84H209L221 -18Q164 -14 111 5T27 53L61 143Q93 110 140 89T235 65L280 326L273 329Q191 356 150 396T110 508Q110 571 142 619T228 694T350 726ZM335 642Q283 633 247 600T211 517Q211 479 232 456T296 416ZM325 309L283 66Q343 73 380 108T417 198Q417 238 393 263T325 309Z" horiz-adv-x="603" unicode="$"/>
			<glyph d="M701 738L748 708L186 -31L139 -1ZM276 718Q346 718 388 677T431 572Q431 517 406 471T338 399T238 372Q168 372 125 412T82 518Q82 572 106 618T175 691T276 718ZM270 654Q220 654 187 616T155 526Q155 487 178 461T243 436Q294 436 326 473T359 564Q359 603 335 628T270 654ZM659 337Q729 337 771 296T814 191Q814 136 789 90T721 18T621 -9Q551 -9 508 31T466 137Q466 191 490 237T559 310T659 337ZM654 272Q603 272 570 235T538 145Q538 106 561 80T625 55Q677 55 709 92T742 183Q742 221 718 246T654 272Z" horiz-adv-x="864" unicode="%"/>
			<glyph d="M374 726Q451 726 498 685T546 574Q546 508 500 460T359 373L478 222L587 376H697L533 162L666 0H547L472 96Q419 39 365 12T248 -15Q156 -15 96 31T37 169Q37 250 91 306T236 397Q179 471 179 541Q179 594 204 636T274 702T374 726ZM374 655Q330 655 298 624T266 544Q266 488 318 427Q387 454 423 488T459 569Q459 607 435 631T374 655ZM280 338Q133 284 133 176Q133 125 168 94T255 64Q303 64 343 88T420 158Z" horiz-adv-x="739" unicode="&amp;"/>
			<glyph d="M169 708H247L203 459H125Z" horiz-adv-x="276" unicode="'"/>
			<glyph d="M266 737L327 699Q230 593 171 450T113 161Q113 82 130 5T180 -131L110 -161Q74 -96 54 -12T34 159Q34 312 94 463T266 737Z" horiz-adv-x="320" unicode="("/>
			<glyph d="M211 737Q248 673 267 589T287 417Q287 264 227 113T56 -160L-5 -123Q92 -15 150 127T209 416Q209 495 191 572T142 708Z" horiz-adv-x="320" unicode=")"/>
			<glyph d="M236 708H303V560L447 606L468 545L323 500L413 377L359 339L268 464L179 340L126 379L217 500L71 547L93 607L236 560Z" horiz-adv-x="464" unicode="*"/>
			<glyph d="M294 561H373V342H591V265H374V46H295V265H75V342H294Z" horiz-adv-x="666" unicode="+"/>
			<glyph d="M112 133Q136 133 152 116T169 74V73Q169 12 127 -44T30 -137L-2 -110Q28 -88 54 -56T92 12Q72 15 59 29T47 66Q47 93 66 113T112 133Z" horiz-adv-x="272" unicode=","/>
			<glyph d="M49 294H271L257 217H35Z" horiz-adv-x="316" unicode="-"/>
			<glyph d="M97 119Q123 119 139 102T156 61Q156 33 137 13T91 -6Q65 -6 48 9T31 51Q31 79 50 99T97 119Z" horiz-adv-x="272" unicode="."/>
			<glyph d="M395 743L459 720L19 -33L-46 -10Z" horiz-adv-x="391" unicode="/"/>
			<glyph d="M369 724Q475 724 525 655T575 480Q575 366 542 251T440 60T263 -16Q156 -16 106 52T56 227Q56 342 88 456T191 647T369 724ZM362 642Q300 642 252 583T179 432T153 242Q153 165 180 116T268 68Q329 68 376 126T449 276T475 467Q475 544 448 593T362 642Z" horiz-adv-x="595" unicode="0"/>
			<glyph d="M367 708H459L334 0H236L341 597L190 494L151 568Z" horiz-adv-x="595" unicode="1"/>
			<glyph d="M360 724Q418 724 465 703T540 643T567 550Q567 498 547 457T495 381T400 292L165 86H510L479 0H18L34 87L348 358Q412 414 439 455T466 539Q466 586 434 613T353 640Q306 640 260 615T184 552L140 626Q176 670 231 697T360 724Z" horiz-adv-x="595" unicode="2"/>
			<glyph d="M355 724Q409 724 453 704T524 645T551 554Q551 483 508 435T396 372V370Q452 357 485 314T518 216Q518 149 483 96T388 13T253 -16Q178 -16 114 8T17 68L54 153Q85 118 141 92T254 67Q301 67 338 86T397 137T419 210Q419 271 376 301T267 332H233L245 406H282Q364 406 409 444T455 545Q455 589 422 616T342 644Q297 644 248 621T160 561L131 639Q226 724 355 724Z" horiz-adv-x="595" unicode="3"/>
			<glyph d="M415 708H542L459 241H574L546 160H447L419 0H328L355 160H23L39 249ZM431 610L133 241H368L434 610Z" horiz-adv-x="595" unicode="4"/>
			<glyph d="M197 708H578L548 624H268L229 434Q269 449 315 449Q373 449 421 426T497 358T526 251Q526 172 491 111T394 17T257 -16Q183 -16 126 5T36 60L69 143Q101 111 152 89T256 68Q308 68 346 90T406 152T427 240Q427 302 385 338T278 374Q240 374 199 364T122 338Z" horiz-adv-x="595" unicode="5"/>
			<glyph d="M445 716Q489 716 525 709T583 693L551 613Q533 621 503 627T442 633Q382 633 325 599T226 504T165 362Q235 438 341 438Q400 438 445 413T516 345T541 245Q541 173 508 113T413 19T270 -16Q206 -16 155 12T76 95T48 225Q48 357 101 470T246 649T445 716ZM316 367Q266 367 226 344T165 282T143 200Q143 140 180 102T274 64Q324 64 362 87T422 150T443 239Q443 295 407 331T316 367Z" horiz-adv-x="595" unicode="6"/>
			<glyph d="M155 708H595L580 625L179 0H61L473 623H126Z" horiz-adv-x="595" unicode="7"/>
			<glyph d="M364 724Q448 724 504 680T560 554Q560 483 517 437T413 374V371Q461 356 493 314T526 218Q526 144 490 91T395 11T264 -16Q209 -16 160 3T81 64T50 169Q50 249 100 306T226 380V382Q182 399 158 435T134 517Q134 580 166 627T251 699T364 724ZM356 646Q318 646 287 628T240 579T223 514Q223 469 251 440T328 411Q368 411 399 429T449 476T467 540Q467 590 436 618T356 646ZM309 336Q263 336 225 315T166 259T144 180Q144 126 179 95T268 64Q342 64 387 108T432 219Q432 269 397 302T309 336Z" horiz-adv-x="595" unicode="8"/>
			<glyph d="M353 721Q418 721 469 692T550 607T580 473Q580 344 526 232T381 54T183 -12Q140 -12 103 -5T45 12L77 92Q96 83 125 77T186 71Q246 71 302 104T401 200T463 343Q393 267 288 267Q228 267 182 292T112 361T87 462Q87 533 120 592T213 686T353 721ZM354 640Q304 640 265 617T206 554T185 466Q185 409 221 373T312 337Q362 337 401 360T463 421T485 505Q485 565 448 602T354 640Z" horiz-adv-x="595" unicode="9"/>
			<glyph d="M176 482Q201 482 217 466T234 426Q234 399 215 379T171 360Q145 360 128 375T112 416Q112 444 131 463T176 482ZM117 117Q142 117 158 101T174 61Q174 34 155 14T110 -5Q85 -5 68 10T51 51Q51 79 70 98T117 117Z" horiz-adv-x="307" unicode=":"/>
			<glyph d="M176 482Q201 482 217 466T234 426Q234 399 215 379T171 360Q145 360 128 375T112 416Q112 444 131 463T176 482ZM112 133Q136 133 152 116T169 74V73Q169 12 127 -44T30 -137L-2 -110Q28 -88 54 -56T92 12Q72 15 59 29T47 66Q47 93 66 113T112 133Z" horiz-adv-x="307" unicode=";"/>
			<glyph d="M580 557V475L201 302L580 131V49L86 270V335Z" horiz-adv-x="666" unicode="&lt;"/>
			<glyph d="M81 429H585V353H81ZM81 254H585V179H81Z" horiz-adv-x="666" unicode="="/>
			<glyph d="M86 557L580 335V270L86 49V131L466 302L86 475Z" horiz-adv-x="666" unicode="&gt;"/>
			<glyph d="M323 725Q406 725 462 683T518 559Q518 497 485 454T387 368Q339 335 320 310T295 245L289 210H198L206 258Q214 307 238 339T317 413Q376 457 397 484T419 549Q419 594 391 618T318 642Q272 642 228 618T154 559L110 632Q147 674 201 699T323 725ZM231 117Q257 117 273 101T290 60Q290 32 271 12T226 -7Q200 -7 183 9T166 50Q166 78 185 97T231 117Z" horiz-adv-x="507" unicode="?"/>
			<glyph d="M477 727Q568 727 640 693T753 598T794 453Q794 372 763 305T678 199T554 160Q519 160 496 176T472 222Q472 231 474 237H471Q453 208 417 184T338 160Q280 160 250 192T221 278Q221 336 251 401T336 509T457 553Q496 553 521 533T549 484H552L572 535H641L561 343Q536 281 536 256Q536 223 577 223Q617 223 652 252T707 333T728 447Q728 515 695 564T606 640T475 667Q373 667 290 617T161 483T115 302Q115 223 150 164T249 73T398 41Q543 41 657 142L691 98Q631 43 554 12T391 -19Q287 -19 208 20T86 131T43 296Q43 415 100 513T257 669T477 727ZM461 458Q434 458 399 434T340 372T316 298Q316 281 324 268T348 256Q376 256 405 278T453 322T483 372T494 425Q494 440 484 449T461 458Z" horiz-adv-x="800" unicode="@"/>
			<glyph d="M392 708H492L626 0H522L482 226H192L53 0H-61ZM421 603L237 307H471Z" horiz-adv-x="680" unicode="A"/>
			<glyph d="M164 708H394Q478 708 537 670T597 554Q597 483 554 436T437 373V371Q493 362 532 321T572 216Q572 111 492 55T283 0H39ZM244 628L205 404H336Q405 404 452 435T499 530Q499 579 461 603T365 628ZM192 331L148 81H280Q368 81 420 116T473 221Q473 273 434 302T335 331Z" horiz-adv-x="636" unicode="B"/>
			<glyph d="M480 727Q551 727 617 703T719 647L679 558Q647 592 593 615T477 639Q389 639 318 591T207 466T167 300Q167 235 192 183T269 100T395 70Q458 70 517 95T623 161L626 68Q584 31 518 6T382 -19Q282 -19 209 19T99 127T61 288Q61 409 117 510T269 669T480 727Z" horiz-adv-x="704" unicode="C"/>
			<glyph d="M164 708H391Q480 708 556 675T679 576T726 412Q726 283 668 190T509 48T284 0H39ZM247 623L152 86H288Q388 86 464 125T581 235T623 400Q623 501 556 562T371 623Z" horiz-adv-x="769" unicode="D"/>
			<glyph d="M164 708H565L535 623H244L205 405H492L463 324H191L150 86H484L454 0H39Z" horiz-adv-x="551" unicode="E"/>
			<glyph d="M164 708H565L535 623H246L206 398H487L458 316H192L137 0H39Z" horiz-adv-x="531" unicode="F"/>
			<glyph d="M478 727Q551 727 617 705T728 651L690 570Q651 600 594 620T476 640Q389 640 317 592T205 467T164 300Q164 233 190 180T269 97T398 67Q445 68 487 77T560 104L594 303H430L460 385H702L642 44Q591 14 524 -2T387 -19Q286 -19 212 19T100 126T61 288Q61 406 116 507T266 667T478 727Z" horiz-adv-x="760" unicode="G"/>
			<glyph d="M164 708H262L209 410H604L657 708H756L631 0H532L590 325H195L137 0H39Z" horiz-adv-x="770" unicode="H"/>
			<glyph d="M164 708H263L138 0H39Z" horiz-adv-x="277" unicode="I"/>
			<glyph d="M286 708H386L299 217Q257 -18 63 -18Q27 -18 7 -12L-7 79Q26 70 64 70Q174 70 201 219Z" horiz-adv-x="395" unicode="J"/>
			<glyph d="M164 708H261L206 398L543 708H672L300 376L579 0H455L199 358L136 0H39Z" horiz-adv-x="609" unicode="K"/>
			<glyph d="M164 708H263L153 86H461L431 0H39Z" horiz-adv-x="508" unicode="L"/>
			<glyph d="M164 708H305L434 150L759 708H909L784 0H687L792 589L443 0H375L234 592L133 0H39Z" horiz-adv-x="923" unicode="M"/>
			<glyph d="M164 708H278L549 141H551L649 708H747L622 0H509L238 570H236L137 0H39Z" horiz-adv-x="768" unicode="N"/>
			<glyph d="M475 727Q577 727 651 687T765 577T804 414Q804 297 751 197T605 39T392 -19Q289 -19 214 20T100 130T61 293Q61 411 114 510T261 668T475 727ZM469 639Q380 639 310 591T202 466T164 302Q164 236 190 183T269 100T397 70Q487 70 556 117T663 241T701 407Q701 472 674 525T596 608T469 639Z" horiz-adv-x="846" unicode="O"/>
			<glyph d="M164 708H370Q474 708 535 662T597 530Q597 424 524 365T318 307H191L137 0H39ZM248 627L205 386H322Q405 386 451 421T498 521Q498 577 460 602T360 627Z" horiz-adv-x="600" unicode="P"/>
			<glyph d="M472 727Q571 727 644 689T758 582T798 422Q798 348 773 280T702 159T594 82L593 79L796 81L767 0H389Q290 0 216 36T102 139T62 298Q62 414 115 512T261 669T472 727ZM467 639Q380 639 310 593T202 471T164 310Q164 209 224 147T395 86Q480 86 549 130T657 249T696 409Q696 474 669 526T591 609T467 639Z" horiz-adv-x="850" unicode="Q"/>
			<glyph d="M164 708H370Q471 708 534 664T597 537Q597 442 542 392T401 330L554 0H443L303 318H191L136 0H39ZM246 626L204 392H318Q497 392 497 523Q497 577 457 601T349 626Z" horiz-adv-x="625" unicode="R"/>
			<glyph d="M361 727Q417 727 470 710T556 668L519 586Q493 609 446 627T358 645Q318 645 281 630T221 587T198 517Q198 472 226 448T317 403Q411 371 459 326T507 206Q507 136 471 85T374 7T238 -19Q174 -19 112 1T14 53L47 143Q83 107 136 85T242 64Q312 64 358 100T404 198Q404 248 368 276T260 329Q178 356 137 396T96 508Q96 574 132 624T228 700T361 727Z" horiz-adv-x="576" unicode="S"/>
			<glyph d="M88 708H619L589 623H378L268 0H169L278 623H57Z" unicode="T"/>
			<glyph d="M156 708H254L178 277Q173 247 173 223Q173 154 212 111T334 68Q437 68 482 125T544 274L621 708H718L640 264Q618 134 544 57T330 -19Q208 -19 140 40T73 204Q73 236 79 272Z" horiz-adv-x="725" unicode="U"/>
			<glyph d="M79 708H184L265 119H268L605 708H719L298 0H191Z" horiz-adv-x="631" unicode="V"/>
			<glyph d="M89 708H194L233 134H236L515 708H623L671 134H674L949 708H1054L704 0H599L546 577H543L257 0H152Z" horiz-adv-x="980" unicode="W"/>
			<glyph d="M111 708H222L343 440L567 708H688L392 369L571 0H457L320 299L70 0H-54L272 372Z" horiz-adv-x="634" unicode="X"/>
			<glyph d="M57 708H168L294 389L547 708H667L330 305L276 0H178L231 305Z" horiz-adv-x="568" unicode="Y"/>
			<glyph d="M133 708H633L618 624L125 86H548L517 0H-14L1 88L492 623H118Z" horiz-adv-x="603" unicode="Z"/>
			<glyph d="M139 732H319L308 669H207L73 -93H174L162 -156H-17Z" horiz-adv-x="320" unicode="["/>
			<glyph d="M80 744L386 -10L316 -33L9 720Z" horiz-adv-x="391" unicode="\"/>
			<glyph d="M156 732H334L177 -156H-1L11 -93H111L246 669H145Z" horiz-adv-x="320" unicode="]"/>
			<glyph d="M302 708H375L594 295H506L338 619L171 295H83Z" horiz-adv-x="677" unicode="^"/>
			<glyph d="M0 -82H500V-139H0Z" horiz-adv-x="500" unicode="_"/>
			<glyph d="M41 712H143L249 568H176Z" horiz-adv-x="269" unicode="`"/>
			<glyph d="M289 494Q371 494 420 456T470 345Q470 317 465 290L431 101Q421 43 421 0H336Q336 33 343 77H341Q282 -12 173 -12Q115 -12 69 18T24 113Q24 216 120 255T375 294Q379 318 379 335Q379 420 277 420Q239 420 194 404T123 367L103 439Q140 465 188 479T289 494ZM348 233Q112 233 112 128Q112 88 139 71T204 55Q267 55 308 98T362 203L368 233Z" unicode="a"/>
			<glyph d="M262 759L197 394H199Q226 438 274 465T379 493Q476 493 530 435T585 284Q585 203 551 135T456 27T317 -13Q257 -13 208 16T141 93H139L123 0H34L165 745ZM349 415Q299 415 257 386T190 308T166 205Q166 144 204 104T304 65Q359 65 401 93T467 169T490 273Q490 335 453 375T349 415Z" horiz-adv-x="641" unicode="b"/>
			<glyph d="M325 494Q370 494 414 478T488 438L449 367Q424 388 389 401T324 415Q269 415 224 386T155 310T130 207Q130 145 166 105T272 65Q312 65 350 79T418 119L432 41Q404 16 358 0T260 -15Q191 -15 140 11T63 85T37 195Q37 274 73 342T176 452T325 494Z" horiz-adv-x="489" unicode="c"/>
			<glyph d="M636 759L502 0H413L429 87H427Q400 42 351 14T243 -13Q146 -13 91 45T36 196Q36 276 70 344T167 453T307 493Q366 493 411 465T475 390H478L539 745ZM317 415Q263 415 220 386T154 310T131 207Q131 145 168 105T272 65Q323 65 365 94T431 171T455 274Q455 335 417 375T317 415Z" horiz-adv-x="637" unicode="d"/>
			<glyph d="M318 494Q413 494 466 441T520 298Q520 284 517 261T510 218H128L126 198Q126 135 168 98T280 61Q327 61 372 77T451 116L460 40Q425 16 375 1T264 -14Q161 -14 98 44T36 202Q36 281 72 348T173 454T318 494ZM311 424Q263 424 226 402T166 347T136 280H432Q434 300 434 310Q434 361 401 392T311 424Z" horiz-adv-x="571" unicode="e"/>
			<glyph d="M353 771Q376 771 403 767T445 758L421 681Q409 685 388 688T350 692Q270 692 250 584L232 479H358L331 406H221L149 0H55L127 406H32L60 479H138L156 583Q172 680 220 725T353 771Z" horiz-adv-x="322" unicode="f"/>
			<glyph d="M310 493Q370 493 415 465T480 389H483L498 479H589L510 32Q487 -98 420 -171T221 -244Q158 -244 100 -225T6 -177L35 -94Q71 -126 118 -145T220 -165Q311 -165 355 -114T416 24L428 87H426Q400 44 353 18T249 -8Q151 -8 95 49T40 199Q40 278 74 345T170 453T310 493ZM321 415Q266 415 223 387T157 312T134 209Q134 148 171 107T276 67Q327 67 369 96T435 173T460 275Q460 336 422 375T321 415Z" horiz-adv-x="637" unicode="g"/>
			<glyph d="M262 759L198 395H200Q226 440 269 466T364 493Q440 493 478 450T517 339Q517 307 512 284L462 0H367L414 269Q419 294 419 314Q419 358 396 386T325 414Q269 414 227 367T171 240L128 0H33L164 745Z" horiz-adv-x="591" unicode="h"/>
			<glyph d="M195 715Q219 715 235 699T251 661Q251 635 233 616T190 597Q166 597 149 612T133 651Q133 677 151 696T195 715ZM118 479H214L128 0H33Z" horiz-adv-x="262" unicode="i"/>
			<glyph d="M197 715Q221 715 236 699T252 661Q252 635 234 616T192 597Q167 597 151 612T135 651Q135 677 153 696T197 715ZM119 479H215L120 -59Q104 -145 65 -193T-61 -242Q-85 -242 -113 -236L-96 -156Q-78 -161 -64 -161Q-21 -161 -2 -134T25 -58Z" horiz-adv-x="264" unicode="j"/>
			<glyph d="M262 759L177 272H179L406 479H530L271 255L463 0H359L175 247H173L129 0H34L165 745Z" horiz-adv-x="509" unicode="k"/>
			<glyph d="M266 767L159 160Q155 136 155 124Q155 103 163 88T191 60L127 -14Q93 2 73 32T54 106Q54 121 58 145L165 753Z" horiz-adv-x="263" unicode="l"/>
			<glyph d="M358 493Q417 493 454 463T500 384Q529 436 573 464T673 493Q750 493 789 448T829 335Q829 308 825 285L774 0H679L726 269Q731 294 731 313Q731 357 708 385T638 414Q582 414 544 369T493 251L449 0H353L403 280Q406 298 406 316Q406 359 384 386T318 414Q264 414 224 366T169 231L128 0H33L98 371Q110 436 113 479H205Q202 445 193 388Q223 438 265 465T358 493Z" horiz-adv-x="904" unicode="m"/>
			<glyph d="M364 493Q440 493 478 450T517 339Q517 307 512 284L462 0H367L414 269Q419 294 419 315Q419 358 396 386T325 414Q269 414 227 368T171 241L128 0H33L98 371Q110 436 113 479H205Q202 445 193 388H195Q222 437 266 465T364 493Z" horiz-adv-x="591" unicode="n"/>
			<glyph d="M322 494Q392 494 445 467T527 393T556 282Q556 202 520 134T419 27T269 -13Q199 -13 146 13T65 88T36 198Q36 277 71 345T172 453T322 494ZM318 414Q263 414 220 385T153 309T130 207Q130 145 167 105T273 66Q328 66 371 94T437 169T461 273Q461 335 423 374T318 414Z" horiz-adv-x="611" unicode="o"/>
			<glyph d="M377 492Q475 492 530 434T585 283Q585 203 550 135T455 27T316 -13Q255 -13 209 14T145 89H142L85 -240H-9L117 479H208L193 391H196Q223 436 271 464T377 492ZM349 414Q298 414 256 385T189 308T165 205Q165 144 203 104T303 64Q358 64 400 92T466 168T489 272Q489 334 452 374T349 414Z" horiz-adv-x="640" unicode="p"/>
			<glyph d="M306 493Q364 493 411 464T477 386H480L496 479H587L492 -60Q489 -77 489 -89Q489 -118 501 -135T542 -167L477 -242Q437 -224 415 -193T394 -114Q394 -91 398 -70L424 84H422Q396 40 348 13T243 -13Q146 -13 91 45T36 196Q36 276 70 344T166 453T306 493ZM317 415Q262 415 219 386T153 310T130 207Q130 145 167 105T271 65Q322 65 364 94T430 172T455 275Q455 336 417 375T317 415Z" horiz-adv-x="636" unicode="q"/>
			<glyph d="M352 493Q363 493 381 490L352 405Q337 408 321 408Q257 408 219 359T169 237L127 0H32L98 371Q110 436 113 479H204Q203 455 192 388H194Q222 439 262 466T352 493Z" horiz-adv-x="349" unicode="r"/>
			<glyph d="M252 494Q299 494 342 478T409 440L362 378Q341 396 310 409T248 422Q205 422 176 403T148 348Q148 321 167 306T229 281Q301 261 335 228T370 143Q370 93 343 57T272 4T176 -14Q123 -14 77 0T7 36L34 109Q62 85 98 72T175 59Q221 59 250 80T279 136Q279 165 257 182T185 215Q121 233 90 261T59 340Q59 388 85 423T156 476T252 494Z" horiz-adv-x="438" unicode="s"/>
			<glyph d="M246 620L221 479H362L334 406H209L163 148Q159 126 159 113Q159 66 214 66Q252 66 292 84L301 15Q247 -11 186 -11Q129 -11 97 18T65 93Q65 118 70 141L117 406H36L64 479H128L147 586Z" horiz-adv-x="353" unicode="t"/>
			<glyph d="M105 479H201L153 210Q148 185 148 165Q148 121 170 93T243 66Q300 66 341 112T397 239L440 479H535L469 108Q457 42 454 0H363Q367 40 375 91H372Q345 42 300 14T203 -13Q128 -13 89 29T50 141Q50 163 55 195Z" horiz-adv-x="590" unicode="u"/>
			<glyph d="M41 479H141L201 101H204L417 479H521L237 0H132Z" horiz-adv-x="497" unicode="v"/>
			<glyph d="M50 479H149L178 108H180L373 479H471L515 108H517L699 479H800L547 0H449L401 368H399L203 0H104Z" horiz-adv-x="777" unicode="w"/>
			<glyph d="M60 479H164L252 312L401 479H515L298 249L439 0H332L231 188L61 0H-55L185 253Z" horiz-adv-x="502" unicode="x"/>
			<glyph d="M47 479H150L219 98L422 479H525L203 -87Q162 -164 110 -198T-19 -240L-38 -158Q20 -153 55 -133T116 -68L153 -4Z" horiz-adv-x="498" unicode="y"/>
			<glyph d="M91 479H457L444 406L116 75H409L381 0H-13L0 75L326 405H63Z" horiz-adv-x="470" unicode="z"/>
			<glyph d="M278 732H344L333 666H286Q253 666 234 644T210 586L179 407Q169 351 138 322T75 289V287Q101 283 120 262T139 200Q139 182 137 173L105 -15Q103 -35 103 -41Q103 -90 152 -90H200L188 -156H122Q76 -156 49 -131T22 -58Q22 -37 24 -26L56 165Q58 177 58 197Q58 254 0 254L12 322Q86 322 101 415L133 596Q145 663 184 697T278 732Z" horiz-adv-x="320" unicode="{"/>
			<glyph d="M75 750H155V-250H75Z" horiz-adv-x="231" unicode="|"/>
			<glyph d="M136 732H202Q248 732 275 707T302 634Q302 624 300 602L268 411Q265 398 265 386Q265 322 324 322L311 254Q239 254 223 161L191 -20Q179 -87 139 -121T45 -156H-21L-9 -90H38Q101 -90 114 -10L145 169Q155 225 186 253T249 287V289Q223 293 204 313T185 376Q185 393 187 403L219 591Q221 609 221 616Q221 666 172 666H125Z" horiz-adv-x="320" unicode="}"/>
			<glyph d="M224 377Q253 377 279 368T335 341Q371 318 396 307T442 297Q472 297 495 317T541 373L584 312Q525 217 448 217Q418 217 394 225T340 253Q304 277 280 286T231 296Q199 296 175 276T133 220L89 281Q143 377 224 377Z" horiz-adv-x="666" unicode="~"/>
			<glyph d="" horiz-adv-x="250" unicode=" "/>
			<glyph d="M177 502Q203 502 219 486T236 446Q236 418 217 398T171 379Q146 379 129 394T113 435Q113 463 131 482T177 502ZM105 281H202L115 -213H18Z" horiz-adv-x="313" unicode="¡"/>
			<glyph d="M356 556H407L395 491Q439 487 474 470T531 426L471 366Q458 386 434 399T382 414L321 63Q355 65 385 79T437 115L482 56Q447 24 402 5T307 -15L295 -75H244L255 -13Q169 -2 121 53T73 194Q73 270 107 337T204 446T344 492ZM332 414Q284 410 245 380T185 304T163 205Q163 150 190 112T270 67Z" horiz-adv-x="603" unicode="¢"/>
			<glyph d="M474 726Q517 726 559 712T627 678L579 604Q557 621 528 631T467 642Q398 642 360 597T310 486L295 399H472L445 328H282L259 199Q252 157 230 127T176 84H498L468 0H25L40 84H51Q95 84 123 115T160 191L184 328H73L100 399H197L213 493Q231 595 296 660T474 726Z" horiz-adv-x="603" unicode="£"/>
			<glyph d="M190 608L283 516Q352 567 442 567Q533 567 600 517L691 608L744 556L654 466Q703 401 703 310Q703 214 651 148L744 54L692 1L596 97Q530 48 442 48Q356 48 287 99L189 1L136 54L232 150Q182 214 182 310Q182 398 229 464L136 556ZM442 483Q392 483 353 460T294 397T273 310Q273 261 294 220T353 156T442 133Q492 133 530 156T590 220T611 310Q611 358 590 397T530 460T442 483Z" horiz-adv-x="882" unicode="¤"/>
			<glyph d="M102 708H205L326 415L550 708H659L401 394H558L532 331H355L338 234H530L505 171H328L298 0H207L236 171H46L71 234H247L264 331H73L100 394H249Z" horiz-adv-x="603" unicode="¥"/>
			<glyph d="M76 675H155V326H76ZM76 174H155V-175H76Z" horiz-adv-x="231" unicode="¦"/>
			<glyph d="M368 726Q430 726 478 705T552 646L479 594Q462 620 431 634T364 648Q319 648 284 621T250 551Q250 516 273 496T354 454Q407 433 438 412T486 363T503 293Q503 235 467 198T378 146Q404 129 419 102T435 42Q435 -21 403 -62T322 -122T217 -141Q153 -141 95 -115T8 -44L82 9Q103 -25 140 -43T219 -61Q269 -61 303 -39T337 30Q337 69 312 90T224 137Q146 167 112 200T78 292Q78 349 115 388T208 443Q152 479 152 543Q152 600 183 641T264 704T368 726ZM267 404Q227 397 196 371T166 306Q166 270 186 250T252 213L319 186Q359 192 387 216T416 278Q416 315 394 336T330 376Z" horiz-adv-x="590" unicode="§"/>
			<glyph d="M106 711Q129 711 143 697T158 661Q158 637 141 619T101 601Q78 601 63 615T48 652Q48 677 65 694T106 711ZM297 711Q319 711 333 697T348 661Q348 637 332 619T292 601Q269 601 254 615T239 652Q239 677 255 694T297 711Z" horiz-adv-x="269" unicode="¨"/>
			<glyph d="M401 730Q504 730 591 679T729 542T780 353Q780 250 729 164T591 28T401 -22Q298 -22 210 28T71 164T20 353Q20 456 71 542T210 679T401 730ZM401 686Q310 686 233 641T111 519T66 353Q66 263 111 187T232 66T400 22Q490 22 567 66T689 187T734 353Q734 443 689 519T567 641T401 686ZM417 580Q458 580 500 565T567 530L546 465Q523 486 488 500T416 515Q349 515 307 469T266 353Q266 284 307 238T419 192Q456 192 491 204T548 236L558 171Q534 150 496 137T417 125Q353 125 301 153T219 233T189 353Q189 420 219 471T301 551T417 580Z" horiz-adv-x="800" unicode="©"/>
			<glyph d="M250 721Q301 721 329 698T358 634Q358 630 355 600L335 491Q330 458 330 431H277Q277 446 281 476H280Q248 424 183 424Q146 424 119 443T93 499Q93 559 147 582T298 606Q300 614 300 628Q300 673 243 673Q198 673 163 644L137 682Q162 701 192 711T250 721ZM283 567Q151 567 151 508Q151 486 166 477T203 468Q238 468 260 491T289 547L294 567Z" horiz-adv-x="364" unicode="ª"/>
			<glyph d="M227 462L278 421L130 242L214 67L152 31L46 248ZM424 460L476 419L328 240L411 67L348 31L243 245Z" horiz-adv-x="514" unicode="«"/>
			<glyph d="M71 425H591V139H512V350H71Z" horiz-adv-x="666" unicode="¬"/>
			<glyph d="M49 294H271L257 217H35Z" horiz-adv-x="316" unicode="­"/>
			<glyph d="M341 720Q403 720 455 689T537 607T568 493Q568 431 537 379T455 298T341 268Q279 268 226 298T143 379T112 493Q112 555 143 607T226 689T341 720ZM341 690Q287 690 241 663T169 592T143 493Q143 440 169 394T241 322T341 296Q395 296 440 322T511 394T537 493Q537 547 511 592T440 663T341 690ZM246 626H346Q390 626 419 607T448 548Q448 520 432 501T391 477L460 367H394L336 469H303V367H246ZM303 580V511H339Q361 511 375 520T389 548Q389 565 376 572T345 580Z" horiz-adv-x="600" unicode="®"/>
			<glyph d="M57 664H344L334 608H48Z" horiz-adv-x="269" unicode="¯"/>
			<glyph d="M248 721Q291 721 327 700T384 644T405 565Q405 522 384 486T327 429T248 408Q205 408 169 429T113 486T92 565Q92 608 113 644T169 700T248 721ZM248 668Q205 668 175 638T145 565Q145 522 175 491T248 461Q292 461 322 491T352 565Q352 608 321 638T248 668Z" horiz-adv-x="408" unicode="°"/>
			<glyph d="M295 574H375V415H596V338H375V181H295V338H76V415H295ZM77 117H595V40H77Z" horiz-adv-x="666" unicode="±"/>
			<glyph d="M276 886Q330 886 365 856T400 778Q400 731 377 700T297 621L166 511H369L351 450H65L75 510L262 666Q300 698 315 721T331 770Q331 797 314 811T269 826Q238 826 214 808T177 760L123 787Q144 834 183 860T276 886Z" horiz-adv-x="363" unicode="²"/>
			<glyph d="M261 885Q314 885 348 857T383 779Q383 735 356 706T291 669Q324 659 343 634T363 575Q363 511 319 475T210 440Q163 440 125 457T65 506L103 554Q117 531 147 515T210 500Q249 500 271 520T294 575Q294 610 270 627T207 645H183L192 698H217Q263 698 288 717T314 771Q314 800 297 814T253 828Q209 828 165 786L137 834Q186 885 261 885Z" horiz-adv-x="360" unicode="³"/>
			<glyph d="M249 712H351L195 568H121Z" horiz-adv-x="269" unicode="´"/>
			<glyph d="M79 479H181V213Q181 76 304 76Q378 76 410 123T442 262V479H545V0H466L452 84H447Q428 40 391 15T303 -10Q213 -10 180 52H178Q181 12 181 -50V-240H79Z" horiz-adv-x="624" unicode="µ"/>
			<glyph d="M348 708H591L444 -127H371L508 647H390L253 -127H181L261 333Q176 334 126 375T77 483Q77 546 107 597T199 678T348 708Z" horiz-adv-x="608" unicode="¶"/>
			<glyph d="M143 345Q169 345 185 329T202 288Q202 260 183 240T137 220Q111 220 94 236T77 278Q77 306 96 325T143 345Z" horiz-adv-x="272" unicode="·"/>
			<glyph d="M71 0H123L59 -73Q74 -68 92 -68Q124 -68 149 -84T175 -137Q175 -186 135 -209T40 -233Q14 -233 -16 -227T-67 -211L-46 -171Q-29 -179 -6 -183T36 -188Q69 -188 88 -176T108 -142Q108 -122 93 -113T58 -105Q46 -105 30 -107T5 -114L-13 -95Z" horiz-adv-x="269" unicode="¸"/>
			<glyph d="M251 877H315L240 450H168L229 796L138 738L110 789Z" horiz-adv-x="250" unicode="¹"/>
			<glyph d="M245 722Q307 722 344 687T382 597Q382 549 360 509T300 447T213 424Q151 424 114 459T77 549Q77 597 98 636T158 699T245 722ZM241 669Q196 669 168 635T140 555Q140 521 160 499T217 477Q263 477 291 510T320 592Q320 625 299 647T241 669Z" horiz-adv-x="364" unicode="º"/>
			<glyph d="M153 461L259 247L78 32L25 73L174 252L91 425ZM349 461L456 244L275 30L223 70L371 250L287 425Z" horiz-adv-x="514" unicode="»"/>
			<glyph d="M632 738L679 709L129 -31L82 -1ZM212 709H276L201 281H129L190 628L99 569L71 620ZM627 427H710L662 153H733L715 95H653L636 0H571L588 95H391L401 154ZM629 349L470 153H598L632 349Z" horiz-adv-x="780" unicode="¼"/>
			<glyph d="M628 738L675 709L125 -31L78 -1ZM218 709H282L207 281H135L196 628L105 569L77 620ZM650 435Q704 435 739 405T774 327Q774 294 763 269T731 224T671 170L540 60H743L725 -2H439L449 59L636 215Q674 247 689 270T705 319Q705 345 688 360T643 375Q613 375 589 357T551 309L497 336Q518 383 557 409T650 435Z" horiz-adv-x="828" unicode="½"/>
			<glyph d="M728 738L775 709L225 -31L178 -1ZM253 717Q306 717 340 688T375 610Q375 566 348 537T283 500Q316 490 335 465T355 406Q355 342 311 306T202 271Q161 271 125 283T63 318L90 380Q110 358 140 344T204 331Q241 331 263 351T286 406Q286 442 262 459T199 476H175L184 529H209Q255 529 280 548T306 602Q306 631 289 645T245 659Q202 659 154 620L133 674Q186 717 253 717ZM696 427H779L731 153H802L784 95H722L705 0H640L657 95H460L470 154ZM698 349L539 153H667L701 349Z" horiz-adv-x="869" unicode="¾"/>
			<glyph d="M273 503Q299 503 315 487T332 447Q332 419 313 399T268 380Q242 380 225 395T209 436Q209 464 227 483T273 503ZM209 286H301L293 239Q285 189 261 157T181 84Q123 41 101 13T80 -53Q80 -98 107 -121T181 -145Q226 -145 270 -122T345 -63L388 -136Q351 -178 297 -203T175 -229Q93 -229 36 -186T-20 -63Q-20 -1 12 41T111 128Q160 162 178 186T204 252Z" horiz-adv-x="507" unicode="¿"/>
			<glyph d="M392 708H492L626 0H522L482 226H192L53 0H-61ZM421 603L237 307H471ZM282 908H384L490 764H417Z" horiz-adv-x="680" unicode="À"/>
			<glyph d="M392 708H492L626 0H522L482 226H192L53 0H-61ZM421 603L237 307H471ZM530 908H632L476 764H402Z" horiz-adv-x="680" unicode="Á"/>
			<glyph d="M392 708H492L626 0H522L482 226H192L53 0H-61ZM421 603L237 307H471ZM429 908H522L607 764H531L469 868L370 764H290Z" horiz-adv-x="680" unicode="Â"/>
			<glyph d="M392 708H492L626 0H522L482 226H192L53 0H-61ZM421 603L237 307H471ZM577 884H624Q610 837 582 808T516 780Q491 780 445 803Q406 825 388 825Q354 825 337 778H290Q305 825 332 853T398 882Q416 882 431 876T466 860Q486 848 499 843T526 838Q544 838 556 849T577 884Z" horiz-adv-x="680" unicode="Ã"/>
			<glyph d="M392 708H492L626 0H522L482 226H192L53 0H-61ZM421 603L237 307H471ZM371 908Q394 908 408 893T423 857Q423 833 406 815T366 797Q343 797 328 811T313 848Q313 873 330 890T371 908ZM562 908Q584 908 598 893T613 857Q613 833 597 815T557 797Q534 797 519 811T504 848Q504 874 520 891T562 908Z" horiz-adv-x="680" unicode="Ä"/>
			<glyph d="M392 708H492L626 0H522L482 226H192L53 0H-61ZM421 603L237 307H471ZM476 953Q516 953 539 929T563 869Q563 820 532 786T452 752Q412 752 388 775T364 836Q364 884 395 918T476 953ZM473 921Q441 921 420 897T400 840Q400 816 414 800T455 785Q487 785 507 808T528 865Q528 889 513 905T473 921Z" horiz-adv-x="680" unicode="Å"/>
			<glyph d="M521 708H968L938 623H660L622 405H896L866 324H608L566 86H887L857 0H457L488 181H221L79 0H-36ZM559 623L276 261H503L566 623Z" horiz-adv-x="954" unicode="Æ"/>
			<glyph d="M480 727Q551 727 617 703T719 647L679 558Q647 592 593 615T477 639Q389 639 318 591T207 466T167 300Q167 235 192 183T269 100T395 70Q458 70 517 95T623 161L626 68Q585 31 519 6T385 -19L337 -73Q352 -68 370 -68Q402 -68 427 -84T453 -137Q453 -186 413 -209T318 -233Q293 -233 262 -227T212 -211L233 -171Q249 -179 271 -183T314 -188Q347 -188 366 -176T386 -142Q386 -122 372 -113T336 -105Q324 -105 308 -107T283 -114L265 -95L334 -17Q206 -3 133 79T61 288Q61 409 117 510T269 669T480 727Z" horiz-adv-x="704" unicode="Ç"/>
			<glyph d="M164 708H565L535 623H244L205 405H492L463 324H191L150 86H484L454 0H39ZM245 908H347L453 764H380Z" horiz-adv-x="551" unicode="È"/>
			<glyph d="M164 708H565L535 623H244L205 405H492L463 324H191L150 86H484L454 0H39ZM430 908H532L376 764H302Z" horiz-adv-x="551" unicode="É"/>
			<glyph d="M164 708H565L535 623H244L205 405H492L463 324H191L150 86H484L454 0H39ZM355 908H448L533 764H457L395 868L296 764H216Z" horiz-adv-x="551" unicode="Ê"/>
			<glyph d="M164 708H565L535 623H244L205 405H492L463 324H191L150 86H484L454 0H39ZM295 908Q318 908 332 893T347 857Q347 833 330 815T290 797Q267 797 252 811T237 848Q237 873 254 890T295 908ZM486 908Q508 908 522 893T537 857Q537 833 521 815T481 797Q458 797 443 811T428 848Q428 874 444 891T486 908Z" horiz-adv-x="551" unicode="Ë"/>
			<glyph d="M164 708H263L138 0H39ZM55 908H157L263 764H190Z" horiz-adv-x="277" unicode="Ì"/>
			<glyph d="M164 708H263L138 0H39ZM299 908H401L245 764H171Z" horiz-adv-x="277" unicode="Í"/>
			<glyph d="M164 708H263L138 0H39ZM198 908H291L376 764H300L238 868L139 764H59Z" horiz-adv-x="277" unicode="Î"/>
			<glyph d="M164 708H263L138 0H39ZM138 908Q161 908 175 893T190 857Q190 833 173 815T133 797Q110 797 95 811T80 848Q80 873 97 890T138 908ZM329 908Q351 908 365 893T380 857Q380 833 364 815T324 797Q301 797 286 811T271 848Q271 874 287 891T329 908Z" horiz-adv-x="277" unicode="Ï"/>
			<glyph d="M164 708H391Q480 708 556 675T679 576T726 413Q726 284 668 190T509 48T284 0H39L97 333H31L43 400H109ZM247 623L207 400H425L414 333H195L152 86H288Q388 86 464 125T581 235T623 400Q623 501 556 562T371 623Z" horiz-adv-x="769" unicode="Ð"/>
			<glyph d="M164 708H278L549 141H551L649 708H747L622 0H509L238 570H236L137 0H39ZM593 884H640Q626 837 598 808T532 780Q507 780 461 803Q422 825 404 825Q370 825 353 778H306Q321 825 348 853T414 882Q432 882 447 876T482 860Q502 848 515 843T542 838Q560 838 572 849T593 884Z" horiz-adv-x="768" unicode="Ñ"/>
			<glyph d="M475 727Q577 727 651 687T765 577T804 414Q804 297 751 197T605 39T392 -19Q289 -19 214 20T100 130T61 293Q61 411 114 510T261 668T475 727ZM469 639Q380 639 310 591T202 466T164 302Q164 236 190 183T269 100T397 70Q487 70 556 117T663 241T701 407Q701 472 674 525T596 608T469 639ZM359 908H461L567 764H494Z" horiz-adv-x="846" unicode="Ò"/>
			<glyph d="M475 727Q577 727 651 687T765 577T804 414Q804 297 751 197T605 39T392 -19Q289 -19 214 20T100 130T61 293Q61 411 114 510T261 668T475 727ZM469 639Q380 639 310 591T202 466T164 302Q164 236 190 183T269 100T397 70Q487 70 556 117T663 241T701 407Q701 472 674 525T596 608T469 639ZM561 908H663L507 764H433Z" horiz-adv-x="846" unicode="Ó"/>
			<glyph d="M475 727Q577 727 651 687T765 577T804 414Q804 297 751 197T605 39T392 -19Q289 -19 214 20T100 130T61 293Q61 411 114 510T261 668T475 727ZM469 639Q380 639 310 591T202 466T164 302Q164 236 190 183T269 100T397 70Q487 70 556 117T663 241T701 407Q701 472 674 525T596 608T469 639ZM486 908H579L664 764H588L526 868L427 764H347Z" horiz-adv-x="846" unicode="Ô"/>
			<glyph d="M475 727Q577 727 651 687T765 577T804 414Q804 297 751 197T605 39T392 -19Q289 -19 214 20T100 130T61 293Q61 411 114 510T261 668T475 727ZM469 639Q380 639 310 591T202 466T164 302Q164 236 190 183T269 100T397 70Q487 70 556 117T663 241T701 407Q701 472 674 525T596 608T469 639ZM632 884H679Q665 837 637 808T571 780Q546 780 500 803Q461 825 443 825Q409 825 392 778H345Q360 825 387 853T453 882Q471 882 486 876T521 860Q541 848 554 843T581 838Q599 838 611 849T632 884Z" horiz-adv-x="846" unicode="Õ"/>
			<glyph d="M475 727Q577 727 651 687T765 577T804 414Q804 297 751 197T605 39T392 -19Q289 -19 214 20T100 130T61 293Q61 411 114 510T261 668T475 727ZM469 639Q380 639 310 591T202 466T164 302Q164 236 190 183T269 100T397 70Q487 70 556 117T663 241T701 407Q701 472 674 525T596 608T469 639ZM423 908Q446 908 460 893T475 857Q475 833 458 815T418 797Q395 797 380 811T365 848Q365 873 382 890T423 908ZM614 908Q636 908 650 893T665 857Q665 833 649 815T609 797Q586 797 571 811T556 848Q556 874 572 891T614 908Z" horiz-adv-x="846" unicode="Ö"/>
			<glyph d="M159 533L334 360L507 532L562 479L389 306L565 132L508 76L334 248L159 76L103 130L278 304L102 478Z" horiz-adv-x="666" unicode="×"/>
			<glyph d="M793 737L830 699L739 615Q805 535 805 414Q805 297 752 197T605 39T392 -19Q317 -19 256 3T153 65L59 -23L23 16L117 104Q61 181 61 293Q61 410 114 510T262 668T476 727Q614 727 704 653ZM471 641Q379 641 308 593T199 466T161 300Q161 226 195 174L631 586Q571 641 471 641ZM664 544L227 131Q255 101 297 84T395 68Q487 68 557 115T666 241T704 407Q704 486 664 544Z" horiz-adv-x="846" unicode="Ø"/>
			<glyph d="M156 708H254L178 277Q173 247 173 223Q173 154 212 111T334 68Q437 68 482 125T544 274L621 708H718L640 264Q618 134 544 57T330 -19Q208 -19 140 40T73 204Q73 236 79 272ZM287 908H389L495 764H422Z" horiz-adv-x="725" unicode="Ù"/>
			<glyph d="M156 708H254L178 277Q173 247 173 223Q173 154 212 111T334 68Q437 68 482 125T544 274L621 708H718L640 264Q618 134 544 57T330 -19Q208 -19 140 40T73 204Q73 236 79 272ZM506 908H608L452 764H378Z" horiz-adv-x="725" unicode="Ú"/>
			<glyph d="M156 708H254L178 277Q173 247 173 223Q173 154 212 111T334 68Q437 68 482 125T544 274L621 708H718L640 264Q618 134 544 57T330 -19Q208 -19 140 40T73 204Q73 236 79 272ZM425 908H518L603 764H527L465 868L366 764H286Z" horiz-adv-x="725" unicode="Û"/>
			<glyph d="M156 708H254L178 277Q173 247 173 223Q173 154 212 111T334 68Q437 68 482 125T544 274L621 708H718L640 264Q618 134 544 57T330 -19Q208 -19 140 40T73 204Q73 236 79 272ZM366 908Q389 908 403 893T418 857Q418 833 401 815T361 797Q338 797 323 811T308 848Q308 873 325 890T366 908ZM557 908Q579 908 593 893T608 857Q608 833 592 815T552 797Q529 797 514 811T499 848Q499 874 515 891T557 908Z" horiz-adv-x="725" unicode="Ü"/>
			<glyph d="M57 708H168L294 389L547 708H667L330 305L276 0H178L231 305ZM444 908H546L390 764H316Z" horiz-adv-x="568" unicode="Ý"/>
			<glyph d="M164 708H262L238 567H346Q450 567 511 521T573 389Q573 284 499 225T294 166H167L137 0H39ZM223 486L181 246H298Q382 246 428 281T474 380Q474 435 436 460T336 486Z" horiz-adv-x="600" unicode="Þ"/>
			<glyph d="M376 768Q430 768 475 749T548 691T575 599Q575 527 533 482T427 423L426 421Q485 407 524 360T563 242Q563 169 529 111T433 21T285 -11Q244 -11 213 -4L226 72Q250 66 281 66Q363 66 414 114T466 242Q466 302 426 341T321 380H308L321 457H335Q394 457 438 490T482 586Q482 634 451 662T372 690Q301 690 266 642T219 521L128 0H31L124 525Q143 634 201 701T376 768Z" horiz-adv-x="620" unicode="ß"/>
			<glyph d="M289 494Q371 494 420 456T470 345Q470 317 465 290L431 101Q421 43 421 0H336Q336 33 343 77H341Q282 -12 173 -12Q115 -12 69 18T24 113Q24 216 120 255T375 294Q379 318 379 335Q379 420 277 420Q239 420 194 404T123 367L103 439Q140 465 188 479T289 494ZM348 233Q112 233 112 128Q112 88 139 71T204 55Q267 55 308 98T362 203L368 233ZM156 712H258L364 568H291Z" unicode="à"/>
			<glyph d="M289 494Q371 494 420 456T470 345Q470 317 465 290L431 101Q421 43 421 0H336Q336 33 343 77H341Q282 -12 173 -12Q115 -12 69 18T24 113Q24 216 120 255T375 294Q379 318 379 335Q379 420 277 420Q239 420 194 404T123 367L103 439Q140 465 188 479T289 494ZM348 233Q112 233 112 128Q112 88 139 71T204 55Q267 55 308 98T362 203L368 233ZM386 712H488L332 568H258Z" unicode="á"/>
			<glyph d="M289 494Q371 494 420 456T470 345Q470 317 465 290L431 101Q421 43 421 0H336Q336 33 343 77H341Q282 -12 173 -12Q115 -12 69 18T24 113Q24 216 120 255T375 294Q379 318 379 335Q379 420 277 420Q239 420 194 404T123 367L103 439Q140 465 188 479T289 494ZM348 233Q112 233 112 128Q112 88 139 71T204 55Q267 55 308 98T362 203L368 233ZM298 712H391L476 568H400L338 672L239 568H159Z" unicode="â"/>
			<glyph d="M289 494Q371 494 420 456T470 345Q470 317 465 290L431 101Q421 43 421 0H336Q336 33 343 77H341Q282 -12 173 -12Q115 -12 69 18T24 113Q24 216 120 255T375 294Q379 318 379 335Q379 420 277 420Q239 420 194 404T123 367L103 439Q140 465 188 479T289 494ZM348 233Q112 233 112 128Q112 88 139 71T204 55Q267 55 308 98T362 203L368 233ZM446 688H493Q479 641 451 612T385 584Q356 584 315 607Q293 618 280 623T257 628Q224 628 206 582H159Q174 629 201 657T267 686Q285 686 300 680T335 664Q355 651 368 646T395 641Q413 641 425 653T446 688Z" unicode="ã"/>
			<glyph d="M289 494Q371 494 420 456T470 345Q470 317 465 290L431 101Q421 43 421 0H336Q336 33 343 77H341Q282 -12 173 -12Q115 -12 69 18T24 113Q24 216 120 255T375 294Q379 318 379 335Q379 420 277 420Q239 420 194 404T123 367L103 439Q140 465 188 479T289 494ZM348 233Q112 233 112 128Q112 88 139 71T204 55Q267 55 308 98T362 203L368 233ZM237 711Q260 711 274 697T289 661Q289 637 272 619T232 601Q209 601 194 615T179 652Q179 677 196 694T237 711ZM428 711Q450 711 464 697T479 661Q479 637 463 619T423 601Q400 601 385 615T370 652Q370 677 386 694T428 711Z" unicode="ä"/>
			<glyph d="M289 494Q371 494 420 456T470 345Q470 317 465 290L431 101Q421 43 421 0H336Q336 33 343 77H341Q282 -12 173 -12Q115 -12 69 18T24 113Q24 216 120 255T375 294Q379 318 379 335Q379 420 277 420Q239 420 194 404T123 367L103 439Q140 465 188 479T289 494ZM348 233Q112 233 112 128Q112 88 139 71T204 55Q267 55 308 98T362 203L368 233ZM342 756Q382 756 405 733T429 673Q429 624 398 590T318 556Q278 556 254 579T230 640Q230 688 261 722T342 756ZM339 725Q307 725 286 701T266 644Q266 619 280 603T321 588Q353 588 373 611T394 669Q394 693 379 709T339 725Z" unicode="å"/>
			<glyph d="M289 494Q355 494 395 468T445 396Q474 440 524 467T634 494Q729 494 782 441T836 298Q836 282 833 259T826 218H450L448 198Q448 136 490 98T598 60Q645 60 690 76T769 116L779 40Q744 16 695 1T589 -14Q513 -14 461 21T391 113Q367 59 315 23T188 -12Q122 -12 72 17T22 113Q22 212 116 246T373 280Q381 312 381 334Q381 378 354 399T279 420Q241 420 198 405T126 369L103 438Q143 465 191 479T289 494ZM628 424Q582 424 545 402T487 347T458 280H748Q750 300 750 310Q750 361 717 392T628 424ZM340 219Q232 219 171 198T111 126Q111 88 138 71T205 55Q269 55 309 96T362 198L366 219Z" horiz-adv-x="888" unicode="æ"/>
			<glyph d="M325 494Q379 494 424 475T494 422L431 365Q417 387 387 401T324 415Q269 415 224 386T155 310T130 207Q130 145 166 105T272 65Q347 65 399 117L446 57Q409 23 367 5T273 -15L222 -73Q237 -68 254 -68Q286 -68 312 -84T338 -137Q338 -186 298 -209T202 -233Q177 -233 146 -227T96 -211L117 -171Q134 -179 156 -183T199 -188Q231 -188 251 -176T271 -142Q271 -122 256 -113T221 -105Q209 -105 193 -107T167 -114L150 -95L222 -12Q135 -2 86 54T37 195Q37 274 73 342T176 452T325 494Z" horiz-adv-x="489" unicode="ç"/>
			<glyph d="M318 494Q413 494 466 441T520 298Q520 284 517 261T510 218H128L126 198Q126 135 168 98T280 61Q327 61 372 77T451 116L460 40Q425 16 375 1T264 -14Q161 -14 98 44T36 202Q36 281 72 348T173 454T318 494ZM311 424Q263 424 226 402T166 347T136 280H432Q434 300 434 310Q434 361 401 392T311 424ZM176 712H278L384 568H311Z" horiz-adv-x="571" unicode="è"/>
			<glyph d="M318 494Q413 494 466 441T520 298Q520 284 517 261T510 218H128L126 198Q126 135 168 98T280 61Q327 61 372 77T451 116L460 40Q425 16 375 1T264 -14Q161 -14 98 44T36 202Q36 281 72 348T173 454T318 494ZM311 424Q263 424 226 402T166 347T136 280H432Q434 300 434 310Q434 361 401 392T311 424ZM395 712H497L341 568H267Z" horiz-adv-x="571" unicode="é"/>
			<glyph d="M318 494Q413 494 466 441T520 298Q520 284 517 261T510 218H128L126 198Q126 135 168 98T280 61Q327 61 372 77T451 116L460 40Q425 16 375 1T264 -14Q161 -14 98 44T36 202Q36 281 72 348T173 454T318 494ZM311 424Q263 424 226 402T166 347T136 280H432Q434 300 434 310Q434 361 401 392T311 424ZM325 712H418L503 568H427L365 672L266 568H186Z" horiz-adv-x="571" unicode="ê"/>
			<glyph d="M318 494Q413 494 466 441T520 298Q520 284 517 261T510 218H128L126 198Q126 135 168 98T280 61Q327 61 372 77T451 116L460 40Q425 16 375 1T264 -14Q161 -14 98 44T36 202Q36 281 72 348T173 454T318 494ZM311 424Q263 424 226 402T166 347T136 280H432Q434 300 434 310Q434 361 401 392T311 424ZM264 711Q287 711 301 697T316 661Q316 637 299 619T259 601Q236 601 221 615T206 652Q206 677 223 694T264 711ZM455 711Q477 711 491 697T506 661Q506 637 490 619T450 601Q427 601 412 615T397 652Q397 677 413 694T455 711Z" horiz-adv-x="571" unicode="ë"/>
			<glyph d="M118 479H214L128 0H33ZM19 712H121L227 568H154Z" horiz-adv-x="262" unicode="ì"/>
			<glyph d="M118 479H214L128 0H33ZM255 712H357L201 568H127Z" horiz-adv-x="262" unicode="í"/>
			<glyph d="M118 479H214L128 0H33ZM163 712H256L341 568H265L203 672L104 568H24Z" horiz-adv-x="262" unicode="î"/>
			<glyph d="M118 479H214L128 0H33ZM99 711Q122 711 136 697T151 661Q151 637 134 619T94 601Q71 601 56 615T41 652Q41 677 58 694T99 711ZM290 711Q312 711 326 697T341 661Q341 637 325 619T285 601Q262 601 247 615T232 652Q232 677 248 694T290 711Z" horiz-adv-x="262" unicode="ï"/>
			<glyph d="M321 781Q366 745 399 705L516 758L562 714L440 658Q494 591 529 497T564 300Q564 217 531 145T433 30T276 -13Q206 -13 153 13T72 88T43 198Q43 277 77 344T176 451T326 492Q408 492 450 444L454 446Q440 495 412 544T354 625L235 571L194 615L313 669Q282 706 239 738ZM324 415Q269 415 226 386T160 310T137 207Q137 145 174 105T280 65Q335 65 378 93T444 169T468 273Q468 335 430 375T324 415Z" horiz-adv-x="611" unicode="ð"/>
			<glyph d="M364 493Q440 493 478 450T517 339Q517 307 512 284L462 0H367L414 269Q419 294 419 315Q419 358 396 386T325 414Q269 414 227 368T171 241L128 0H33L98 371Q110 436 113 479H205Q202 445 193 388H195Q222 437 266 465T364 493ZM471 688H518Q504 641 476 612T410 584Q381 584 340 607Q318 618 305 623T282 628Q249 628 231 582H184Q199 629 226 657T292 686Q310 686 325 680T360 664Q380 651 393 646T420 641Q438 641 450 653T471 688Z" horiz-adv-x="591" unicode="ñ"/>
			<glyph d="M322 494Q392 494 445 467T527 393T556 282Q556 202 520 134T419 27T269 -13Q199 -13 146 13T65 88T36 198Q36 277 71 345T172 453T322 494ZM318 414Q263 414 220 385T153 309T130 207Q130 145 167 105T273 66Q328 66 371 94T437 169T461 273Q461 335 423 374T318 414ZM195 712H297L403 568H330Z" horiz-adv-x="611" unicode="ò"/>
			<glyph d="M322 494Q392 494 445 467T527 393T556 282Q556 202 520 134T419 27T269 -13Q199 -13 146 13T65 88T36 198Q36 277 71 345T172 453T322 494ZM318 414Q263 414 220 385T153 309T130 207Q130 145 167 105T273 66Q328 66 371 94T437 169T461 273Q461 335 423 374T318 414ZM409 712H511L355 568H281Z" horiz-adv-x="611" unicode="ó"/>
			<glyph d="M322 494Q392 494 445 467T527 393T556 282Q556 202 520 134T419 27T269 -13Q199 -13 146 13T65 88T36 198Q36 277 71 345T172 453T322 494ZM318 414Q263 414 220 385T153 309T130 207Q130 145 167 105T273 66Q328 66 371 94T437 169T461 273Q461 335 423 374T318 414ZM336 712H429L514 568H438L376 672L277 568H197Z" horiz-adv-x="611" unicode="ô"/>
			<glyph d="M322 494Q392 494 445 467T527 393T556 282Q556 202 520 134T419 27T269 -13Q199 -13 146 13T65 88T36 198Q36 277 71 345T172 453T322 494ZM318 414Q263 414 220 385T153 309T130 207Q130 145 167 105T273 66Q328 66 371 94T437 169T461 273Q461 335 423 374T318 414ZM480 688H527Q513 641 485 612T419 584Q390 584 349 607Q327 618 314 623T291 628Q258 628 240 582H193Q208 629 235 657T301 686Q319 686 334 680T369 664Q389 651 402 646T429 641Q447 641 459 653T480 688Z" horiz-adv-x="611" unicode="õ"/>
			<glyph d="M322 494Q392 494 445 467T527 393T556 282Q556 202 520 134T419 27T269 -13Q199 -13 146 13T65 88T36 198Q36 277 71 345T172 453T322 494ZM318 414Q263 414 220 385T153 309T130 207Q130 145 167 105T273 66Q328 66 371 94T437 169T461 273Q461 335 423 374T318 414ZM272 711Q295 711 309 697T324 661Q324 637 307 619T267 601Q244 601 229 615T214 652Q214 677 231 694T272 711ZM463 711Q485 711 499 697T514 661Q514 637 498 619T458 601Q435 601 420 615T405 652Q405 677 421 694T463 711Z" horiz-adv-x="611" unicode="ö"/>
			<glyph d="M333 541Q359 541 377 522T396 478Q396 453 377 434T333 416Q307 416 288 434T270 478Q270 504 288 522T333 541ZM84 342H582V265H84ZM333 190Q359 190 377 171T396 128Q396 102 377 83T333 65Q307 65 288 83T270 128Q270 154 288 172T333 190Z" horiz-adv-x="666" unicode="÷"/>
			<glyph d="M561 505L592 469L518 404Q556 354 556 282Q556 202 520 134T419 27T269 -13Q218 -13 176 1T105 43L26 -25L-5 12L72 78Q36 130 36 199Q36 277 71 345T172 453T322 494Q423 494 484 439ZM318 416Q262 416 219 388T153 312T130 211Q130 167 146 142L417 380Q381 416 318 416ZM444 342L171 104Q208 64 274 64Q330 64 372 92T438 168T462 270Q462 312 444 342Z" horiz-adv-x="611" unicode="ø"/>
			<glyph d="M105 479H201L153 210Q148 185 148 165Q148 121 170 93T243 66Q300 66 341 112T397 239L440 479H535L469 108Q457 42 454 0H363Q367 40 375 91H372Q345 42 300 14T203 -13Q128 -13 89 29T50 141Q50 163 55 195ZM163 712H265L371 568H298Z" horiz-adv-x="590" unicode="ù"/>
			<glyph d="M105 479H201L153 210Q148 185 148 165Q148 121 170 93T243 66Q300 66 341 112T397 239L440 479H535L469 108Q457 42 454 0H363Q367 40 375 91H372Q345 42 300 14T203 -13Q128 -13 89 29T50 141Q50 163 55 195ZM400 712H502L346 568H272Z" horiz-adv-x="590" unicode="ú"/>
			<glyph d="M105 479H201L153 210Q148 185 148 165Q148 121 170 93T243 66Q300 66 341 112T397 239L440 479H535L469 108Q457 42 454 0H363Q367 40 375 91H372Q345 42 300 14T203 -13Q128 -13 89 29T50 141Q50 163 55 195ZM316 712H409L494 568H418L356 672L257 568H177Z" horiz-adv-x="590" unicode="û"/>
			<glyph d="M105 479H201L153 210Q148 185 148 165Q148 121 170 93T243 66Q300 66 341 112T397 239L440 479H535L469 108Q457 42 454 0H363Q367 40 375 91H372Q345 42 300 14T203 -13Q128 -13 89 29T50 141Q50 163 55 195ZM255 711Q278 711 292 697T307 661Q307 637 290 619T250 601Q227 601 212 615T197 652Q197 677 214 694T255 711ZM446 711Q468 711 482 697T497 661Q497 637 481 619T441 601Q418 601 403 615T388 652Q388 677 404 694T446 711Z" horiz-adv-x="590" unicode="ü"/>
			<glyph d="M47 479H150L219 98L422 479H525L203 -87Q162 -164 110 -198T-19 -240L-38 -158Q20 -153 55 -133T116 -68L153 -4ZM375 712H477L321 568H247Z" horiz-adv-x="498" unicode="ý"/>
			<glyph d="M261 758L196 394H199Q225 438 273 465T377 492Q442 492 489 465T560 391T585 283Q585 203 550 135T454 27T314 -13Q254 -13 209 14T145 89H142L85 -240H-10L165 753ZM349 414Q298 414 255 385T188 308T164 205Q164 144 202 104T303 64Q358 64 400 92T466 168T489 272Q489 334 452 374T349 414Z" horiz-adv-x="641" unicode="þ"/>
			<glyph d="M47 479H150L219 98L422 479H525L203 -87Q162 -164 110 -198T-19 -240L-38 -158Q20 -153 55 -133T116 -68L153 -4ZM221 711Q244 711 258 697T273 661Q273 637 256 619T216 601Q193 601 178 615T163 652Q163 677 180 694T221 711ZM412 711Q434 711 448 697T463 661Q463 637 447 619T407 601Q384 601 369 615T354 652Q354 677 370 694T412 711Z" horiz-adv-x="498" unicode="ÿ"/>
			<glyph d="M392 708H492L626 0H522L482 226H192L53 0H-61ZM421 603L237 307H471ZM321 860H608L598 805H312Z" horiz-adv-x="680" unicode="Ā"/>
			<glyph d="M289 494Q371 494 420 456T470 345Q470 317 465 290L431 101Q421 43 421 0H336Q336 33 343 77H341Q282 -12 173 -12Q115 -12 69 18T24 113Q24 216 120 255T375 294Q379 318 379 335Q379 420 277 420Q239 420 194 404T123 367L103 439Q140 465 188 479T289 494ZM348 233Q112 233 112 128Q112 88 139 71T204 55Q267 55 308 98T362 203L368 233ZM186 664H473L463 608H177Z" unicode="ā"/>
			<glyph d="M392 708H492L626 0H522L482 226H192L53 0H-61ZM421 603L237 307H471ZM311 904H364Q364 865 387 845T449 826Q540 826 562 904H614Q599 838 554 803T446 769Q384 769 347 803T311 904Z" horiz-adv-x="680" unicode="Ă"/>
			<glyph d="M289 494Q371 494 420 456T470 345Q470 317 465 290L431 101Q421 43 421 0H336Q336 33 343 77H341Q282 -12 173 -12Q115 -12 69 18T24 113Q24 216 120 255T375 294Q379 318 379 335Q379 420 277 420Q239 420 194 404T123 367L103 439Q140 465 188 479T289 494ZM348 233Q112 233 112 128Q112 88 139 71T204 55Q267 55 308 98T362 203L368 233ZM174 708H227Q227 669 250 649T312 630Q403 630 425 708H477Q462 642 417 607T309 573Q247 573 210 607T174 708Z" unicode="ă"/>
			<glyph d="M392 708H492L626 0H580Q521 -47 495 -78T469 -139Q469 -157 480 -166T511 -175Q544 -175 574 -152L588 -193Q541 -229 487 -229Q450 -229 425 -211T401 -156Q401 -116 432 -79T522 0L492 171H159L53 0H-61ZM421 603L203 252H480Z" horiz-adv-x="680" unicode="Ą"/>
			<glyph d="M289 494Q371 494 420 456T470 345Q470 317 465 290L431 101Q421 43 421 0H408Q349 -48 322 -78T296 -139Q296 -157 307 -166T338 -175Q371 -175 401 -152L415 -193Q368 -229 314 -229Q276 -229 252 -211T228 -156Q228 -116 259 -79T348 0H336Q336 33 343 77H341Q282 -12 173 -12Q115 -12 69 18T24 113Q24 216 120 255T375 294Q379 318 379 335Q379 420 277 420Q239 420 194 404T123 367L103 439Q140 465 188 479T289 494ZM348 233Q112 233 112 128Q112 88 139 71T204 55Q267 55 308 98T362 203L368 233Z" unicode="ą"/>
			<glyph d="M480 727Q551 727 617 703T719 647L679 558Q647 592 593 615T477 639Q389 639 318 591T207 466T167 300Q167 235 192 183T269 100T395 70Q458 70 517 95T623 161L626 68Q584 31 518 6T382 -19Q282 -19 209 19T99 127T61 288Q61 409 117 510T269 669T480 727ZM548 908H650L494 764H420Z" horiz-adv-x="704" unicode="Ć"/>
			<glyph d="M325 494Q370 494 414 478T488 438L449 367Q424 388 389 401T324 415Q269 415 224 386T155 310T130 207Q130 145 166 105T272 65Q312 65 350 79T418 119L432 41Q404 16 358 0T260 -15Q191 -15 140 11T63 85T37 195Q37 274 73 342T176 452T325 494ZM403 712H505L349 568H275Z" horiz-adv-x="489" unicode="ć"/>
			<glyph d="M480 727Q551 727 617 703T719 647L679 558Q647 592 593 615T477 639Q389 639 318 591T207 466T167 300Q167 235 192 183T269 100T395 70Q458 70 517 95T623 161L626 68Q584 31 518 6T382 -19Q282 -19 209 19T99 127T61 288Q61 409 117 510T269 669T480 727ZM476 908H569L654 764H578L516 868L417 764H337Z" horiz-adv-x="704" unicode="Ĉ"/>
			<glyph d="M325 494Q370 494 414 478T488 438L449 367Q424 388 389 401T324 415Q269 415 224 386T155 310T130 207Q130 145 166 105T272 65Q312 65 350 79T418 119L432 41Q404 16 358 0T260 -15Q191 -15 140 11T63 85T37 195Q37 274 73 342T176 452T325 494ZM328 712H421L506 568H430L368 672L269 568H189Z" horiz-adv-x="489" unicode="ĉ"/>
			<glyph d="M480 727Q551 727 617 703T719 647L679 558Q647 592 593 615T477 639Q389 639 318 591T207 466T167 300Q167 235 192 183T269 100T395 70Q458 70 517 95T623 161L626 68Q584 31 518 6T382 -19Q282 -19 209 19T99 127T61 288Q61 409 117 510T269 669T480 727ZM514 908Q537 908 552 893T567 857Q567 832 550 814T509 796Q485 796 469 810T454 848Q454 873 471 890T514 908Z" horiz-adv-x="704" unicode="Ċ"/>
			<glyph d="M325 494Q370 494 414 478T488 438L449 367Q424 388 389 401T324 415Q269 415 224 386T155 310T130 207Q130 145 166 105T272 65Q312 65 350 79T418 119L432 41Q404 16 358 0T260 -15Q191 -15 140 11T63 85T37 195Q37 274 73 342T176 452T325 494ZM361 712Q384 712 399 697T414 661Q414 636 397 618T356 600Q332 600 316 614T301 652Q301 677 318 694T361 712Z" horiz-adv-x="489" unicode="ċ"/>
			<glyph d="M480 727Q551 727 617 703T719 647L679 558Q647 592 593 615T477 639Q389 639 318 591T207 466T167 300Q167 235 192 183T269 100T395 70Q458 70 517 95T623 161L626 68Q584 31 518 6T382 -19Q282 -19 209 19T99 127T61 288Q61 409 117 510T269 669T480 727ZM360 908H438L498 803L598 908H678L539 764H446Z" horiz-adv-x="704" unicode="Č"/>
			<glyph d="M325 494Q370 494 414 478T488 438L449 367Q424 388 389 401T324 415Q269 415 224 386T155 310T130 207Q130 145 166 105T272 65Q312 65 350 79T418 119L432 41Q404 16 358 0T260 -15Q191 -15 140 11T63 85T37 195Q37 274 73 342T176 452T325 494ZM206 712H284L344 607L444 712H524L385 568H292Z" horiz-adv-x="489" unicode="č"/>
			<glyph d="M164 708H391Q480 708 556 675T679 576T726 412Q726 283 668 190T509 48T284 0H39ZM247 623L152 86H288Q388 86 464 125T581 235T623 400Q623 501 556 562T371 623ZM282 908H360L420 803L520 908H600L461 764H368Z" horiz-adv-x="769" unicode="Ď"/>
			<glyph d="M636 759L502 0H413L429 87H427Q400 42 351 14T243 -13Q146 -13 91 45T36 196Q36 276 70 344T167 453T307 493Q366 493 411 465T475 390H478L539 745ZM317 415Q263 415 220 386T154 310T131 207Q131 145 168 105T272 65Q323 65 365 94T431 171T455 274Q455 335 417 375T317 415ZM735 708H823L708 517H634Z" horiz-adv-x="714" unicode="ď"/>
			<glyph d="M164 708H391Q480 708 556 675T679 576T726 413Q726 284 668 190T509 48T284 0H39L97 333H31L43 400H109ZM247 623L207 400H425L414 333H195L152 86H288Q388 86 464 125T581 235T623 400Q623 501 556 562T371 623Z" horiz-adv-x="769" unicode="Đ"/>
			<glyph d="M636 758L613 627H670L659 570H603L502 0H413L429 87H427Q400 42 351 14T243 -13Q146 -13 91 45T36 196Q36 276 70 344T167 453T307 493Q366 493 411 465T475 390H478L508 570H332L343 627H518L540 753ZM317 415Q263 415 220 386T154 310T131 207Q131 145 168 105T272 65Q323 65 365 94T432 171T456 274Q456 335 418 375T317 415Z" horiz-adv-x="637" unicode="đ"/>
			<glyph d="M164 708H565L535 623H244L205 405H492L463 324H191L150 86H484L454 0H39ZM245 860H532L522 805H236Z" horiz-adv-x="551" unicode="Ē"/>
			<glyph d="M318 494Q413 494 466 441T520 298Q520 284 517 261T510 218H128L126 198Q126 135 168 98T280 61Q327 61 372 77T451 116L460 40Q425 16 375 1T264 -14Q161 -14 98 44T36 202Q36 281 72 348T173 454T318 494ZM311 424Q263 424 226 402T166 347T136 280H432Q434 300 434 310Q434 361 401 392T311 424ZM213 664H500L490 608H204Z" horiz-adv-x="571" unicode="ē"/>
			<glyph d="M164 708H565L535 623H244L205 405H492L463 324H191L150 86H484L454 0H39ZM245 904H298Q298 865 321 845T383 826Q474 826 496 904H548Q533 838 488 803T380 769Q318 769 281 803T245 904Z" horiz-adv-x="551" unicode="Ĕ"/>
			<glyph d="M318 494Q413 494 466 441T520 298Q520 284 517 261T510 218H128L126 198Q126 135 168 98T280 61Q327 61 372 77T451 116L460 40Q425 16 375 1T264 -14Q161 -14 98 44T36 202Q36 281 72 348T173 454T318 494ZM311 424Q263 424 226 402T166 347T136 280H432Q434 300 434 310Q434 361 401 392T311 424ZM203 708H256Q256 669 279 649T341 630Q432 630 454 708H506Q491 642 446 607T338 573Q276 573 239 607T203 708Z" horiz-adv-x="571" unicode="ĕ"/>
			<glyph d="M164 708H565L535 623H244L205 405H492L463 324H191L150 86H484L454 0H39ZM389 908Q412 908 427 893T442 857Q442 832 425 814T384 796Q360 796 344 810T329 848Q329 873 346 890T389 908Z" horiz-adv-x="551" unicode="Ė"/>
			<glyph d="M318 494Q413 494 466 441T520 298Q520 284 517 261T510 218H128L126 198Q126 135 168 98T280 61Q327 61 372 77T451 116L460 40Q425 16 375 1T264 -14Q161 -14 98 44T36 202Q36 281 72 348T173 454T318 494ZM311 424Q263 424 226 402T166 347T136 280H432Q434 300 434 310Q434 361 401 392T311 424ZM356 712Q379 712 394 697T409 661Q409 636 392 618T351 600Q327 600 311 614T296 652Q296 677 313 694T356 712Z" horiz-adv-x="571" unicode="ė"/>
			<glyph d="M164 708H561L546 623H244L205 405H494L465 324H191L150 86H481L465 0H442Q383 -48 356 -78T330 -139Q330 -157 341 -166T373 -175Q407 -175 435 -152L450 -193Q401 -229 349 -229Q311 -229 286 -211T262 -156Q262 -116 293 -79T383 0H39Z" horiz-adv-x="568" unicode="Ę"/>
			<glyph d="M318 494Q413 494 466 441T520 298Q520 284 517 261T510 218H128L126 198Q126 135 168 98T280 61Q327 61 372 77T451 116L460 40Q396 -4 303 -12Q252 -55 229 -83T206 -139Q206 -156 218 -165T249 -175Q265 -175 281 -169T312 -152L326 -193Q279 -229 225 -229Q187 -229 162 -211T138 -156Q138 -119 165 -85T242 -13Q149 -7 92 50T36 202Q36 281 72 348T173 454T318 494ZM311 424Q263 424 226 402T166 347T136 280H432Q434 300 434 310Q434 361 401 392T311 424Z" horiz-adv-x="571" unicode="ę"/>
			<glyph d="M164 708H565L535 623H244L205 405H492L463 324H191L150 86H484L454 0H39ZM241 908H319L379 803L479 908H559L420 764H327Z" horiz-adv-x="551" unicode="Ě"/>
			<glyph d="M318 494Q413 494 466 441T520 298Q520 284 517 261T510 218H128L126 198Q126 135 168 98T280 61Q327 61 372 77T451 116L460 40Q425 16 375 1T264 -14Q161 -14 98 44T36 202Q36 281 72 348T173 454T318 494ZM311 424Q263 424 226 402T166 347T136 280H432Q434 300 434 310Q434 361 401 392T311 424ZM206 712H284L344 607L444 712H524L385 568H292Z" horiz-adv-x="571" unicode="ě"/>
			<glyph d="M478 727Q551 727 617 705T728 651L690 570Q651 600 594 620T476 640Q389 640 317 592T205 467T164 300Q164 233 190 180T269 97T398 67Q445 68 487 77T560 104L594 303H430L460 385H702L642 44Q591 14 524 -2T387 -19Q286 -19 212 19T100 126T61 288Q61 406 116 507T266 667T478 727ZM471 908H564L649 764H573L511 868L412 764H332Z" horiz-adv-x="760" unicode="Ĝ"/>
			<glyph d="M310 493Q370 493 415 465T480 389H483L498 479H589L510 32Q487 -98 420 -171T221 -244Q158 -244 100 -225T6 -177L35 -94Q71 -126 118 -145T220 -165Q311 -165 355 -114T416 24L428 87H426Q400 44 353 18T249 -8Q151 -8 95 49T40 199Q40 278 74 345T170 453T310 493ZM321 415Q266 415 223 387T157 312T134 209Q134 148 171 107T276 67Q327 67 369 96T435 173T460 275Q460 336 422 375T321 415ZM347 712H440L525 568H449L387 672L288 568H208Z" horiz-adv-x="637" unicode="ĝ"/>
			<glyph d="M478 727Q551 727 617 705T728 651L690 570Q651 600 594 620T476 640Q389 640 317 592T205 467T164 300Q164 233 190 180T269 97T398 67Q445 68 487 77T560 104L594 303H430L460 385H702L642 44Q591 14 524 -2T387 -19Q286 -19 212 19T100 126T61 288Q61 406 116 507T266 667T478 727ZM354 904H407Q407 865 430 845T492 826Q583 826 605 904H657Q642 838 597 803T489 769Q427 769 390 803T354 904Z" horiz-adv-x="760" unicode="Ğ"/>
			<glyph d="M310 493Q370 493 415 465T480 389H483L498 479H589L510 32Q487 -98 420 -171T221 -244Q158 -244 100 -225T6 -177L35 -94Q71 -126 118 -145T220 -165Q311 -165 355 -114T416 24L428 87H426Q400 44 353 18T249 -8Q151 -8 95 49T40 199Q40 278 74 345T170 453T310 493ZM321 415Q266 415 223 387T157 312T134 209Q134 148 171 107T276 67Q327 67 369 96T435 173T460 275Q460 336 422 375T321 415ZM229 708H282Q282 669 305 649T367 630Q458 630 480 708H532Q517 642 472 607T364 573Q302 573 265 607T229 708Z" horiz-adv-x="637" unicode="ğ"/>
			<glyph d="M478 727Q551 727 617 705T728 651L690 570Q651 600 594 620T476 640Q389 640 317 592T205 467T164 300Q164 233 190 180T269 97T398 67Q445 68 487 77T560 104L594 303H430L460 385H702L642 44Q591 14 524 -2T387 -19Q286 -19 212 19T100 126T61 288Q61 406 116 507T266 667T478 727ZM511 908Q534 908 549 893T564 857Q564 832 547 814T506 796Q482 796 466 810T451 848Q451 873 468 890T511 908Z" horiz-adv-x="760" unicode="Ġ"/>
			<glyph d="M310 493Q370 493 415 465T480 389H483L498 479H589L510 32Q487 -98 420 -171T221 -244Q158 -244 100 -225T6 -177L35 -94Q71 -126 118 -145T220 -165Q311 -165 355 -114T416 24L428 87H426Q400 44 353 18T249 -8Q151 -8 95 49T40 199Q40 278 74 345T170 453T310 493ZM321 415Q266 415 223 387T157 312T134 209Q134 148 171 107T276 67Q327 67 369 96T435 173T460 275Q460 336 422 375T321 415ZM378 712Q401 712 416 697T431 661Q431 636 414 618T373 600Q349 600 333 614T318 652Q318 677 335 694T378 712Z" horiz-adv-x="637" unicode="ġ"/>
			<glyph d="M478 727Q551 727 617 705T728 651L690 570Q651 600 594 620T476 640Q389 640 317 592T205 467T164 300Q164 233 190 180T269 97T398 67Q445 68 487 77T560 104L594 303H430L460 385H702L642 44Q591 14 524 -2T387 -19Q286 -19 212 19T100 126T61 288Q61 406 116 507T266 667T478 727ZM341 -44H429L314 -235H240Z" horiz-adv-x="760" unicode="Ģ"/>
			<glyph d="M310 493Q370 493 415 465T480 389H483L498 479H589L510 32Q487 -98 420 -171T221 -244Q158 -244 100 -225T6 -177L35 -94Q71 -126 118 -145T220 -165Q311 -165 355 -114T416 24L428 87H426Q400 44 353 18T249 -8Q151 -8 95 49T40 199Q40 278 74 345T170 453T310 493ZM321 415Q266 415 223 387T157 312T134 209Q134 148 171 107T276 67Q327 67 369 96T435 173T460 275Q460 336 422 375T321 415ZM419 759H493L392 568H304Z" horiz-adv-x="637" unicode="ģ"/>
			<glyph d="M164 708H262L209 410H604L657 708H756L631 0H532L590 325H195L137 0H39ZM430 908H523L608 764H532L470 868L371 764H291Z" horiz-adv-x="770" unicode="Ĥ"/>
			<glyph d="M262 759L198 395H200Q226 440 269 466T364 493Q440 493 478 450T517 339Q517 307 512 284L462 0H367L414 269Q419 294 419 314Q419 358 396 386T325 414Q269 414 227 367T171 240L128 0H33L164 745ZM354 940H447L532 796H456L394 900L295 796H215Z" horiz-adv-x="591" unicode="ĥ"/>
			<glyph d="M164 708H262L236 557H630L657 708H756L631 0H532L590 325H195L137 0H39ZM225 500L209 410H604L620 500Z" horiz-adv-x="770" unicode="Ħ"/>
			<glyph d="M261 759L239 627H410L400 570H229L198 392H200Q225 439 268 466T364 493Q439 493 478 451T518 344Q518 314 513 291L462 0H367L414 269Q419 296 419 317Q419 360 396 387T325 414Q268 414 227 369T173 250L128 0H33L133 570H73L83 627H143L164 745Z" horiz-adv-x="591" unicode="ħ"/>
			<glyph d="M164 708H263L138 0H39ZM352 884H399Q385 837 357 808T291 780Q266 780 220 803Q181 825 163 825Q129 825 112 778H65Q80 825 107 853T173 882Q191 882 206 876T241 860Q261 848 274 843T301 838Q319 838 331 849T352 884Z" horiz-adv-x="277" unicode="Ĩ"/>
			<glyph d="M118 479H214L128 0H33ZM310 688H357Q343 641 315 612T249 584Q220 584 179 607Q157 618 144 623T121 628Q88 628 70 582H23Q38 629 65 657T131 686Q149 686 164 680T199 664Q219 651 232 646T259 641Q277 641 289 653T310 688Z" horiz-adv-x="262" unicode="ĩ"/>
			<glyph d="M164 708H263L138 0H39ZM91 860H378L368 805H82Z" horiz-adv-x="277" unicode="Ī"/>
			<glyph d="M118 479H214L128 0H33ZM50 664H337L327 608H41Z" horiz-adv-x="262" unicode="ī"/>
			<glyph d="M164 708H263L138 0H39ZM95 904H148Q148 865 171 845T233 826Q324 826 346 904H398Q383 838 338 803T230 769Q168 769 131 803T95 904Z" horiz-adv-x="277" unicode="Ĭ"/>
			<glyph d="M118 479H214L128 0H33ZM53 708H106Q106 669 129 649T191 630Q282 630 304 708H356Q341 642 296 607T188 573Q126 573 89 607T53 708Z" horiz-adv-x="262" unicode="ĭ"/>
			<glyph d="M164 708H263L138 0H134Q75 -48 48 -78T22 -139Q22 -157 33 -166T64 -175Q97 -175 127 -152L141 -193Q94 -229 40 -229Q2 -229 -22 -211T-46 -156Q-46 -116 -15 -79T74 0H39Z" horiz-adv-x="277" unicode="Į"/>
			<glyph d="M195 715Q219 715 235 699T251 661Q251 635 233 616T190 597Q166 597 149 612T133 651Q133 677 151 696T195 715ZM118 479H214L128 0H123Q64 -48 37 -78T11 -139Q11 -156 23 -165T54 -175Q86 -175 116 -152L131 -193Q82 -229 30 -229Q-8 -229 -32 -211T-57 -156Q-57 -116 -25 -79T64 0H33Z" horiz-adv-x="262" unicode="į"/>
			<glyph d="M164 708H263L138 0H39ZM237 908Q260 908 275 893T290 857Q290 832 273 814T232 796Q208 796 192 810T177 848Q177 873 194 890T237 908Z" horiz-adv-x="277" unicode="İ"/>
			<glyph d="M118 479H214L128 0H33Z" horiz-adv-x="262" unicode="ı"/>
			<glyph d="M164 708H263L138 0H39ZM563 708H663L576 217Q534 -18 340 -18Q304 -18 284 -12L270 79Q303 70 341 70Q451 70 478 219Z" horiz-adv-x="672" unicode="Ĳ"/>
			<glyph d="M195 715Q219 715 235 699T251 661Q251 635 233 616T190 597Q166 597 149 612T133 651Q133 677 151 696T195 715ZM118 479H214L128 0H33ZM459 715Q483 715 498 699T514 661Q514 635 496 616T454 597Q429 597 413 612T397 651Q397 677 415 696T459 715ZM381 479H477L382 -59Q366 -145 327 -193T201 -242Q177 -242 149 -236L166 -156Q184 -161 198 -161Q241 -161 260 -134T287 -58Z" horiz-adv-x="526" unicode="ĳ"/>
			<glyph d="M286 708H386L299 217Q257 -18 63 -18Q27 -18 7 -12L-7 79Q26 70 64 70Q174 70 201 219ZM316 908H409L494 764H418L356 868L257 764H177Z" horiz-adv-x="395" unicode="Ĵ"/>
			<glyph d="M119 479H215L120 -59Q104 -145 65 -193T-61 -242Q-85 -242 -113 -236L-96 -156Q-78 -161 -64 -161Q-21 -161 -2 -134T25 -58ZM161 712H254L339 568H263L201 672L102 568H22Z" horiz-adv-x="264" unicode="ĵ"/>
			<glyph d="M164 708H261L206 398L543 708H672L300 376L579 0H455L199 358L136 0H39ZM241 -45H329L214 -236H140Z" horiz-adv-x="609" unicode="Ķ"/>
			<glyph d="M262 759L177 272H179L406 479H530L271 255L463 0H359L175 247H173L129 0H34L165 745ZM190 -44H278L163 -235H89Z" horiz-adv-x="509" unicode="ķ"/>
			<glyph d="M118 479H213L177 272H179L406 479H530L271 255L463 0H359L175 247H173L129 0H34Z" horiz-adv-x="509" unicode="ĸ"/>
			<glyph d="M164 708H263L153 86H461L431 0H39ZM309 908H411L255 764H181Z" horiz-adv-x="508" unicode="Ĺ"/>
			<glyph d="M266 767L159 160Q155 136 155 124Q155 103 163 88T191 60L127 -14Q93 2 73 32T54 106Q54 121 58 145L165 753ZM299 936H401L245 792H171Z" horiz-adv-x="263" unicode="ĺ"/>
			<glyph d="M164 708H263L153 86H461L431 0H39ZM201 -45H289L174 -236H100Z" horiz-adv-x="508" unicode="Ļ"/>
			<glyph d="M266 767L159 160Q155 136 155 124Q155 103 163 88T191 60L127 -14Q93 2 73 32T54 106Q54 121 58 145L165 753ZM57 -46H145L30 -237H-44Z" horiz-adv-x="263" unicode="ļ"/>
			<glyph d="M164 708H263L153 86H461L431 0H39ZM406 708H494L379 517H305Z" horiz-adv-x="508" unicode="Ľ"/>
			<glyph d="M266 767L159 160Q155 136 155 124Q155 103 163 88T191 60L127 -14Q93 2 73 32T54 106Q54 121 58 145L165 753ZM373 708H461L346 517H272Z" horiz-adv-x="335" unicode="ľ"/>
			<glyph d="M164 708H263L153 86H461L431 0H39ZM416 469Q439 469 454 454T469 418Q469 393 452 375T411 357Q387 357 371 371T356 409Q356 434 373 451T416 469Z" horiz-adv-x="508" unicode="Ŀ"/>
			<glyph d="M266 767L159 160Q155 136 155 124Q155 103 163 88T191 60L127 -14Q93 2 73 32T54 106Q54 121 58 145L165 753ZM341 490Q364 490 379 475T394 439Q394 414 377 396T336 378Q312 378 296 392T281 430Q281 455 298 472T341 490Z" horiz-adv-x="357" unicode="ŀ"/>
			<glyph d="M163 708H263L205 380L438 557L422 470L189 292L154 87H461L441 0H38L77 218L-1 158L15 246L93 305Z" horiz-adv-x="508" unicode="Ł"/>
			<glyph d="M266 767L215 480L295 541L279 453L199 392L159 160Q155 134 155 126Q155 103 163 88T191 60L127 -14Q93 2 73 32T54 106Q54 121 58 145L86 304L15 250L30 339L102 394L165 753Z" horiz-adv-x="263" unicode="ł"/>
			<glyph d="M164 708H278L549 141H551L649 708H747L622 0H509L238 570H236L137 0H39ZM524 908H626L470 764H396Z" horiz-adv-x="768" unicode="Ń"/>
			<glyph d="M364 493Q440 493 478 450T517 339Q517 307 512 284L462 0H367L414 269Q419 294 419 315Q419 358 396 386T325 414Q269 414 227 368T171 241L128 0H33L98 371Q110 436 113 479H205Q202 445 193 388H195Q222 437 266 465T364 493ZM398 712H500L344 568H270Z" horiz-adv-x="591" unicode="ń"/>
			<glyph d="M164 708H278L549 141H551L649 708H747L622 0H509L238 570H236L137 0H39ZM293 -45H381L266 -236H192Z" horiz-adv-x="768" unicode="Ņ"/>
			<glyph d="M364 493Q440 493 478 450T517 339Q517 307 512 284L462 0H367L414 269Q419 294 419 315Q419 358 396 386T325 414Q269 414 227 368T171 241L128 0H33L98 371Q110 436 113 479H205Q202 445 193 388H195Q222 437 266 465T364 493ZM217 -44H305L190 -235H116Z" horiz-adv-x="591" unicode="ņ"/>
			<glyph d="M164 708H278L549 141H551L649 708H747L622 0H509L238 570H236L137 0H39ZM327 908H405L465 803L565 908H645L506 764H413Z" horiz-adv-x="768" unicode="Ň"/>
			<glyph d="M364 493Q440 493 478 450T517 339Q517 307 512 284L462 0H367L414 269Q419 294 419 315Q419 358 396 386T325 414Q269 414 227 368T171 241L128 0H33L98 371Q110 436 113 479H205Q202 445 193 388H195Q222 437 266 465T364 493ZM201 712H279L339 607L439 712H519L380 568H287Z" horiz-adv-x="591" unicode="ň"/>
			<glyph d="M405 493Q481 493 519 450T558 339Q558 307 553 284L503 0H408L455 269Q460 294 460 315Q460 358 437 386T366 414Q310 414 268 368T212 241L169 0H74L139 371Q151 436 154 479H246Q243 445 234 388H236Q263 437 307 465T405 493ZM172 708H260L145 517H71Z" horiz-adv-x="632" unicode="ŉ"/>
			<glyph d="M164 708H279L552 154H554L650 708H748L612 -59Q597 -145 558 -193T431 -242Q407 -242 379 -236L396 -156Q413 -161 428 -161Q471 -161 489 -134T517 -58L525 -10L238 570H236L137 0H39Z" horiz-adv-x="768" unicode="Ŋ"/>
			<glyph d="M364 493Q439 493 478 451T518 344Q518 314 513 291L452 -59Q436 -145 396 -193T271 -242Q246 -242 218 -236L235 -156Q253 -161 267 -161Q310 -161 328 -134T357 -58L414 269Q419 296 419 317Q419 360 396 387T325 414Q268 414 227 369T173 251L128 0H33L98 371Q110 436 113 479H205Q202 445 193 388H195Q222 437 266 465T364 493Z" horiz-adv-x="591" unicode="ŋ"/>
			<glyph d="M475 727Q577 727 651 687T765 577T804 414Q804 297 751 197T605 39T392 -19Q289 -19 214 20T100 130T61 293Q61 411 114 510T261 668T475 727ZM469 639Q380 639 310 591T202 466T164 302Q164 236 190 183T269 100T397 70Q487 70 556 117T663 241T701 407Q701 472 674 525T596 608T469 639ZM375 860H662L652 805H366Z" horiz-adv-x="846" unicode="Ō"/>
			<glyph d="M322 494Q392 494 445 467T527 393T556 282Q556 202 520 134T419 27T269 -13Q199 -13 146 13T65 88T36 198Q36 277 71 345T172 453T322 494ZM318 414Q263 414 220 385T153 309T130 207Q130 145 167 105T273 66Q328 66 371 94T437 169T461 273Q461 335 423 374T318 414ZM223 664H510L500 608H214Z" horiz-adv-x="611" unicode="ō"/>
			<glyph d="M475 727Q577 727 651 687T765 577T804 414Q804 297 751 197T605 39T392 -19Q289 -19 214 20T100 130T61 293Q61 411 114 510T261 668T475 727ZM469 639Q380 639 310 591T202 466T164 302Q164 236 190 183T269 100T397 70Q487 70 556 117T663 241T701 407Q701 472 674 525T596 608T469 639ZM363 904H416Q416 865 439 845T501 826Q592 826 614 904H666Q651 838 606 803T498 769Q436 769 399 803T363 904Z" horiz-adv-x="846" unicode="Ŏ"/>
			<glyph d="M322 494Q392 494 445 467T527 393T556 282Q556 202 520 134T419 27T269 -13Q199 -13 146 13T65 88T36 198Q36 277 71 345T172 453T322 494ZM318 414Q263 414 220 385T153 309T130 207Q130 145 167 105T273 66Q328 66 371 94T437 169T461 273Q461 335 423 374T318 414ZM211 708H264Q264 669 287 649T349 630Q440 630 462 708H514Q499 642 454 607T346 573Q284 573 247 607T211 708Z" horiz-adv-x="611" unicode="ŏ"/>
			<glyph d="M475 727Q577 727 651 687T765 577T804 414Q804 297 751 197T605 39T392 -19Q289 -19 214 20T100 130T61 293Q61 411 114 510T261 668T475 727ZM469 639Q380 639 310 591T202 466T164 302Q164 236 190 183T269 100T397 70Q487 70 556 117T663 241T701 407Q701 472 674 525T596 608T469 639ZM498 908H601L445 764H370ZM674 908H777L620 764H546Z" horiz-adv-x="846" unicode="Ő"/>
			<glyph d="M322 494Q392 494 445 467T527 393T556 282Q556 202 520 134T419 27T269 -13Q199 -13 146 13T65 88T36 198Q36 277 71 345T172 453T322 494ZM318 414Q263 414 220 385T153 309T130 207Q130 145 167 105T273 66Q328 66 371 94T437 169T461 273Q461 335 423 374T318 414ZM347 712H450L294 568H219ZM523 712H626L469 568H395Z" horiz-adv-x="611" unicode="ő"/>
			<glyph d="M503 708H959L929 623H657L618 405H887L858 324H604L563 86H878L848 0H396Q307 0 230 32T107 131T61 295Q61 424 119 517T277 659T503 708ZM499 623Q399 623 323 584T205 473T164 309Q164 208 231 147T417 86H469L563 623Z" horiz-adv-x="945" unicode="Œ"/>
			<glyph d="M323 494Q396 494 446 462T519 374Q551 429 608 461T735 494Q829 494 882 441T936 298Q936 282 933 259T926 218H544L542 198Q542 156 563 125T619 77T696 60Q743 60 788 76T868 116L877 40Q842 16 792 1T681 -14Q609 -14 557 17T484 103Q453 49 397 18T268 -13Q198 -13 145 13T64 87T36 198Q36 278 72 345T173 453T323 494ZM728 424Q680 424 642 402T582 347T552 280H848Q850 290 850 310Q850 361 817 392T728 424ZM318 415Q264 415 221 386T154 310T130 207Q130 145 167 105T273 65Q328 65 371 93T437 169T461 273Q461 335 423 375T318 415Z" horiz-adv-x="988" unicode="œ"/>
			<glyph d="M164 708H370Q471 708 534 664T597 537Q597 442 542 392T401 330L554 0H443L303 318H191L136 0H39ZM246 626L204 392H318Q497 392 497 523Q497 577 457 601T349 626ZM432 908H534L378 764H304Z" horiz-adv-x="625" unicode="Ŕ"/>
			<glyph d="M352 493Q363 493 381 490L352 405Q337 408 321 408Q257 408 219 359T169 237L127 0H32L98 371Q110 436 113 479H204Q203 455 192 388H194Q222 439 262 466T352 493ZM282 712H384L228 568H154Z" horiz-adv-x="349" unicode="ŕ"/>
			<glyph d="M164 708H370Q471 708 534 664T597 537Q597 442 542 392T401 330L554 0H443L303 318H191L136 0H39ZM246 626L204 392H318Q497 392 497 523Q497 577 457 601T349 626ZM229 -45H317L202 -236H128Z" horiz-adv-x="625" unicode="Ŗ"/>
			<glyph d="M352 493Q363 493 381 490L352 405Q337 408 321 408Q257 408 219 359T169 237L127 0H32L98 371Q110 436 113 479H204Q203 455 192 388H194Q222 439 262 466T352 493ZM42 -46H130L15 -237H-59Z" horiz-adv-x="349" unicode="ŗ"/>
			<glyph d="M164 708H370Q471 708 534 664T597 537Q597 442 542 392T401 330L554 0H443L303 318H191L136 0H39ZM246 626L204 392H318Q497 392 497 523Q497 577 457 601T349 626ZM233 908H311L371 803L471 908H551L412 764H319Z" horiz-adv-x="625" unicode="Ř"/>
			<glyph d="M352 493Q363 493 381 490L352 405Q337 408 321 408Q257 408 219 359T169 237L127 0H32L98 371Q110 436 113 479H204Q203 455 192 388H194Q222 439 262 466T352 493ZM117 712H195L255 607L355 712H435L296 568H203Z" horiz-adv-x="349" unicode="ř"/>
			<glyph d="M361 727Q417 727 470 710T556 668L519 586Q493 609 446 627T358 645Q318 645 281 630T221 587T198 517Q198 472 226 448T317 403Q411 371 459 326T507 206Q507 136 471 85T374 7T238 -19Q174 -19 112 1T14 53L47 143Q83 107 136 85T242 64Q312 64 358 100T404 198Q404 248 368 276T260 329Q178 356 137 396T96 508Q96 574 132 624T228 700T361 727ZM428 908H530L374 764H300Z" horiz-adv-x="576" unicode="Ś"/>
			<glyph d="M252 494Q299 494 342 478T409 440L362 378Q341 396 310 409T248 422Q205 422 176 403T148 348Q148 321 167 306T229 281Q301 261 335 228T370 143Q370 93 343 57T272 4T176 -14Q123 -14 77 0T7 36L34 109Q62 85 98 72T175 59Q221 59 250 80T279 136Q279 165 257 182T185 215Q121 233 90 261T59 340Q59 388 85 423T156 476T252 494ZM331 712H433L277 568H203Z" horiz-adv-x="438" unicode="ś"/>
			<glyph d="M361 727Q417 727 470 710T556 668L519 586Q493 609 446 627T358 645Q318 645 281 630T221 587T198 517Q198 472 226 448T317 403Q411 371 459 326T507 206Q507 136 471 85T374 7T238 -19Q174 -19 112 1T14 53L47 143Q83 107 136 85T242 64Q312 64 358 100T404 198Q404 248 368 276T260 329Q178 356 137 396T96 508Q96 574 132 624T228 700T361 727ZM357 908H450L535 764H459L397 868L298 764H218Z" horiz-adv-x="576" unicode="Ŝ"/>
			<glyph d="M252 494Q299 494 342 478T409 440L362 378Q341 396 310 409T248 422Q205 422 176 403T148 348Q148 321 167 306T229 281Q301 261 335 228T370 143Q370 93 343 57T272 4T176 -14Q123 -14 77 0T7 36L34 109Q62 85 98 72T175 59Q221 59 250 80T279 136Q279 165 257 182T185 215Q121 233 90 261T59 340Q59 388 85 423T156 476T252 494ZM258 712H351L436 568H360L298 672L199 568H119Z" horiz-adv-x="438" unicode="ŝ"/>
			<glyph d="M361 727Q427 727 482 703T566 639L498 579Q449 645 355 645Q318 645 281 630T221 587T198 517Q198 472 226 448T317 403Q411 371 459 326T507 206Q507 140 475 90T387 13T261 -18L213 -73Q228 -68 246 -68Q278 -68 303 -84T329 -137Q329 -186 289 -209T194 -233Q169 -233 138 -227T88 -211L109 -171Q125 -179 147 -183T190 -188Q223 -188 242 -176T262 -142Q262 -122 248 -113T213 -105Q201 -105 185 -107T159 -114L141 -95L209 -18Q144 -13 90 13T3 84L77 143Q103 106 145 85T242 64Q312 64 358 100T404 198Q404 248 368 276T260 329Q178 356 137 396T96 508Q96 574 132 624T228 700T361 727Z" horiz-adv-x="576" unicode="Ş"/>
			<glyph d="M252 494Q305 494 349 475T415 425L353 374Q319 422 248 422Q205 422 176 403T148 348Q148 321 167 306T229 281Q301 261 335 228T370 143Q370 76 323 35T206 -13L154 -73Q169 -68 187 -68Q219 -68 244 -84T270 -137Q270 -186 230 -209T135 -233Q110 -233 79 -227T29 -211L50 -171Q66 -179 88 -183T131 -188Q164 -188 183 -176T203 -142Q203 -122 189 -113T154 -105Q142 -105 126 -107T100 -114L82 -95L154 -14Q48 -6 -7 63L54 118Q99 59 177 59Q222 59 250 80T279 136Q279 165 257 182T185 215Q121 233 90 261T59 340Q59 388 85 423T156 476T252 494Z" horiz-adv-x="438" unicode="ş"/>
			<glyph d="M361 727Q417 727 470 710T556 668L519 586Q493 609 446 627T358 645Q318 645 281 630T221 587T198 517Q198 472 226 448T317 403Q411 371 459 326T507 206Q507 136 471 85T374 7T238 -19Q174 -19 112 1T14 53L47 143Q83 107 136 85T242 64Q312 64 358 100T404 198Q404 248 368 276T260 329Q178 356 137 396T96 508Q96 574 132 624T228 700T361 727ZM230 908H308L368 803L468 908H548L409 764H316Z" horiz-adv-x="576" unicode="Š"/>
			<glyph d="M252 494Q299 494 342 478T409 440L362 378Q341 396 310 409T248 422Q205 422 176 403T148 348Q148 321 167 306T229 281Q301 261 335 228T370 143Q370 93 343 57T272 4T176 -14Q123 -14 77 0T7 36L34 109Q62 85 98 72T175 59Q221 59 250 80T279 136Q279 165 257 182T185 215Q121 233 90 261T59 340Q59 388 85 423T156 476T252 494ZM132 712H210L270 607L370 712H450L311 568H218Z" horiz-adv-x="438" unicode="š"/>
			<glyph d="M88 708H619L589 623H378L268 0H169L278 623H57ZM179 -45H267L152 -236H78Z" unicode="Ţ"/>
			<glyph d="M246 620L221 479H362L334 406H209L163 148Q159 126 159 113Q159 66 214 66Q252 66 292 84L301 15Q247 -11 186 -11Q129 -11 97 18T65 93Q65 118 70 141L117 406H36L64 479H128L147 586ZM118 -45H206L91 -236H17Z" horiz-adv-x="353" unicode="ţ"/>
			<glyph d="M88 708H619L589 623H378L268 0H169L278 623H57ZM216 908H294L354 803L454 908H534L395 764H302Z" unicode="Ť"/>
			<glyph d="M246 620L221 479H362L334 406H209L163 148Q159 126 159 113Q159 66 214 66Q252 66 292 84L301 15Q247 -11 186 -11Q129 -11 97 18T65 93Q65 118 70 141L117 406H36L64 479H128L147 586ZM391 739H479L364 548H290Z" horiz-adv-x="363" unicode="ť"/>
			<glyph d="M93 708H623L592 623H383L363 512H526L516 455H353L273 0H175L255 455H88L98 512H264L284 623H63Z" horiz-adv-x="549" unicode="Ŧ"/>
			<glyph d="M246 620L221 479H362L334 406H209L190 296H291L281 239H179L163 148Q159 126 159 113Q159 66 214 66Q252 66 292 84L301 15Q247 -11 186 -11Q129 -11 97 18T65 93Q65 118 70 141L87 239H24L35 296H97L117 406H36L64 479H128L147 586Z" horiz-adv-x="353" unicode="ŧ"/>
			<glyph d="M156 708H254L178 277Q173 247 173 223Q173 154 212 111T334 68Q437 68 482 125T544 274L621 708H718L640 264Q618 134 544 57T330 -19Q208 -19 140 40T73 204Q73 236 79 272ZM574 884H621Q607 837 579 808T513 780Q488 780 442 803Q403 825 385 825Q351 825 334 778H287Q302 825 329 853T395 882Q413 882 428 876T463 860Q483 848 496 843T523 838Q541 838 553 849T574 884Z" horiz-adv-x="725" unicode="Ũ"/>
			<glyph d="M105 479H201L153 210Q148 185 148 165Q148 121 170 93T243 66Q300 66 341 112T397 239L440 479H535L469 108Q457 42 454 0H363Q367 40 375 91H372Q345 42 300 14T203 -13Q128 -13 89 29T50 141Q50 163 55 195ZM466 688H513Q499 641 471 612T405 584Q376 584 335 607Q313 618 300 623T277 628Q244 628 226 582H179Q194 629 221 657T287 686Q305 686 320 680T355 664Q375 651 388 646T415 641Q433 641 445 653T466 688Z" horiz-adv-x="590" unicode="ũ"/>
			<glyph d="M156 708H254L178 277Q173 247 173 223Q173 154 212 111T334 68Q437 68 482 125T544 274L621 708H718L640 264Q618 134 544 57T330 -19Q208 -19 140 40T73 204Q73 236 79 272ZM316 860H603L593 805H307Z" horiz-adv-x="725" unicode="Ū"/>
			<glyph d="M105 479H201L153 210Q148 185 148 165Q148 121 170 93T243 66Q300 66 341 112T397 239L440 479H535L469 108Q457 42 454 0H363Q367 40 375 91H372Q345 42 300 14T203 -13Q128 -13 89 29T50 141Q50 163 55 195ZM206 664H493L483 608H197Z" horiz-adv-x="590" unicode="ū"/>
			<glyph d="M156 708H254L178 277Q173 247 173 223Q173 154 212 111T334 68Q437 68 482 125T544 274L621 708H718L640 264Q618 134 544 57T330 -19Q208 -19 140 40T73 204Q73 236 79 272ZM304 904H357Q357 865 380 845T442 826Q533 826 555 904H607Q592 838 547 803T439 769Q377 769 340 803T304 904Z" horiz-adv-x="725" unicode="Ŭ"/>
			<glyph d="M105 479H201L153 210Q148 185 148 165Q148 121 170 93T243 66Q300 66 341 112T397 239L440 479H535L469 108Q457 42 454 0H363Q367 40 375 91H372Q345 42 300 14T203 -13Q128 -13 89 29T50 141Q50 163 55 195ZM195 708H248Q248 669 271 649T333 630Q424 630 446 708H498Q483 642 438 607T330 573Q268 573 231 607T195 708Z" horiz-adv-x="590" unicode="ŭ"/>
			<glyph d="M156 708H254L178 277Q173 247 173 223Q173 154 212 111T334 68Q437 68 482 125T544 274L621 708H718L640 264Q618 134 544 57T330 -19Q208 -19 140 40T73 204Q73 236 79 272ZM468 953Q508 953 531 929T555 869Q555 820 524 786T444 752Q404 752 380 775T356 836Q356 884 387 918T468 953ZM465 921Q433 921 412 897T392 840Q392 816 406 800T447 785Q479 785 499 808T520 865Q520 889 505 905T465 921Z" horiz-adv-x="725" unicode="Ů"/>
			<glyph d="M105 479H201L153 210Q148 185 148 165Q148 121 170 93T243 66Q300 66 341 112T397 239L440 479H535L469 108Q457 42 454 0H363Q367 40 375 91H372Q345 42 300 14T203 -13Q128 -13 89 29T50 141Q50 163 55 195ZM361 756Q401 756 424 733T448 673Q448 624 417 590T337 556Q297 556 273 579T249 640Q249 688 280 722T361 756ZM358 725Q326 725 305 701T285 644Q285 619 299 603T340 588Q372 588 392 611T413 669Q413 693 398 709T358 725Z" horiz-adv-x="590" unicode="ů"/>
			<glyph d="M156 708H254L178 277Q173 247 173 223Q173 154 212 111T334 68Q437 68 482 125T544 274L621 708H718L640 264Q618 134 544 57T330 -19Q208 -19 140 40T73 204Q73 236 79 272ZM441 908H544L388 764H313ZM617 908H720L563 764H489Z" horiz-adv-x="725" unicode="Ű"/>
			<glyph d="M105 479H201L153 210Q148 185 148 165Q148 121 170 93T243 66Q300 66 341 112T397 239L440 479H535L469 108Q457 42 454 0H363Q367 40 375 91H372Q345 42 300 14T203 -13Q128 -13 89 29T50 141Q50 163 55 195ZM332 712H435L279 568H204ZM508 712H611L454 568H380Z" horiz-adv-x="590" unicode="ű"/>
			<glyph d="M156 708H254L178 277Q173 247 173 223Q173 154 212 111T334 68Q437 68 482 125T544 274L621 708H718L640 264Q619 142 552 66T360 -18Q314 -56 292 -84T270 -139Q270 -157 281 -166T312 -175Q345 -175 375 -152L390 -193Q341 -229 288 -229Q250 -229 226 -211T202 -156Q202 -120 227 -87T300 -18Q191 -10 132 48T73 204Q73 236 79 272Z" horiz-adv-x="725" unicode="Ų"/>
			<glyph d="M105 479H201L153 210Q148 185 148 165Q148 121 170 93T243 66Q300 66 341 112T397 239L440 479H535L469 108Q457 42 454 0H426Q367 -48 340 -78T314 -139Q314 -157 325 -166T356 -175Q389 -175 419 -152L433 -193Q386 -229 332 -229Q294 -229 270 -211T246 -156Q246 -116 277 -79T366 0H363Q367 40 375 91H372Q345 42 300 14T203 -13Q128 -13 89 29T50 141Q50 163 55 195Z" horiz-adv-x="590" unicode="ų"/>
			<glyph d="M89 708H194L233 134H236L515 708H623L671 134H674L949 708H1054L704 0H599L546 577H543L257 0H152ZM558 908H651L736 764H660L598 868L499 764H419Z" horiz-adv-x="980" unicode="Ŵ"/>
			<glyph d="M50 479H149L178 108H180L373 479H471L515 108H517L699 479H800L547 0H449L401 368H399L203 0H104ZM418 712H511L596 568H520L458 672L359 568H279Z" horiz-adv-x="777" unicode="ŵ"/>
			<glyph d="M57 708H168L294 389L547 708H667L330 305L276 0H178L231 305ZM348 908H441L526 764H450L388 868L289 764H209Z" horiz-adv-x="568" unicode="Ŷ"/>
			<glyph d="M47 479H150L219 98L422 479H525L203 -87Q162 -164 110 -198T-19 -240L-38 -158Q20 -153 55 -133T116 -68L153 -4ZM281 712H374L459 568H383L321 672L222 568H142Z" horiz-adv-x="498" unicode="ŷ"/>
			<glyph d="M57 708H168L294 389L547 708H667L330 305L276 0H178L231 305ZM286 908Q309 908 323 893T338 857Q338 833 321 815T281 797Q258 797 243 811T228 848Q228 873 245 890T286 908ZM477 908Q499 908 513 893T528 857Q528 833 512 815T472 797Q449 797 434 811T419 848Q419 874 435 891T477 908Z" horiz-adv-x="568" unicode="Ÿ"/>
			<glyph d="M133 708H633L618 624L125 86H548L517 0H-14L1 88L492 623H118ZM450 908H552L396 764H322Z" horiz-adv-x="603" unicode="Ź"/>
			<glyph d="M91 479H457L444 406L116 75H409L381 0H-13L0 75L326 405H63ZM347 712H449L293 568H219Z" horiz-adv-x="470" unicode="ź"/>
			<glyph d="M133 708H633L618 624L125 86H548L517 0H-14L1 88L492 623H118ZM403 908Q426 908 441 893T456 857Q456 832 439 814T398 796Q374 796 358 810T343 848Q343 873 360 890T403 908Z" horiz-adv-x="603" unicode="Ż"/>
			<glyph d="M91 479H457L444 406L116 75H409L381 0H-13L0 75L326 405H63ZM300 712Q323 712 338 697T353 661Q353 636 336 618T295 600Q271 600 255 614T240 652Q240 677 257 694T300 712Z" horiz-adv-x="470" unicode="ż"/>
			<glyph d="M133 708H633L618 624L125 86H548L517 0H-14L1 88L492 623H118ZM248 908H326L386 803L486 908H566L427 764H334Z" horiz-adv-x="603" unicode="Ž"/>
			<glyph d="M91 479H457L444 406L116 75H409L381 0H-13L0 75L326 405H63ZM146 712H224L284 607L384 712H464L325 568H232Z" horiz-adv-x="470" unicode="ž"/>
			<glyph d="M511 721Q573 721 611 694L565 623Q543 639 512 639Q472 639 448 612T407 540L364 423H495L468 354H339L216 18Q187 -60 143 -100T28 -141Q-24 -141 -59 -119L-17 -47Q5 -61 30 -61Q69 -61 91 -34T133 45L245 354H123L150 423H270L315 546Q344 627 388 674T511 721Z" horiz-adv-x="603" unicode="ƒ"/>
			<glyph d="M521 708H968L938 623H660L622 405H896L866 324H608L566 86H887L857 0H457L488 181H221L79 0H-36ZM559 623L276 261H503L566 623ZM773 908H875L719 764H645Z" horiz-adv-x="954" unicode="Ǽ"/>
			<glyph d="M289 494Q355 494 395 468T445 396Q474 440 524 467T634 494Q729 494 782 441T836 298Q836 282 833 259T826 218H450L448 198Q448 136 490 98T598 60Q645 60 690 76T769 116L779 40Q744 16 695 1T589 -14Q513 -14 461 21T391 113Q367 59 315 23T188 -12Q122 -12 72 17T22 113Q22 212 116 246T373 280Q381 312 381 334Q381 378 354 399T279 420Q241 420 198 405T126 369L103 438Q143 465 191 479T289 494ZM628 424Q582 424 545 402T487 347T458 280H748Q750 300 750 310Q750 361 717 392T628 424ZM340 219Q232 219 171 198T111 126Q111 88 138 71T205 55Q269 55 309 96T362 198L366 219ZM563 712H665L509 568H435Z" horiz-adv-x="888" unicode="ǽ"/>
			<glyph d="M793 737L830 699L739 615Q805 535 805 414Q805 297 752 197T605 39T392 -19Q317 -19 256 3T153 65L59 -23L23 16L117 104Q61 181 61 293Q61 410 114 510T262 668T476 727Q614 727 704 653ZM471 641Q379 641 308 593T199 466T161 300Q161 226 195 174L631 586Q571 641 471 641ZM664 544L227 131Q255 101 297 84T395 68Q487 68 557 115T666 241T704 407Q704 486 664 544ZM580 908H682L526 764H452Z" horiz-adv-x="846" unicode="Ǿ"/>
			<glyph d="M561 505L592 469L518 404Q556 354 556 282Q556 202 520 134T419 27T269 -13Q218 -13 176 1T105 43L26 -25L-5 12L72 78Q36 130 36 199Q36 277 71 345T172 453T322 494Q423 494 484 439ZM318 416Q262 416 219 388T153 312T130 211Q130 167 146 142L417 380Q381 416 318 416ZM444 342L171 104Q208 64 274 64Q330 64 372 92T438 168T462 270Q462 312 444 342ZM430 712H532L376 568H302Z" horiz-adv-x="611" unicode="ǿ"/>
			<glyph d="M361 727Q417 727 470 710T556 668L519 586Q493 609 446 627T358 645Q318 645 281 630T221 587T198 517Q198 472 226 448T317 403Q411 371 459 326T507 206Q507 136 471 85T374 7T238 -19Q174 -19 112 1T14 53L47 143Q83 107 136 85T242 64Q312 64 358 100T404 198Q404 248 368 276T260 329Q178 356 137 396T96 508Q96 574 132 624T228 700T361 727ZM192 -44H280L165 -235H91Z" horiz-adv-x="576" unicode="Ș"/>
			<glyph d="M252 494Q299 494 342 478T409 440L362 378Q341 396 310 409T248 422Q205 422 176 403T148 348Q148 321 167 306T229 281Q301 261 335 228T370 143Q370 93 343 57T272 4T176 -14Q123 -14 77 0T7 36L34 109Q62 85 98 72T175 59Q221 59 250 80T279 136Q279 165 257 182T185 215Q121 233 90 261T59 340Q59 388 85 423T156 476T252 494ZM122 -45H210L95 -236H21Z" horiz-adv-x="438" unicode="ș"/>
			<glyph d="M88 708H619L589 623H378L268 0H169L278 623H57ZM179 -45H267L152 -236H78Z" unicode="Ț"/>
			<glyph d="M246 620L221 479H362L334 406H209L163 148Q159 126 159 113Q159 66 214 66Q252 66 292 84L301 15Q247 -11 186 -11Q129 -11 97 18T65 93Q65 118 70 141L117 406H36L64 479H128L147 586ZM118 -45H206L91 -236H17Z" horiz-adv-x="353" unicode="ț"/>
			<glyph d="M119 479H215L120 -59Q104 -145 65 -193T-61 -242Q-85 -242 -113 -236L-96 -156Q-78 -161 -64 -161Q-21 -161 -2 -134T25 -58Z" horiz-adv-x="264" unicode="ȷ"/>
			<glyph d="M163 712H256L341 568H265L203 672L104 568H24Z" horiz-adv-x="269" unicode="ˆ"/>
			<glyph d="M49 712H127L187 607L287 712H367L228 568H135Z" horiz-adv-x="269" unicode="ˇ"/>
			<glyph d="M57 860H344L334 804H48Z" horiz-adv-x="269" unicode="ˉ"/>
			<glyph d="M57 708H110Q110 669 133 649T195 630Q286 630 308 708H360Q345 642 300 607T192 573Q130 573 93 607T57 708Z" horiz-adv-x="269" unicode="˘"/>
			<glyph d="M202 712Q225 712 240 697T255 661Q255 636 238 618T197 600Q173 600 157 614T142 652Q142 677 159 694T202 712Z" horiz-adv-x="269" unicode="˙"/>
			<glyph d="M213 756Q253 756 276 733T300 673Q300 624 269 590T189 556Q149 556 125 579T101 640Q101 688 132 722T213 756ZM210 725Q178 725 157 701T137 644Q137 619 151 603T192 588Q224 588 244 611T265 669Q265 693 250 709T210 725Z" horiz-adv-x="269" unicode="˚"/>
			<glyph d="M74 2H133Q72 -46 45 -77T18 -139Q18 -157 29 -166T61 -175Q93 -175 123 -152L138 -193Q89 -229 36 -229Q-1 -229 -25 -211T-50 -156Q-50 -115 -18 -79T74 2Z" horiz-adv-x="269" unicode="˛"/>
			<glyph d="M316 688H363Q349 641 321 612T255 584Q226 584 185 607Q163 618 150 623T127 628Q94 628 76 582H29Q44 629 71 657T137 686Q155 686 170 680T205 664Q225 651 238 646T265 641Q283 641 295 653T316 688Z" horiz-adv-x="269" unicode="˜"/>
			<glyph d="M165 712H268L112 568H37ZM341 712H444L287 568H213Z" horiz-adv-x="269" unicode="˝"/>
			<glyph d="M-155 -45H-67L-182 -236H-256Z" horiz-adv-x="0" unicode="̦"/>
			<glyph d="M196 735H304L196 544H121Z" horiz-adv-x="425" unicode="ʹ"/>
			<glyph d="M229 20H304L229 -171H121Z" horiz-adv-x="425" unicode="͵"/>
			<glyph d="M256 711H378L623 58V0H10V59ZM316 631Q302 581 285 537L118 82H514L349 533Q324 601 316 631Z" horiz-adv-x="669" unicode="Δ"/>
			<glyph d="M391 720Q490 720 565 681T682 570T724 398Q724 184 543 83H750V0H450V91Q536 142 575 211T615 388Q615 467 586 523T506 608T391 637Q327 637 276 607T196 521T167 387Q167 280 207 212T331 91V0H33V83H238Q153 131 105 211T58 398Q58 495 100 568T217 680T391 720Z" horiz-adv-x="764" unicode="Ω"/>
			<glyph d="M79 479H181V213Q181 76 304 76Q378 76 410 123T442 262V479H545V0H466L452 84H447Q428 40 391 15T303 -10Q213 -10 180 52H178Q181 12 181 -50V-240H79Z" horiz-adv-x="624" unicode="μ"/>
			<glyph d="M103 479H653V402H537V136Q537 67 592 67Q622 67 649 78V10Q632 2 607 -4T556 -10Q493 -10 463 25T434 130V402H232V0H129V402H12V450Z" horiz-adv-x="685" unicode="π"/>
			<glyph d="M89 708H194L233 134H236L515 708H623L671 134H674L949 708H1054L704 0H599L546 577H543L257 0H152ZM413 908H515L621 764H548Z" horiz-adv-x="980" unicode="Ẁ"/>
			<glyph d="M50 479H149L178 108H180L373 479H471L515 108H517L699 479H800L547 0H449L401 368H399L203 0H104ZM267 712H369L475 568H402Z" horiz-adv-x="777" unicode="ẁ"/>
			<glyph d="M89 708H194L233 134H236L515 708H623L671 134H674L949 708H1054L704 0H599L546 577H543L257 0H152ZM663 908H765L609 764H535Z" horiz-adv-x="980" unicode="Ẃ"/>
			<glyph d="M50 479H149L178 108H180L373 479H471L515 108H517L699 479H800L547 0H449L401 368H399L203 0H104ZM526 712H628L472 568H398Z" horiz-adv-x="777" unicode="ẃ"/>
			<glyph d="M89 708H194L233 134H236L515 708H623L671 134H674L949 708H1054L704 0H599L546 577H543L257 0H152ZM501 908Q524 908 538 893T553 857Q553 833 536 815T496 797Q473 797 458 811T443 848Q443 873 460 890T501 908ZM692 908Q714 908 728 893T743 857Q743 833 727 815T687 797Q664 797 649 811T634 848Q634 874 650 891T692 908Z" horiz-adv-x="980" unicode="Ẅ"/>
			<glyph d="M50 479H149L178 108H180L373 479H471L515 108H517L699 479H800L547 0H449L401 368H399L203 0H104ZM358 711Q381 711 395 697T410 661Q410 637 393 619T353 601Q330 601 315 615T300 652Q300 677 317 694T358 711ZM549 711Q571 711 585 697T600 661Q600 637 584 619T544 601Q521 601 506 615T491 652Q491 677 507 694T549 711Z" horiz-adv-x="777" unicode="ẅ"/>
			<glyph d="M57 708H168L294 389L547 708H667L330 305L276 0H178L231 305ZM205 908H307L413 764H340Z" horiz-adv-x="568" unicode="Ỳ"/>
			<glyph d="M47 479H150L219 98L422 479H525L203 -87Q162 -164 110 -198T-19 -240L-38 -158Q20 -153 55 -133T116 -68L153 -4ZM140 712H242L348 568H275Z" horiz-adv-x="498" unicode="ỳ"/>
			<glyph d="M49 294H271L257 217H35Z" horiz-adv-x="316" unicode="‐"/>
			<glyph d="M37 288H377L365 223H25Z" horiz-adv-x="400" unicode="–"/>
			<glyph d="M37 288H577L565 223H25Z" horiz-adv-x="600" unicode="—"/>
			<glyph d="M37 288H577L565 223H25Z" horiz-adv-x="600" unicode="―"/>
			<glyph d="M233 708L265 681Q235 659 208 627T171 559Q191 556 204 541T217 505Q217 478 198 458T152 438Q127 438 110 454T94 497Q94 558 135 614T233 708Z" horiz-adv-x="256" unicode="‘"/>
			<glyph d="M197 708Q222 708 238 691T255 649Q255 588 214 531T116 438L84 465Q114 487 140 518T178 587Q157 591 144 605T132 641Q132 669 151 688T197 708Z" horiz-adv-x="256" unicode="’"/>
			<glyph d="M112 133Q136 133 152 116T169 74V73Q169 12 127 -44T30 -137L-2 -110Q28 -88 54 -56T92 12Q72 15 59 29T47 66Q47 93 66 113T112 133Z" horiz-adv-x="259" unicode="‚"/>
			<glyph d="M426 708L458 681Q428 659 401 627T364 559Q384 556 397 541T410 505Q410 478 391 458T345 438Q320 438 303 454T287 497Q287 558 328 614T426 708ZM232 708L264 681Q234 659 207 627T170 559Q190 556 203 541T216 505Q216 478 197 458T151 438Q126 438 109 454T93 497Q93 558 134 614T232 708Z" horiz-adv-x="427" unicode="“"/>
			<glyph d="M197 708Q222 708 238 691T255 649Q255 588 214 531T116 438L84 465Q114 487 140 518T178 587Q157 591 144 605T132 641Q132 669 151 688T197 708ZM391 708Q415 708 432 691T449 649Q448 588 406 531T309 438L277 465Q307 487 333 518T371 587Q350 591 338 605T326 641Q326 669 344 688T391 708Z" horiz-adv-x="427" unicode="”"/>
			<glyph d="M89 131Q114 131 130 114T147 72Q147 11 106 -45T8 -139L-24 -112Q7 -89 33 -57T70 10Q49 14 36 28T24 65Q24 92 43 111T89 131ZM283 131Q307 131 324 114T341 72Q340 11 298 -45T201 -139L169 -112Q200 -89 226 -57T263 10Q242 14 230 28T218 65Q218 92 237 111T283 131Z" horiz-adv-x="428" unicode="„"/>
			<glyph d="M314 708H399L363 504H559L546 429H350L252 -127H167L266 429H69L83 504H278Z" horiz-adv-x="564" unicode="†"/>
			<glyph d="M315 708H400L366 517H558L545 442H353L299 139H491L479 64H286L253 -127H168L202 64H9L22 139H214L268 442H76L88 517H281Z" horiz-adv-x="564" unicode="‡"/>
			<glyph d="M250 531Q298 531 338 507T403 442T427 354Q427 306 403 265T338 201T250 177Q202 177 161 201T97 265T73 354Q73 402 97 442T161 507T250 531Z" horiz-adv-x="500" unicode="•"/>
			<glyph d="M134 119Q159 119 175 102T192 61Q192 33 172 13T126 -6Q100 -6 83 9T67 50Q67 79 86 99T134 119ZM468 119Q493 119 509 103T526 62Q526 34 506 14T460 -6Q434 -6 417 9T401 50Q401 79 420 99T468 119ZM802 119Q828 119 844 103T861 62Q861 34 841 14T794 -6Q768 -6 751 9T735 50Q735 79 755 99T802 119Z" horiz-adv-x="1000" unicode="…"/>
			<glyph d="M636 738L683 708L145 -31L98 -1ZM265 718Q331 718 371 680T411 581Q411 529 388 486T323 419T229 394Q163 394 123 432T83 532Q83 583 106 625T170 693T265 718ZM259 656Q211 656 181 622T151 539Q151 503 173 479T233 456Q281 456 311 490T342 573Q342 609 320 632T259 656ZM563 314Q629 314 668 276T708 177Q708 125 685 82T620 15T527 -10Q461 -10 421 28T381 128Q381 179 404 221T468 289T563 314ZM930 314Q996 314 1036 276T1076 177Q1076 125 1053 82T988 15T894 -10Q829 -10 789 28T749 128Q749 179 772 221T836 289T930 314ZM557 252Q509 252 479 218T449 135Q449 99 471 75T531 52Q579 52 609 86T640 169Q640 205 618 228T557 252ZM924 252Q877 252 846 218T816 135Q816 99 838 75T899 52Q947 52 977 86T1008 169Q1008 204 986 228T924 252Z" horiz-adv-x="1119" unicode="‰"/>
			<glyph d="M227 462L278 422L131 245L214 69L151 32L46 248Z" horiz-adv-x="316" unicode="‹"/>
			<glyph d="M152 462L259 245L77 31L25 71L174 251L90 426Z" horiz-adv-x="316" unicode="›"/>
			<glyph d="M329 725Q413 725 465 683T518 559Q518 496 483 450T383 359Q335 325 316 301T291 244L285 210H195L250 529H332L301 367Q323 392 362 426Q397 457 413 485T429 549Q429 596 400 622T322 648Q275 648 228 624T152 565L110 632Q146 674 203 699T329 725ZM228 117Q253 117 269 101T286 60Q286 32 267 12T222 -7Q196 -7 179 9T162 50Q162 78 181 97T228 117Z" horiz-adv-x="507" unicode="‽"/>
			<glyph d="M302 738L349 709L-201 -31L-248 -1Z" horiz-adv-x="100" unicode="⁄"/>
			<glyph d="M291 886Q357 886 387 844T418 737Q418 669 398 600T336 486T228 441Q161 441 130 482T99 589Q99 658 119 726T182 840T291 886ZM286 825Q252 825 226 792T185 706T171 597Q171 554 185 527T232 501Q266 501 292 534T332 620T346 730Q346 825 286 825Z" horiz-adv-x="390" unicode="⁰"/>
			<glyph d="M309 877H393L344 602H415L398 545H335L318 450H253L270 545H73L84 604ZM311 798L152 602H280L314 798Z" horiz-adv-x="374" unicode="⁴"/>
			<glyph d="M187 877H414L398 816H237L218 718Q238 725 261 725Q316 725 354 692T392 601Q392 553 369 516T307 460T224 440Q182 440 145 452T87 483L109 543Q130 524 162 512T226 500Q268 500 294 527T321 595Q321 629 298 649T237 670Q190 670 140 649Z" horiz-adv-x="378" unicode="⁵"/>
			<glyph d="M335 878Q382 878 419 862L395 810Q385 815 366 819T328 823Q274 823 232 783T175 675Q193 696 219 707T277 719Q329 719 363 686T398 601Q398 557 378 520T321 462T238 441Q175 441 134 480T94 590Q94 675 126 740T213 842T335 878ZM259 667Q217 667 190 639T164 573Q164 541 184 520T238 500Q277 500 302 527T328 597Q328 628 308 647T259 667Z" horiz-adv-x="375" unicode="⁶"/>
			<glyph d="M163 877H438L428 821L191 450H108L350 816H140Z" horiz-adv-x="341" unicode="⁷"/>
			<glyph d="M272 886Q324 886 359 859T395 781Q395 741 371 714T312 675V673Q339 662 356 638T374 583Q374 517 327 479T213 441Q159 441 119 469T80 555Q80 600 108 633T181 679V681Q157 692 143 714T130 760Q130 816 172 851T272 886ZM267 830Q235 830 214 809T194 757Q194 733 209 717T251 701Q284 701 306 722T328 771Q328 798 311 814T267 830ZM239 648Q200 648 173 623T147 562Q147 532 167 515T217 498Q258 498 282 522T307 583Q307 611 287 629T239 648Z" horiz-adv-x="350" unicode="⁸"/>
			<glyph d="M276 886Q336 886 376 846T416 736Q416 654 384 588T296 485T175 448Q124 448 90 464L115 517Q141 504 182 504Q232 504 276 544T335 652Q319 632 291 620T233 608Q181 608 146 641T112 725Q112 769 132 805T189 864T276 886ZM275 827Q234 827 208 799T182 730Q182 699 201 679T251 659Q294 659 320 686T347 753Q347 786 327 806T275 827Z" horiz-adv-x="375" unicode="⁹"/>
			<glyph d="M223 776H271V643H403V597H272V464H223V597H91V643H223Z" horiz-adv-x="387" unicode="⁺"/>
			<glyph d="M97 653H402V607H97Z" horiz-adv-x="387" unicode="⁻"/>
			<glyph d="M96 719H401V674H96ZM96 613H401V568H96Z" horiz-adv-x="393" unicode="⁼"/>
			<glyph d="M275 923L313 900Q254 836 218 749T183 574Q183 526 193 479T224 397L181 379Q159 419 147 470T135 573Q135 666 171 757T275 923Z" horiz-adv-x="275" unicode="⁽"/>
			<glyph d="M213 917Q235 878 247 827T259 723Q259 630 223 538T119 373L82 396Q141 460 176 546T212 722Q212 769 201 816T171 899Z" horiz-adv-x="275" unicode="⁾"/>
			<glyph d="M210 298Q276 298 306 256T337 149Q337 81 317 12T255 -101T147 -147Q80 -147 49 -105T18 1Q18 70 38 138T101 252T210 298ZM205 237Q171 237 145 204T104 118T90 9Q90 -34 104 -60T151 -87Q185 -87 211 -54T251 32T265 142Q265 237 205 237Z" horiz-adv-x="390" unicode="₀"/>
			<glyph d="M150 286H214L139 -141H67L128 205L37 147L9 198Z" horiz-adv-x="250" unicode="₁"/>
			<glyph d="M187 295Q241 295 276 265T311 187Q311 140 288 109T208 30L77 -80H280L262 -141H-24L-14 -81L173 75Q211 107 226 130T242 179Q242 206 225 220T180 235Q149 235 125 217T88 169L34 196Q55 243 94 269T187 295Z" horiz-adv-x="363" unicode="₂"/>
			<glyph d="M169 293Q222 293 256 265T291 187Q291 143 264 114T199 77Q232 67 251 42T271 -17Q271 -81 227 -116T118 -152Q71 -152 33 -134T-27 -86L11 -38Q25 -61 55 -76T118 -92Q157 -92 179 -71T202 -17Q202 18 178 35T115 53H91L100 106H125Q171 106 196 125T222 179Q222 208 205 222T161 236Q117 236 73 194L45 242Q94 293 169 293Z" horiz-adv-x="360" unicode="₃"/>
			<glyph d="M204 287H288L239 12H310L293 -45H230L213 -140H148L165 -45H-32L-21 14ZM206 208L47 12H175L209 208Z" horiz-adv-x="374" unicode="₄"/>
			<glyph d="M91 287H318L302 226H141L122 128Q142 135 165 135Q220 135 258 102T296 11Q296 -37 273 -73T211 -130T128 -150Q86 -150 49 -138T-9 -107L13 -47Q34 -66 66 -78T130 -90Q172 -90 198 -63T225 5Q225 39 202 59T141 80Q94 80 44 59Z" horiz-adv-x="378" unicode="₅"/>
			<glyph d="M237 288Q284 288 321 272L297 220Q287 225 268 229T230 233Q176 233 134 193T77 85Q95 106 121 117T179 129Q231 129 265 96T300 11Q300 -33 280 -69T223 -127T140 -149Q77 -149 36 -110T-4 0Q-4 85 28 150T115 252T237 288ZM161 77Q119 77 92 49T66 -17Q66 -49 86 -69T140 -90Q179 -90 204 -62T230 7Q230 38 210 57T161 77Z" horiz-adv-x="375" unicode="₆"/>
			<glyph d="M45 288H320L310 232L73 -139H-10L232 227H22Z" horiz-adv-x="341" unicode="₇"/>
			<glyph d="M179 297Q231 297 266 270T302 192Q302 152 278 125T219 86V84Q246 73 263 49T281 -6Q281 -72 234 -110T120 -148Q66 -148 26 -119T-13 -34Q-13 11 15 44T88 90V92Q64 103 50 125T37 171Q37 227 79 262T179 297ZM174 241Q142 241 121 220T101 168Q101 144 116 128T158 112Q191 112 213 133T235 182Q235 209 218 225T174 241ZM146 59Q107 59 80 34T54 -27Q54 -57 74 -74T124 -91Q165 -91 189 -67T214 -6Q214 22 194 40T146 59Z" horiz-adv-x="350" unicode="₈"/>
			<glyph d="M183 297Q243 297 283 257T323 147Q323 65 291 -1T203 -104T82 -141Q31 -141 -3 -125L22 -72Q48 -85 89 -85Q139 -85 183 -45T242 63Q226 43 198 31T140 19Q88 19 53 52T19 136Q19 180 39 216T96 275T183 297ZM182 238Q141 238 115 210T89 141Q89 110 108 90T158 70Q201 70 227 97T254 164Q254 197 234 217T182 238Z" horiz-adv-x="375" unicode="₉"/>
			<glyph d="M151 203H199V70H331V23H199V-109H151V23H18V70H151Z" horiz-adv-x="387" unicode="₊"/>
			<glyph d="M27 70H332V25H27Z" horiz-adv-x="387" unicode="₋"/>
			<glyph d="M18 124H324V78H18ZM18 18H324V-28H18Z" horiz-adv-x="388" unicode="₌"/>
			<glyph d="M158 335L195 312Q136 247 100 160T65 -15Q65 -62 76 -109T106 -192L63 -209Q41 -170 29 -119T18 -16Q18 77 54 169T158 335Z" horiz-adv-x="275" unicode="₍"/>
			<glyph d="M115 335Q137 295 149 244T161 141Q161 48 125 -43T21 -209L-16 -186Q42 -121 77 -35T113 140Q113 188 102 235T73 317Z" horiz-adv-x="280" unicode="₎"/>
			<glyph d="M476 727Q518 727 557 718T623 696L586 622Q540 648 469 648Q395 648 333 599T239 472H526L494 407H214Q206 385 201 355T195 302H450L419 237H195Q198 158 248 109T379 60Q449 60 516 96L533 24Q462 -19 366 -19Q284 -19 225 15T136 107T101 237H17L51 302H102Q102 318 107 349T121 407H46L80 472H140Q183 586 272 656T476 727Z" horiz-adv-x="603" unicode="€"/>
			<glyph d="M695 738L742 708L181 -31L134 -1ZM280 722Q317 722 348 708T400 669L350 623Q338 640 318 649T277 658Q225 658 190 619T156 526Q156 488 178 464T244 440Q291 440 329 476L369 428Q311 373 236 373Q164 373 122 413T80 518Q80 572 105 619T176 694T280 722ZM649 337Q722 337 766 296T811 191Q811 136 786 89T717 15T614 -12Q541 -12 497 28T453 134Q453 189 477 235T545 309T649 337ZM645 273Q592 273 559 234T527 141Q527 102 550 77T617 53Q670 53 703 91T737 185Q737 224 713 248T645 273Z" horiz-adv-x="868" unicode="℅"/>
			<glyph d="M391 721Q437 721 466 689T496 610Q496 531 433 447T248 271Q246 261 243 251T239 231Q228 187 221 155T215 106Q215 78 229 66T267 55Q310 55 365 94H367L391 40Q319 -14 241 -14Q186 -14 154 13T122 90Q122 106 144 209L78 155H76L50 208L161 291L216 548Q234 631 281 676T391 721ZM382 658Q359 658 339 634T310 561L265 355Q326 410 372 478T419 606Q419 629 408 643T382 658Z" horiz-adv-x="500" unicode="ℓ"/>
			<glyph d="M401 730Q504 730 591 679T729 542T780 353Q780 250 729 164T591 28T401 -22Q298 -22 210 28T71 164T20 353Q20 456 71 542T210 679T401 730ZM401 686Q310 686 233 641T111 519T66 353Q66 263 111 187T232 66T400 22Q490 22 567 66T689 187T734 353Q734 443 689 519T567 641T401 686ZM277 568H439Q512 568 557 533T603 429Q603 361 558 323T442 286H352V127H277ZM352 506V348H440Q481 348 504 369T528 428Q528 466 503 486T439 506Z" horiz-adv-x="800" unicode="℗"/>
			<glyph d="M133 708H455V647H329V296H259V647H133ZM543 708H643L767 397L890 708H990V296H921V617H919L790 296H741L613 617H611V296H543Z" horiz-adv-x="1000" unicode="™"/>
			<glyph d="M391 720Q490 720 565 681T682 570T724 398Q724 184 543 83H750V0H450V91Q536 142 575 211T615 388Q615 467 586 523T506 608T391 637Q327 637 276 607T196 521T167 387Q167 280 207 212T331 91V0H33V83H238Q153 131 105 211T58 398Q58 495 100 568T217 680T391 720Z" horiz-adv-x="764" unicode="Ω"/>
			<glyph d="M302 535Q378 535 436 500T528 402T561 259H157V78Q216 19 302 19Q365 19 411 47T495 139L530 118Q484 46 432 14T302 -17Q225 -17 166 19T76 119T44 259Q44 336 76 399T166 498T302 535ZM301 500Q217 500 157 440V295H448V440Q385 500 301 500Z" horiz-adv-x="555" unicode="℮"/>
			<glyph d="M624 738L671 709L121 -31L74 -1ZM227 709H291L216 281H144L205 628L114 569L86 620ZM604 436Q657 436 691 407T726 329Q726 285 699 256T634 220Q667 209 686 184T706 125Q706 61 662 25T553 -10Q507 -10 468 8T409 57L446 105Q460 81 490 65T553 50Q592 50 614 70T637 125Q637 161 613 178T550 195H526L535 248H560Q606 248 632 267T658 321Q658 350 641 364T597 378Q552 378 508 336L480 384Q530 436 604 436Z" horiz-adv-x="782" unicode="⅓"/>
			<glyph d="M732 738L779 709L229 -31L182 -1ZM259 717Q313 717 348 688T383 610Q383 563 360 531T280 452L149 342H352L334 281H48L58 341L245 497Q283 529 298 552T314 601Q314 628 297 642T253 657Q222 657 198 639T160 592L106 618Q127 665 166 691T259 717ZM712 436Q765 436 799 407T834 329Q834 285 807 256T742 220Q775 209 794 184T814 125Q814 61 770 25T661 -10Q615 -10 576 8T517 57L554 105Q568 81 598 65T661 50Q700 50 722 70T745 125Q745 161 721 178T658 195H634L643 248H668Q714 248 740 267T766 321Q766 350 749 364T705 378Q660 378 616 336L588 384Q638 436 712 436Z" horiz-adv-x="889" unicode="⅔"/>
			<glyph d="M628 738L675 709L125 -31L78 -1ZM227 709H291L216 281H144L205 628L114 569L86 620ZM623 440Q672 440 702 414T732 348Q732 317 714 288T665 242Q694 229 709 204T725 148Q725 102 700 66T635 11T548 -9Q490 -9 451 22T412 104Q412 148 440 186T514 242Q497 254 487 273T478 314Q478 351 498 379T552 424T623 440ZM614 387Q585 387 563 366T541 316Q541 295 556 280T594 265Q623 265 645 287T668 337Q668 359 653 373T614 387ZM584 214Q560 214 536 201T498 165T483 116Q483 85 503 66T555 47Q596 47 626 74T656 145Q656 175 636 194T584 214Z" horiz-adv-x="797" unicode="⅛"/>
			<glyph d="M657 738L704 709L154 -31L107 -1ZM223 717Q276 717 310 688T345 610Q345 566 318 537T253 500Q286 490 305 465T325 406Q325 342 281 306T172 271Q131 271 95 283T33 318L60 380Q80 358 110 344T174 331Q211 331 233 351T256 406Q256 442 232 459T169 476H145L154 529H179Q225 529 250 548T276 602Q276 631 259 645T215 659Q172 659 124 620L103 674Q156 717 223 717ZM629 440Q678 440 708 414T738 348Q738 317 720 288T671 242Q700 229 715 204T731 148Q731 102 706 66T641 11T554 -9Q496 -9 457 22T418 104Q418 148 446 186T520 242Q503 254 493 273T484 314Q484 351 504 379T558 424T629 440ZM620 387Q591 387 569 366T547 316Q547 295 562 280T600 265Q629 265 651 287T674 337Q674 359 659 373T620 387ZM590 214Q566 214 542 201T504 165T489 116Q489 85 509 66T561 47Q602 47 632 74T662 145Q662 175 642 194T590 214Z" horiz-adv-x="784" unicode="⅜"/>
			<glyph d="M657 738L704 709L154 -31L107 -1ZM143 708H370L354 648H194L174 550Q195 556 217 556Q273 556 310 523T348 433Q348 385 325 348T263 292T180 272Q138 272 101 284T43 314L65 375Q86 356 118 344T182 332Q224 332 251 359T278 427Q278 461 254 481T193 502Q145 502 96 480ZM629 440Q678 440 708 414T738 348Q738 317 720 288T671 242Q700 229 715 204T731 148Q731 102 706 66T641 11T554 -9Q496 -9 457 22T418 104Q418 148 446 186T520 242Q503 254 493 273T484 314Q484 351 504 379T558 424T629 440ZM620 387Q591 387 569 366T547 316Q547 295 562 280T600 265Q629 265 651 287T674 337Q674 359 659 373T620 387ZM590 214Q566 214 542 201T504 165T489 116Q489 85 509 66T561 47Q602 47 632 74T662 145Q662 175 642 194T590 214Z" horiz-adv-x="784" unicode="⅝"/>
			<glyph d="M611 738L658 709L108 -31L61 -1ZM132 708H407L398 656L151 281H69L317 648H121ZM610 440Q659 440 689 414T719 348Q719 317 701 288T652 242Q681 229 696 204T712 148Q712 102 687 66T622 11T535 -9Q477 -9 438 22T399 104Q399 148 427 186T501 242Q484 254 474 273T465 314Q465 351 485 379T539 424T610 440ZM601 387Q572 387 550 366T528 316Q528 295 543 280T581 265Q610 265 632 287T655 337Q655 359 640 373T601 387ZM571 214Q547 214 523 201T485 165T470 116Q470 85 490 66T542 47Q583 47 613 74T643 145Q643 175 623 194T571 214Z" horiz-adv-x="784" unicode="⅞"/>
			<glyph d="M249 723Q384 723 445 619T507 362Q507 191 449 88T267 -14Q205 -14 156 16T79 99T52 217Q52 282 78 332T152 409T262 436Q306 436 345 417T412 367Q412 375 412 386T412 412Q410 511 368 575T250 640Q215 640 186 628T127 587L80 653Q156 723 249 723ZM273 358Q215 358 182 316T150 214Q150 155 182 110T269 66Q337 66 370 130T406 284Q378 318 344 338T273 358Z" horiz-adv-x="569" unicode="∂"/>
			<glyph d="M256 711H378L623 58V0H10V59ZM316 631Q302 581 285 537L118 82H514L349 533Q324 601 316 631Z" horiz-adv-x="669" unicode="∆"/>
			<glyph d="M73 786H656V-214H565V705H163V-214H73Z" horiz-adv-x="728" unicode="∏"/>
			<glyph d="M46 786H587V705H160L452 291L145 -133H599V-214H33V-144L348 290L46 716Z" horiz-adv-x="629" unicode="∑"/>
			<glyph d="M81 342H585V267H81Z" horiz-adv-x="666" unicode="−"/>
			<glyph d="M302 738L349 709L-201 -31L-248 -1Z" horiz-adv-x="100" unicode="∕"/>
			<glyph d="M143 345Q169 345 185 329T202 288Q202 260 183 240T137 220Q111 220 94 236T77 278Q77 306 96 325T143 345Z" horiz-adv-x="272" unicode="∙"/>
			<glyph d="M440 786H527L316 -215H234L77 117L23 91L-9 160L120 219L260 -83Z" horiz-adv-x="523" unicode="√"/>
			<glyph d="M207 418Q258 418 302 386T393 304Q438 355 483 386T579 418Q648 418 690 372T732 257Q732 187 690 140T579 94Q530 94 484 124T393 204Q342 151 301 122T209 94Q140 94 97 140T54 256Q54 326 96 372T207 418ZM578 346Q546 346 513 322T439 254Q481 210 514 188T580 166Q617 166 638 191T659 255Q659 294 637 320T578 346ZM207 345Q171 345 149 319T127 255Q127 217 149 192T209 167Q241 167 274 189T347 254Q305 298 271 321T207 345Z" horiz-adv-x="780" unicode="∞"/>
			<glyph d="M363 781Q395 781 422 766T449 720Q449 701 436 688T404 675Q390 675 382 682T366 703Q360 712 356 716T346 721Q329 721 322 688T315 618L316 531L315 49Q315 -83 287 -146T182 -210Q149 -210 123 -194T97 -148Q97 -131 110 -118T141 -105Q155 -105 162 -112T179 -132Q188 -150 198 -150Q214 -150 221 -116T229 -39Q230 -29 229 -20T229 -5Q228 5 228 31L230 524Q230 611 239 665T278 750T363 781Z" horiz-adv-x="583" unicode="∫"/>
			<glyph d="M514 439H574Q568 369 532 327T434 285Q405 285 372 294T290 322Q249 337 222 345T174 353Q140 353 121 333T98 282H39Q45 345 78 388T178 431Q207 431 238 422T315 397Q363 381 389 373T441 366Q503 366 514 439ZM514 238H574Q566 174 533 131T434 88Q405 88 371 97T289 125Q245 141 219 148T173 156Q110 156 97 82H38Q44 146 77 190T175 235Q204 235 236 226T314 201Q360 185 388 177T441 169Q474 169 490 187T514 238Z" horiz-adv-x="666" unicode="≈"/>
			<glyph d="M420 564L490 530L432 418H571V340H392L334 224H571V147H293L215 -8L146 27L208 147H74V224H247L306 340H74V418H345Z" horiz-adv-x="666" unicode="≠"/>
			<glyph d="M579 610V528L201 362L579 198V115L87 329V397ZM87 85H579V10H87Z" horiz-adv-x="666" unicode="≤"/>
			<glyph d="M87 610L579 397V329L87 115V198L465 362L87 528ZM87 85H579V10H87Z" horiz-adv-x="666" unicode="≥"/>
			<glyph d="M261 747H336L511 356L336 -35H260L89 356ZM298 660L174 356L298 52L424 356Z" horiz-adv-x="599" unicode="◊"/>
			<glyph d="M0 718H512V0H0ZM50 667V50H462V667ZM259 609Q313 609 348 573T383 478Q383 445 370 418T320 358Q294 334 284 320T273 292T271 234H225L223 251Q223 289 228 311T245 349T282 391Q313 422 322 438T332 474Q332 510 309 534T256 559Q223 559 201 536T174 464L124 472Q131 541 167 575T259 609ZM222 184H278V117H222Z" horiz-adv-x="512" unicode=""/>
			<glyph d="M353 771Q376 771 403 767T445 758L421 681Q409 685 388 688T350 692Q270 692 250 584L232 479H440L458 583Q474 680 523 725T656 771Q679 771 705 767T748 758L723 681Q687 692 652 692Q609 692 585 662T553 584L534 479H661L633 406H523L451 0H358L429 406H221L149 0H55L127 406H32L60 479H138L156 583Q172 680 220 725T353 771Z" horiz-adv-x="624" unicode="ﬀ"/>
			<glyph d="M353 771Q376 771 403 767T445 758L421 681Q409 685 388 688T350 692Q270 692 250 584L232 479H358L331 406H221L149 0H55L127 406H32L60 479H138L156 583Q172 680 220 725T353 771ZM513 715Q537 715 553 699T569 661Q569 635 551 616T508 597Q484 597 467 612T451 651Q451 677 469 696T513 715ZM436 479H532L446 0H351Z" horiz-adv-x="581" unicode="ﬁ"/>
			<glyph d="M353 771Q376 771 403 767T445 758L421 681Q409 685 388 688T350 692Q270 692 250 584L232 479H358L331 406H221L149 0H55L127 406H32L60 479H138L156 583Q172 680 220 725T353 771ZM584 767L477 160Q473 136 473 124Q473 103 481 88T509 60L445 -14Q411 2 391 32T372 106Q372 121 376 145L483 753Z" horiz-adv-x="581" unicode="ﬂ"/>
			<glyph d="M353 771Q376 771 403 767T445 758L421 681Q409 685 388 688T350 692Q270 692 250 584L232 479H440L458 583Q474 680 523 725T656 771Q679 771 705 767T748 758L723 681Q687 692 652 692Q609 692 585 662T553 584L534 479H661L633 406H523L451 0H358L429 406H221L149 0H55L127 406H32L60 479H138L156 583Q172 680 220 725T353 771ZM817 715Q841 715 857 699T873 661Q873 635 855 616T812 597Q788 597 771 612T755 651Q755 677 773 696T817 715ZM740 479H836L750 0H655Z" horiz-adv-x="884" unicode="ﬃ"/>
			<glyph d="M353 771Q376 771 403 767T445 758L421 681Q409 685 388 688T350 692Q270 692 250 584L232 479H440L458 583Q474 680 523 725T656 771Q679 771 705 767T748 758L723 681Q687 692 652 692Q609 692 585 662T553 584L534 479H661L633 406H523L451 0H358L429 406H221L149 0H55L127 406H32L60 479H138L156 583Q172 680 220 725T353 771ZM887 767L780 160Q776 136 776 124Q776 103 784 88T812 60L748 -14Q714 2 694 32T675 106Q675 121 679 145L786 753Z" horiz-adv-x="884" unicode="ﬄ"/>
		</font>
</defs>
</svg>
