<?xml version="1.0" encoding="UTF-8"?>
<svg height="100%" width="100%" xmlns="http://www.w3.org/2000/svg">
	<defs>
		<font horiz-adv-x="570" id="web">
			<font-face alphabetic="0" ascent="968" descent="-253" font-family="" panose-1="2 0 3 7 0 0 0 0 0 4"/>
			<missing-glyph d="M0 718H512V0H0ZM50 667V50H462V667ZM259 609Q313 609 348 573T383 478Q383 445 370 418T320 358Q294 334 284 320T273 292T271 234H225L223 251Q223 289 228 311T245 349T282 391Q313 422 322 438T332 474Q332 510 309 534T256 559Q223 559 201 536T174 464L124 472Q131 541 167 575T259 609ZM222 184H278V117H222Z" horiz-adv-x="512"/>
			<glyph d="" horiz-adv-x="250" unicode=" "/>
			<glyph d="M199 708H240L149 195H108ZM108 66Q122 66 130 57T139 32Q139 17 128 5T104 -6Q90 -6 80 3T71 27Q71 43 82 54T108 66Z" horiz-adv-x="279" unicode="!"/>
			<glyph d="M193 708H230L188 477H152ZM330 708H366L325 477H289Z" horiz-adv-x="405" unicode="&quot;"/>
			<glyph d="M283 708H316L246 479H404L475 708H508L438 479H542L537 447H427L370 263H476L471 231H360L290 0H257L326 231H168L98 0H65L135 231H27L32 263H145L202 447H93L98 479H212ZM236 447L179 263H336L393 447Z" horiz-adv-x="553" unicode="#"/>
			<glyph d="M355 792H383L372 727Q421 725 468 708T542 667L523 627Q499 652 456 671T366 691L311 379Q397 350 442 309T487 196Q487 135 458 86T374 10T242 -19L230 -84H202L214 -18Q160 -13 110 7T36 56L52 95Q79 63 124 42T220 17L278 350L273 352Q189 379 151 418T113 522Q113 583 144 628T228 699T344 727ZM338 691Q292 687 250 667T181 611T155 527Q155 471 186 441T285 388ZM305 341L248 16Q306 17 351 39T421 101T446 191Q446 249 410 282T305 341Z" horiz-adv-x="568" unicode="$"/>
			<glyph d="M702 737L728 720L154 -28L128 -11ZM279 716Q345 716 383 678T421 580Q421 529 398 485T335 416T242 391Q176 391 137 429T99 527Q99 577 121 620T185 690T279 716ZM276 685Q235 685 203 663T153 606T135 530Q135 483 163 452T244 422Q285 422 317 443T368 500T386 576Q386 623 357 654T276 685ZM628 317Q694 317 731 279T769 181Q769 130 747 86T684 17T591 -8Q524 -8 486 30T448 127Q448 178 470 221T534 291T628 317ZM624 286Q583 286 551 264T501 207T484 132Q484 84 512 54T593 24Q634 24 666 45T716 101T734 178Q734 225 705 255T624 286Z" horiz-adv-x="826" unicode="%"/>
			<glyph d="M369 726Q434 726 475 688T516 590Q516 523 468 474T316 383L475 176L612 373H659L498 149L615 0H564L474 117Q420 50 364 17T240 -16Q189 -16 146 3T77 62T51 159Q51 244 108 300T262 395Q195 482 195 551Q195 602 218 642T280 704T369 726ZM369 694Q336 694 305 677T254 629T234 554Q234 518 251 482T298 408Q389 445 432 485T475 587Q475 634 445 664T369 694ZM281 368Q197 335 144 285T92 161Q92 94 135 56T243 18Q303 18 354 50T451 145Z" horiz-adv-x="706" unicode="&amp;"/>
			<glyph d="M189 708H225L184 477H148Z" horiz-adv-x="259" unicode="'"/>
			<glyph d="M279 733L309 715Q217 615 154 464T92 151Q92 70 108 -7T156 -141L124 -157Q91 -96 72 -15T54 149Q54 303 112 458T279 733Z" horiz-adv-x="301" unicode="("/>
			<glyph d="M187 733Q220 672 238 591T257 427Q257 272 198 117T32 -157L4 -139Q95 -38 157 112T220 425Q220 506 203 583T156 717Z" horiz-adv-x="301" unicode=")"/>
			<glyph d="M241 708H273V546L429 596L439 567L281 518L380 382L355 364L257 502L158 364L134 382L233 518L74 567L84 596L241 546Z" horiz-adv-x="445" unicode="*"/>
			<glyph d="M317 549H352V321H574V287H352V59H317V287H92V321H317Z" horiz-adv-x="666" unicode="+"/>
			<glyph d="M98 94Q111 94 120 85T129 62Q129 20 99 -24T26 -108L10 -99Q36 -75 59 -43T90 23Q77 24 69 32T61 55Q61 70 72 82T98 94Z" horiz-adv-x="247" unicode=","/>
			<glyph d="M59 267H254L247 234H52Z" horiz-adv-x="306" unicode="-"/>
			<glyph d="M84 66Q97 66 106 56T116 32Q116 17 105 5T81 -6Q67 -6 57 3T48 27Q48 43 59 54T84 66Z" horiz-adv-x="247" unicode="."/>
			<glyph d="M407 729L437 717L2 -17L-29 -5Z" horiz-adv-x="371" unicode="/"/>
			<glyph d="M360 722Q453 722 495 656T538 488Q538 372 506 256T409 63T246 -14Q152 -14 109 51T67 220Q67 336 98 451T196 644T360 722ZM358 687Q283 687 226 620T138 447T107 227Q107 137 139 79T247 21Q322 21 379 87T466 260T497 480Q497 570 465 628T358 687Z" horiz-adv-x="557" unicode="0"/>
			<glyph d="M372 708H409L284 0H245L361 660L208 552L189 582Z" horiz-adv-x="557" unicode="1"/>
			<glyph d="M344 722Q421 722 471 680T522 567Q522 516 503 475T451 398T354 301L71 36H457L439 0H16L24 43L335 332Q415 407 447 458T481 565Q481 621 441 654T343 688Q291 688 246 663T171 599L150 632Q183 675 232 698T344 722Z" horiz-adv-x="557" unicode="2"/>
			<glyph d="M348 722Q422 722 469 678T516 566Q516 493 473 440T347 372V370Q408 359 444 314T481 210Q481 151 451 99T365 17T237 -14Q166 -14 109 10T27 68L44 107Q68 71 122 46T237 21Q297 21 343 46T414 114T440 207Q440 278 391 316T270 355H244L251 389H275Q338 389 383 411T453 474T477 565Q477 618 437 653T342 688Q290 688 241 664T155 599L141 632Q182 674 235 698T348 722Z" horiz-adv-x="557" unicode="3"/>
			<glyph d="M443 708H501L413 214H533L516 179H408L376 0H338L368 179H37L46 222ZM451 663L84 214H375L454 663Z" horiz-adv-x="557" unicode="4"/>
			<glyph d="M210 708H542L525 673H241L191 418Q237 439 294 439Q354 439 399 414T470 347T495 251Q495 179 464 118T374 22T237 -14Q168 -14 118 9T43 68L59 106Q85 70 133 45T241 21Q305 21 353 51T427 132T453 245Q453 315 407 360T286 406Q249 406 212 396T145 369Z" horiz-adv-x="557" unicode="5"/>
			<glyph d="M442 714Q515 714 553 696L540 663Q497 681 438 681Q367 681 299 635T179 506T103 314Q138 366 190 393T311 420Q393 420 445 369T497 235Q497 166 466 109T379 19T250 -14Q162 -14 108 44T55 206Q55 334 107 451T249 641T442 714ZM305 387Q246 387 198 359T122 285T95 189Q95 115 137 67T252 20Q313 20 359 49T431 126T457 231Q457 298 415 342T305 387Z" horiz-adv-x="557" unicode="6"/>
			<glyph d="M163 708H554L547 667L130 0H83L506 673H146Z" horiz-adv-x="557" unicode="7"/>
			<glyph d="M349 722Q427 722 476 679T525 559Q525 490 482 442T374 378V376Q425 361 459 319T493 220Q493 145 458 92T367 12T248 -14Q196 -14 152 6T81 65T54 160Q54 243 106 302T240 380V382Q192 398 167 435T143 520Q143 578 171 624T246 696T349 722ZM346 687Q299 687 261 664T202 602T181 521Q181 466 216 430T310 394Q361 394 401 417T463 477T485 553Q485 617 447 652T346 687ZM301 361Q244 361 196 335T121 264T94 164Q94 100 137 61T248 22Q308 22 355 47T427 117T453 218Q453 257 433 290T379 342T301 361Z" horiz-adv-x="557" unicode="8"/>
			<glyph d="M352 722Q440 722 494 664T548 502Q548 374 495 256T353 66T160 -6Q86 -6 50 12L63 45Q102 27 164 27Q235 27 303 72T423 201T499 393Q464 342 411 315T292 288Q209 288 157 339T105 473Q105 542 136 599T223 689T352 722ZM350 688Q289 688 242 659T170 581T145 476Q145 410 186 365T298 321Q357 321 404 349T479 422T507 519Q507 593 464 640T350 688Z" horiz-adv-x="557" unicode="9"/>
			<glyph d="M169 465Q183 465 192 456T202 433Q202 417 191 405T166 394Q152 394 143 403T134 427Q134 442 144 453T169 465ZM107 66Q120 66 129 56T138 32Q138 17 127 5T102 -6Q89 -6 79 3T70 27Q70 43 81 54T107 66Z" horiz-adv-x="287" unicode=":"/>
			<glyph d="M169 465Q183 465 192 456T202 433Q202 417 191 405T166 394Q152 394 143 403T134 427Q134 442 144 453T169 465ZM98 94Q111 94 120 85T129 62Q129 20 99 -24T26 -108L10 -99Q36 -75 59 -43T90 23Q77 24 69 32T61 55Q61 70 72 82T98 94Z" horiz-adv-x="287" unicode=";"/>
			<glyph d="M573 547V512L131 303L573 94V59L93 287V319Z" horiz-adv-x="666" unicode="&lt;"/>
			<glyph d="M92 403H574V369H92ZM92 238H574V205H92Z" horiz-adv-x="666" unicode="="/>
			<glyph d="M93 547L573 319V287L93 59V94L536 303L93 512Z" horiz-adv-x="666" unicode="&gt;"/>
			<glyph d="M314 724Q386 724 432 684T479 570Q479 511 447 469T360 388Q303 347 281 318T252 240L245 199H207L216 253Q224 302 248 333T333 412Q387 451 413 486T439 568Q439 625 404 656T314 688Q262 688 217 663T143 599L122 632Q157 675 205 699T314 724ZM209 66Q223 66 232 56T241 32Q241 17 230 5T206 -6Q192 -6 183 3T174 27Q174 43 184 54T209 66Z" horiz-adv-x="477" unicode="?"/>
			<glyph d="M487 727Q575 727 644 693T754 599T794 459Q794 376 764 307T681 199T562 160Q528 160 506 177T484 224Q484 236 488 247H486Q466 216 427 188T342 160Q287 160 260 191T234 270Q234 326 265 392T351 505T475 552Q515 552 540 529T568 471H572L600 535H635L538 314Q530 296 523 273T516 235Q516 214 530 203T569 193Q618 193 661 227T731 322T758 456Q758 525 723 579T625 663T485 694Q376 694 286 638T146 491T95 297Q95 214 133 149T239 49T395 13Q479 13 551 44T682 131L702 107Q569 -19 392 -19Q292 -19 216 20T98 131T56 293Q56 411 113 510T269 668T487 727ZM469 514Q417 514 372 475T301 379T275 274Q275 238 293 217T351 197Q401 197 445 240T516 342T543 439Q543 514 469 514Z" horiz-adv-x="800" unicode="@"/>
			<glyph d="M413 708H460L593 0H552L500 278H180L5 0H-42ZM430 670L202 314H494Z" horiz-adv-x="653" unicode="A"/>
			<glyph d="M182 708H372Q455 708 513 669T571 555Q571 483 527 436T403 373V371Q460 364 502 322T544 213Q544 108 467 54T269 0H57ZM215 674L165 388H321Q412 388 471 429T530 548Q530 609 482 641T362 674ZM160 355L103 34H266Q375 34 439 80T504 212Q504 280 454 317T334 355Z" horiz-adv-x="611" unicode="B"/>
			<glyph d="M496 727Q568 727 631 702T729 639L708 598Q677 639 621 665T495 691Q390 691 304 635T170 487T121 292Q121 214 151 151T244 53T397 17Q461 17 521 44T628 115L633 78Q594 39 527 10T395 -19Q294 -19 223 20T115 128T79 287Q79 409 136 510T289 669T496 727Z" horiz-adv-x="722" unicode="C"/>
			<glyph d="M182 708H379Q472 708 548 674T670 573T715 413Q715 279 655 186T493 46T264 0H57ZM217 673L104 36H265Q383 36 475 79T620 206T673 410Q673 491 635 550T530 641T370 673Z" horiz-adv-x="769" unicode="D"/>
			<glyph d="M182 708H537L521 673H214L164 385H465L449 350H158L103 36H448L431 0H57Z" horiz-adv-x="528" unicode="E"/>
			<glyph d="M182 708H536L520 673H216L164 384H457L442 349H159L97 0H57Z" horiz-adv-x="504" unicode="F"/>
			<glyph d="M494 727Q564 727 626 706T728 653L709 616Q670 650 613 670T492 691Q389 691 303 635T169 487T121 292Q121 213 151 151T243 53T395 17Q457 17 513 30T609 67L653 323H466L483 357H699L643 44Q595 14 530 -2T394 -19Q293 -19 222 19T115 127T79 287Q79 403 134 504T284 666T494 727Z" horiz-adv-x="770" unicode="G"/>
			<glyph d="M182 708H222L164 384H628L686 708H726L601 0H561L622 349H159L97 0H57Z" horiz-adv-x="747" unicode="H"/>
			<glyph d="M182 708H222L97 0H57Z" horiz-adv-x="244" unicode="I"/>
			<glyph d="M304 708H344L254 197Q237 101 182 41T34 -18Q11 -18 -6 -14L-16 24Q9 18 37 18Q114 18 157 67T215 201Z" horiz-adv-x="362" unicode="J"/>
			<glyph d="M182 708H222L165 388L548 708H605L211 381L514 0H463L164 380L97 0H57Z" horiz-adv-x="549" unicode="K"/>
			<glyph d="M182 708H222L103 36H437L421 0H57Z" horiz-adv-x="493" unicode="L"/>
			<glyph d="M182 708H243L414 64L809 708H876L751 0H711L826 660L416 0H390L213 666L97 0H57Z" horiz-adv-x="897" unicode="M"/>
			<glyph d="M182 708H233L570 53H572L687 708H727L602 0H551L215 658H213L97 0H57Z" horiz-adv-x="750" unicode="N"/>
			<glyph d="M487 727Q587 727 659 687T768 576T805 415Q805 299 753 199T609 40T398 -19Q298 -19 226 20T116 130T79 292Q79 408 131 508T276 667T487 727ZM486 691Q380 691 296 635T167 488T121 294Q121 215 152 152T246 53T399 17Q505 17 588 72T717 218T763 413Q763 492 732 555T638 654T486 691Z" horiz-adv-x="859" unicode="O"/>
			<glyph d="M182 708H365Q453 708 509 668T566 546Q566 486 537 439T452 366T314 340H157L97 0H57ZM216 674L163 374H319Q417 374 471 419T526 544Q526 610 480 642T367 674Z" horiz-adv-x="568" unicode="P"/>
			<glyph d="M486 727Q586 727 657 687T766 577T804 417Q804 331 772 253T682 119T545 37V35H794L777 0H399Q299 0 227 36T117 139T80 297Q80 411 131 510T276 668T486 727ZM485 691Q379 691 296 636T167 491T121 301Q121 180 193 108T402 36Q504 36 586 87T716 225T763 412Q763 490 731 553T637 654T485 691Z" horiz-adv-x="867" unicode="Q"/>
			<glyph d="M182 708H357Q446 708 506 669T566 551Q566 447 503 401T351 351L511 0H467L310 348H159L97 0H57ZM216 674L164 382H312Q525 382 525 547Q525 612 475 643T347 674Z" horiz-adv-x="597" unicode="R"/>
			<glyph d="M358 727Q410 727 461 710T542 667L523 627Q497 653 451 672T355 692Q307 692 260 672T184 615T154 527Q154 486 171 459T219 416T300 383Q391 353 438 311T486 196Q486 134 456 85T371 9T237 -19Q179 -19 121 2T35 56L52 95Q82 59 134 37T242 16Q301 16 347 38T419 100T445 191Q445 236 423 265T365 314T272 352Q189 379 150 418T112 522Q112 586 145 632T235 703T358 727Z" horiz-adv-x="568" unicode="S"/>
			<glyph d="M90 708H603L586 673H355L237 0H197L314 673H73Z" horiz-adv-x="526" unicode="T"/>
			<glyph d="M174 708H214L138 275Q132 242 132 210Q132 123 180 70T329 17Q456 17 511 88T586 272L663 708H703L625 267Q602 137 535 59T329 -19Q212 -19 151 40T91 204Q91 241 98 279Z" horiz-adv-x="715" unicode="U"/>
			<glyph d="M93 708H135L240 47H242L633 708H678L258 0H209Z" horiz-adv-x="594" unicode="V"/>
			<glyph d="M105 708H147L203 49H206L535 708H588L645 49H648L979 708H1023L664 0H611L555 658H553L221 0H168Z" horiz-adv-x="949" unicode="W"/>
			<glyph d="M121 708H168L316 401L578 708H630L337 369L521 0H473L309 339L20 0H-34L288 371Z" horiz-adv-x="587" unicode="X"/>
			<glyph d="M77 708H122L270 344L566 708H616L284 308L230 0H190L244 308Z" horiz-adv-x="529" unicode="Y"/>
			<glyph d="M141 708H621L613 667L55 36H521L505 0H1L8 39L567 673H134Z" horiz-adv-x="588" unicode="Z"/>
			<glyph d="M157 732H306L300 700H190L43 -124H155L149 -156H0Z" horiz-adv-x="301" unicode="["/>
			<glyph d="M50 729L356 -5L323 -17L17 717Z" horiz-adv-x="371" unicode="\"/>
			<glyph d="M165 732H312L155 -156H8L14 -124H124L270 700H159Z" horiz-adv-x="301" unicode="]"/>
			<glyph d="M316 708H350L575 254H539L333 674L127 254H92Z" horiz-adv-x="667" unicode="^"/>
			<glyph d="M0 -88H500V-118H0Z" horiz-adv-x="500" unicode="_"/>
			<glyph d="M68 708H116L220 564H187Z" horiz-adv-x="241" unicode="`"/>
			<glyph d="M283 477Q356 477 398 441T441 339Q441 322 436 289L402 104Q392 46 392 0H357Q357 39 368 98H365Q335 44 289 16T183 -12Q127 -12 82 16T38 107Q38 206 134 241T397 276Q404 311 404 333Q404 389 372 416T281 444Q241 444 200 427T131 384L117 418Q148 446 192 461T283 477ZM367 245Q234 245 155 216T77 113Q77 63 111 41T192 20Q270 20 319 76T385 211L392 245Z" horiz-adv-x="520" unicode="a"/>
			<glyph d="M226 759L155 359H158Q184 410 238 443T356 477Q454 477 508 420T562 273Q562 196 529 130T436 26T299 -13Q232 -13 181 21T114 112H111L93 0H54L186 750ZM349 444Q289 444 238 408T157 314T128 191Q128 143 149 104T208 42T295 19Q361 19 413 53T493 145T522 270Q522 346 477 395T349 444Z" horiz-adv-x="626" unicode="b"/>
			<glyph d="M325 477Q370 477 412 461T481 420L463 389Q439 414 401 429T325 444Q259 444 205 408T121 314T91 190Q91 115 135 66T262 18Q303 18 346 33T418 75L424 41Q398 17 351 0T259 -16Q159 -16 105 40T51 186Q51 263 86 330T184 437T325 477Z" horiz-adv-x="478" unicode="c"/>
			<glyph d="M608 759L475 0H437L457 104H455Q428 53 375 20T258 -13Q159 -13 104 43T50 191Q50 268 83 333T178 438T317 477Q382 477 431 442T497 352H500L569 750ZM316 444Q250 444 198 409T117 318T89 194Q89 118 134 68T262 19Q322 19 373 54T454 148T484 272Q484 320 463 359T404 421T316 444Z" horiz-adv-x="620" unicode="d"/>
			<glyph d="M316 477Q407 477 454 426T502 294Q502 262 495 228H91Q89 208 89 198Q89 115 137 67T266 20Q317 20 363 39T440 85L447 47Q372 -13 263 -13Q165 -13 107 44T50 195Q50 269 84 334T180 438T316 477ZM315 444Q255 444 208 416T133 346T96 259H462Q464 285 464 298Q464 364 424 404T315 444Z" horiz-adv-x="558" unicode="e"/>
			<glyph d="M342 768Q364 768 386 764T422 757L410 724Q374 735 336 735Q286 735 257 700T219 613L192 463H313L298 431H188L111 0H73L149 431H51L68 463H153L180 614Q193 693 237 730T342 768Z" horiz-adv-x="288" unicode="f"/>
			<glyph d="M320 477Q386 477 435 442T500 351H503L523 463H560L482 20Q460 -101 402 -174T219 -247Q155 -247 105 -228T22 -176L34 -134Q67 -171 115 -192T219 -213Q324 -213 374 -150T445 20L461 109H459Q431 55 378 22T261 -10Q163 -10 108 47T54 195Q54 271 87 335T181 438T320 477ZM320 444Q253 444 201 410T121 320T93 197Q93 122 138 72T267 23Q328 23 378 58T458 150T488 273Q488 320 467 359T408 421T320 444Z" horiz-adv-x="621" unicode="g"/>
			<glyph d="M224 759L156 362H158Q187 417 234 447T335 477Q408 477 446 434T484 320Q484 296 479 264L432 0H393L441 269Q445 289 445 316Q445 371 416 407T327 444Q283 444 243 418T173 340T130 215L92 0H53L184 750Z" unicode="h"/>
			<glyph d="M185 688Q197 688 205 680T214 658Q214 643 204 632T181 622Q168 622 159 630T151 653Q151 667 161 677T185 688ZM135 463H174L92 0H53Z" horiz-adv-x="234" unicode="i"/>
			<glyph d="M185 688Q197 688 205 680T214 658Q214 643 204 632T182 622Q168 622 159 630T151 653Q151 667 161 677T185 688ZM135 463H174L76 -94Q63 -163 33 -202T-63 -241Q-81 -241 -101 -236L-94 -204Q-74 -208 -64 -208Q-14 -208 7 -177T38 -92Z" horiz-adv-x="235" unicode="j"/>
			<glyph d="M225 759L137 252H139L399 463H455L180 246L408 0H361L138 244H136L93 0H54L186 750Z" horiz-adv-x="455" unicode="k"/>
			<glyph d="M227 759L109 95Q106 80 106 67Q105 51 112 41T136 24L117 -9Q94 -3 80 15T66 60Q66 72 68 84L186 750Z" horiz-adv-x="235" unicode="l"/>
			<glyph d="M328 477Q388 477 426 441T469 350Q497 411 544 444T649 477Q722 477 760 434T798 319Q798 298 793 266L745 0H707L755 269Q759 289 759 314Q759 370 730 407T642 444Q571 444 523 387T459 237L417 0H378L427 275Q431 303 431 319Q431 373 404 408T318 444Q252 444 199 382T126 197L92 0H53L115 351Q119 376 123 407T130 463H168Q165 426 153 356Q183 414 228 445T328 477Z" horiz-adv-x="885" unicode="m"/>
			<glyph d="M335 477Q408 477 446 434T484 320Q484 296 479 264L432 0H393L441 269Q445 289 445 317Q445 372 416 408T327 444Q283 444 243 418T173 340T130 215L92 0H53L115 351Q119 376 123 407T130 463H168Q165 426 153 356H155Q184 414 232 445T335 477Z" unicode="n"/>
			<glyph d="M320 477Q387 477 435 450T509 377T535 272Q535 195 501 130T406 26T265 -13Q198 -13 149 13T75 86T50 192Q50 268 84 333T179 438T320 477ZM318 443Q251 443 199 409T118 318T90 195Q90 118 135 69T266 20Q333 20 385 54T466 145T495 269Q495 344 449 393T318 443Z" horiz-adv-x="598" unicode="o"/>
			<glyph d="M356 477Q454 477 508 420T562 273Q562 196 529 130T436 26T299 -13Q233 -13 182 21T115 112H112L50 -240H12L136 463H174L155 359H158Q185 410 238 443T356 477ZM349 444Q289 444 238 408T158 315T129 191Q129 143 149 103T208 41T295 19Q361 19 413 53T493 145T522 270Q522 346 477 395T349 444Z" horiz-adv-x="626" unicode="p"/>
			<glyph d="M316 477Q381 477 430 442T497 352H500L519 463H557L456 -118Q454 -136 454 -142Q454 -169 468 -184T510 -206L491 -240Q417 -219 417 -150Q417 -143 419 -125L456 104H454Q428 52 375 19T257 -13Q158 -13 104 43T50 191Q50 268 83 333T177 438T316 477ZM316 444Q250 444 198 409T117 318T89 194Q89 118 134 68T262 19Q322 19 373 55T454 149T484 273Q484 321 463 360T404 421T316 444Z" horiz-adv-x="619" unicode="q"/>
			<glyph d="M324 477Q339 477 351 475L336 439Q324 441 311 441Q240 441 194 380T131 221L92 0H53L115 351Q119 376 123 407T130 463H168Q165 426 153 356H155Q184 416 228 446T324 477Z" horiz-adv-x="322" unicode="r"/>
			<glyph d="M241 477Q282 477 320 462T379 429L358 400Q338 418 307 431T240 444Q186 444 149 417T113 343Q113 308 136 289T209 257Q278 238 309 207T340 130Q340 66 292 27T172 -12Q123 -12 83 2T20 40L35 75Q57 51 92 36T171 21Q227 21 264 50T301 126Q301 164 274 187T186 227Q130 243 102 270T74 340Q74 383 97 414T159 461T241 477Z" horiz-adv-x="415" unicode="s"/>
			<glyph d="M196 598L172 463H310L294 431H167L112 118Q108 96 108 81Q108 50 125 36T174 23Q207 23 253 46L254 14Q208 -10 161 -10Q119 -10 94 11T69 73Q69 91 73 113L129 431H50L66 463H134L155 578Z" horiz-adv-x="300" unicode="t"/>
			<glyph d="M122 463H161L113 194Q108 167 108 147Q108 91 136 55T227 19Q297 19 351 78T425 249L462 463H501L439 112Q427 47 424 0H386Q389 36 401 107H399Q369 49 321 18T218 -13Q146 -13 108 29T70 143Q70 164 75 196Z" unicode="u"/>
			<glyph d="M53 463H93L171 40H173L420 463H463L187 0H142Z" horiz-adv-x="446" unicode="v"/>
			<glyph d="M68 463H108L141 45H143L369 463H413L468 45H470L678 463H720L484 0H439L383 416H381L155 0H111Z" horiz-adv-x="708" unicode="w"/>
			<glyph d="M75 463H118L222 268L398 463H447L241 241L379 0H334L213 218L13 0H-36L195 245Z" horiz-adv-x="450" unicode="x"/>
			<glyph d="M60 463H100L185 34L421 463H465L126 -136Q97 -191 56 -215T-41 -240L-49 -204Q4 -203 37 -184T96 -118L158 -9Z" horiz-adv-x="448" unicode="y"/>
			<glyph d="M93 463H420L414 431L50 33H364L349 0H-4L0 31L365 431H77Z" horiz-adv-x="436" unicode="z"/>
			<glyph d="M269 732H322L317 700H270Q194 700 177 602L144 413Q134 353 106 324T47 289V287Q71 283 87 262T103 202Q103 193 101 173L66 -36Q64 -46 64 -63Q64 -124 123 -124H171L165 -156H112Q25 -156 25 -69Q25 -51 27 -41L62 170Q64 182 64 203Q64 240 48 256T3 272L9 304Q87 304 107 417L140 606Q151 672 185 702T269 732Z" horiz-adv-x="301" unicode="{"/>
			<glyph d="M92 750H128V-250H92Z" horiz-adv-x="222" unicode="|"/>
			<glyph d="M147 732H200Q289 732 289 645Q289 637 287 617L252 406Q249 387 249 373Q249 304 310 304L303 272Q227 272 207 159L174 -30Q163 -96 127 -126T43 -156H-10L-3 -124H45Q84 -124 106 -98T137 -26L170 163Q180 223 207 252T266 287V289Q242 293 226 313T211 374Q211 381 213 403L249 612Q251 630 251 637Q251 700 190 700H143Z" horiz-adv-x="301" unicode="}"/>
			<glyph d="M225 362Q253 362 276 354T328 327Q365 301 392 290T442 280Q477 280 502 302T551 361L576 336Q549 293 515 269T443 245Q412 245 390 253T339 280Q297 307 275 316T227 326Q190 326 164 305T117 245L92 269Q121 317 153 339T225 362Z" horiz-adv-x="666" unicode="~"/>
			<glyph d="" horiz-adv-x="250" unicode=" "/>
			<glyph d="M164 491Q178 491 187 482T196 457Q196 443 185 431T161 420Q147 420 137 428T128 452Q128 468 139 479T164 491ZM119 290H159L68 -223H28Z" horiz-adv-x="279" unicode="¡"/>
			<glyph d="M351 541H382L370 476Q414 473 450 456T507 411L478 387Q461 412 430 427T365 444L291 17Q332 18 370 34T435 77L457 53Q424 20 379 2T285 -16L274 -72H243L253 -14Q168 -5 123 49T78 186Q78 261 111 326T204 433T339 477ZM335 444Q273 440 223 403T145 310T117 190Q117 122 154 75T260 20Z" horiz-adv-x="568" unicode="¢"/>
			<glyph d="M448 726Q484 726 517 715T573 688L551 654Q505 691 441 691Q362 691 316 637T258 502L237 385H416L399 351H231L197 158Q189 112 165 80T106 34H433L417 0H22L29 34H40Q89 34 118 70T156 154L191 351H83L99 385H197L218 506Q235 605 293 665T448 726Z" horiz-adv-x="568" unicode="£"/>
			<glyph d="M154 587L245 496Q314 557 412 557Q461 557 503 541T577 497L667 587L694 562L604 472Q658 405 658 310Q658 261 643 218T600 142L694 48L668 22L573 117Q507 60 412 60Q317 60 250 119L153 22Q150 25 140 35T127 48L223 144Q167 211 167 310Q167 404 220 471L127 562ZM412 520Q351 520 304 492T231 416T206 310Q206 251 231 202T304 125T412 97Q473 97 520 125T592 202T618 310Q618 368 592 416T520 492T412 520Z" horiz-adv-x="822" unicode="¤"/>
			<glyph d="M114 708H159L309 388L575 708H625L340 377H517L502 346H319L297 224H490L475 193H293L258 0H220L254 193H62L77 224H259L281 346H88L105 377H278Z" horiz-adv-x="568" unicode="¥"/>
			<glyph d="M95 675H127V337H95ZM95 163H127V-175H95Z" horiz-adv-x="222" unicode="¦"/>
			<glyph d="M359 726Q411 726 451 709T513 659L482 636Q462 663 430 677T358 692Q319 692 286 675T233 628T213 561Q213 516 238 492T318 445Q376 422 407 401T452 355T467 290Q467 231 424 193T322 144Q394 103 394 30Q394 -51 339 -93T200 -135Q146 -135 101 -113T29 -56L62 -31Q86 -65 122 -83T202 -101Q266 -101 310 -70T354 22Q354 68 328 94T245 144Q188 166 157 186T112 231T98 293Q98 355 140 393T245 445Q208 466 190 491T172 557Q172 604 196 643T264 704T359 726ZM279 424Q227 418 182 385T138 298Q138 252 163 229T241 185L289 166Q343 171 385 203T427 287Q427 332 401 358T325 405Z" horiz-adv-x="567" unicode="§"/>
			<glyph d="M110 689Q123 689 131 681T139 658Q139 644 129 632T106 621Q93 621 84 629T76 653Q76 668 86 678T110 689ZM275 689Q288 689 296 681T305 658Q305 644 295 632T272 621Q258 621 250 629T242 653Q242 668 251 678T275 689Z" horiz-adv-x="241" unicode="¨"/>
			<glyph d="M401 730Q504 730 591 679T729 542T780 353Q780 250 729 164T591 28T401 -22Q298 -22 210 28T71 164T20 353Q20 456 71 542T210 679T401 730ZM401 696Q307 696 227 650T101 525T55 353Q55 260 101 181T227 57T401 12Q495 12 574 57T699 181T745 353Q745 447 699 525T574 650T401 696ZM415 579Q455 579 495 565T560 530L548 496Q523 518 488 531T415 545Q362 545 320 519T256 449T234 353Q234 302 256 258T320 188T415 162Q454 162 490 176T548 212L552 177Q530 155 493 141T415 128Q352 128 302 157T224 237T196 353Q196 418 224 469T302 550T415 579Z" horiz-adv-x="800" unicode="©"/>
			<glyph d="M250 720Q294 720 321 698T349 638Q349 630 346 606L325 495Q320 458 320 431H293Q293 461 299 491H297Q281 459 253 441T189 424Q155 424 127 442T99 499Q99 559 156 580T315 601Q319 617 319 633Q319 663 299 678T247 693Q200 693 160 661L147 684Q168 701 195 710T250 720ZM296 578Q131 578 131 501Q131 473 151 461T198 450Q243 450 270 480T306 553L311 578Z" horiz-adv-x="351" unicode="ª"/>
			<glyph d="M235 440L258 420L111 236L194 57L164 39L71 239ZM408 440L431 420L284 236L367 57L338 39L244 239Z" horiz-adv-x="487" unicode="«"/>
			<glyph d="M88 403H579V133H542V369H88Z" horiz-adv-x="666" unicode="¬"/>
			<glyph d="M59 267H254L247 234H52Z" horiz-adv-x="306" unicode="­"/>
			<glyph d="M341 720Q403 720 455 690T537 608T568 494Q568 432 537 380T455 299T341 269Q279 269 226 299T143 380T112 494Q112 556 143 608T226 690T341 720ZM341 695Q286 695 239 668T165 595T138 494Q138 440 165 393T239 319T341 292Q395 292 441 319T515 393T542 494Q542 549 515 595T442 668T341 695ZM259 622H346Q385 622 409 603T433 550Q433 521 414 503T368 482L443 369H406L337 479H290V369H259ZM290 596V502H333Q366 502 384 513T402 551Q402 596 345 596Z" horiz-adv-x="600" unicode="®"/>
			<glyph d="M67 646H313L307 615H61Z" horiz-adv-x="241" unicode="¯"/>
			<glyph d="M256 717Q296 717 329 697T382 644T402 571Q402 530 382 496T329 443T256 424Q215 424 181 443T128 496T109 571Q109 611 128 644T181 697T256 717ZM256 688Q207 688 173 653T139 571Q139 522 173 487T256 453Q304 453 338 487T373 571Q373 619 338 653T256 688Z" horiz-adv-x="400" unicode="°"/>
			<glyph d="M313 561H349V378H579V344H349V165H314V344H88V378H313ZM91 82H576V48H91Z" horiz-adv-x="666" unicode="±"/>
			<glyph d="M259 883Q304 883 334 856T364 788Q364 742 342 710T260 625L102 483H329L319 453H56L62 486L245 650Q295 694 313 722T331 783Q331 816 310 834T256 853Q220 853 189 833T139 780L125 811Q174 883 259 883Z" horiz-adv-x="322" unicode="²"/>
			<glyph d="M241 883Q287 883 316 857T345 785Q345 736 316 708T243 673Q280 665 302 638T324 571Q324 511 284 477T185 443Q139 443 106 463T58 519L90 531Q101 503 127 488T185 473Q234 473 262 499T291 570Q291 615 263 636T191 658H173L178 688H196Q250 688 281 713T312 781Q312 817 291 835T238 854Q187 854 152 809L128 828Q173 883 241 883Z" horiz-adv-x="318" unicode="³"/>
			<glyph d="M245 708H294L151 564H118Z" horiz-adv-x="241" unicode="´"/>
			<glyph d="M89 463H124V186Q124 108 165 67T283 27Q375 27 416 78T457 229V463H492V0H460L457 94H455Q407 -10 283 -10Q224 -10 184 11T126 70H124V-20V-240H89Z" horiz-adv-x="582" unicode="µ"/>
			<glyph d="M358 708H564L417 -126H381L522 678H378L236 -126H199L279 333Q223 333 181 352T118 406T96 483Q96 547 128 598T219 679T358 708Z" horiz-adv-x="600" unicode="¶"/>
			<glyph d="M133 309Q146 309 155 300T165 277Q165 261 154 249T129 238Q115 238 106 247T97 271Q97 286 107 297T133 309Z" horiz-adv-x="247" unicode="·"/>
			<glyph d="M71 0H100L30 -83Q51 -76 75 -76Q106 -76 129 -91T153 -139Q153 -183 118 -205T32 -227Q11 -227 -16 -221T-62 -207L-51 -183Q-35 -191 -12 -195T31 -200Q73 -200 95 -184T118 -142Q118 -120 102 -109T62 -98Q48 -98 28 -101T-3 -111L-14 -100Z" horiz-adv-x="241" unicode="¸"/>
			<glyph d="M216 874H247L173 453H138L204 833L108 771L91 797Z" horiz-adv-x="200" unicode="¹"/>
			<glyph d="M245 721Q306 721 340 686T375 596Q375 550 354 510T296 446T210 423Q149 423 114 458T80 548Q80 594 101 634T159 697T245 721ZM242 694Q204 694 174 674T129 621T113 550Q113 507 138 478T212 450Q250 450 280 470T326 523T343 594Q343 636 317 665T242 694Z" horiz-adv-x="351" unicode="º"/>
			<glyph d="M145 441L240 239L76 39L52 59L199 242L117 423ZM319 441L412 239L248 39L225 59L372 242L289 423Z" horiz-adv-x="487" unicode="»"/>
			<glyph d="M635 737L659 720L84 -28L60 -11ZM206 709H238L164 288H128L195 668L98 606L82 631ZM599 421H643L592 135H664L654 105H588L569 1H536L555 105H361L367 137ZM600 378L401 135H560L603 378Z" horiz-adv-x="720" unicode="¼"/>
			<glyph d="M635 737L659 720L84 -28L60 -11ZM219 709H251L177 288H141L208 668L111 606L95 631ZM602 428Q647 428 677 401T707 333Q707 288 685 256T603 170L445 29H672L661 -2H399L405 31L588 195Q638 239 656 267T674 328Q674 361 653 379T599 398Q563 398 532 378T482 325L468 356Q517 428 602 428Z" horiz-adv-x="775" unicode="½"/>
			<glyph d="M728 737L752 720L177 -28L153 -11ZM252 717Q299 717 327 691T356 619Q356 570 327 542T255 507Q292 499 313 472T335 405Q335 345 295 311T197 277Q122 277 82 317L91 354Q132 307 201 307Q247 307 275 334T303 404Q303 448 274 470T202 492H184L189 521H208Q261 521 292 546T324 614Q324 651 302 669T249 688Q200 688 157 649L148 679Q193 717 252 717ZM652 421H696L645 135H717L707 105H641L622 1H589L608 105H414L420 137ZM653 378L454 135H613L656 378Z" horiz-adv-x="815" unicode="¾"/>
			<glyph d="M263 492Q278 492 287 483T296 458Q296 443 285 431T260 420Q247 420 237 429T228 453Q228 469 238 480T263 492ZM224 287H263L253 232Q246 183 221 151T136 74Q82 33 56 -2T30 -83Q30 -140 65 -171T155 -202Q207 -202 252 -177T327 -113L347 -146Q313 -189 264 -214T155 -239Q83 -239 36 -199T-10 -85Q-10 -26 21 16T109 98Q166 137 187 166T217 245Z" horiz-adv-x="477" unicode="¿"/>
			<glyph d="M413 708H460L593 0H552L500 278H180L5 0H-42ZM430 670L202 314H494ZM308 908H356L460 764H427Z" horiz-adv-x="653" unicode="À"/>
			<glyph d="M413 708H460L593 0H552L500 278H180L5 0H-42ZM430 670L202 314H494ZM543 908H592L449 764H416Z" horiz-adv-x="653" unicode="Á"/>
			<glyph d="M413 708H460L593 0H552L500 278H180L5 0H-42ZM430 670L202 314H494ZM447 908H494L570 764H535L468 888L355 764H315Z" horiz-adv-x="653" unicode="Â"/>
			<glyph d="M413 708H460L593 0H552L500 278H180L5 0H-42ZM430 670L202 314H494ZM571 870H597Q586 832 564 811T514 790Q501 790 484 796T443 816Q405 837 393 837Q359 837 341 787H315Q327 825 349 847T398 869Q414 869 427 863T461 845Q482 831 494 826T519 821Q538 821 550 833T571 870Z" horiz-adv-x="653" unicode="Ã"/>
			<glyph d="M413 708H460L593 0H552L500 278H180L5 0H-42ZM430 670L202 314H494ZM379 889Q391 889 399 880T408 858Q408 843 398 832T375 821Q362 821 353 829T345 853Q345 867 355 878T379 889ZM544 889Q557 889 565 880T574 858Q574 843 564 832T541 821Q527 821 519 829T511 853Q511 868 520 878T544 889Z" horiz-adv-x="653" unicode="Ä"/>
			<glyph d="M413 708H460L593 0H552L500 278H180L5 0H-42ZM430 670L202 314H494ZM470 945Q509 945 531 923T554 866Q554 820 524 787T449 755Q410 755 388 777T366 834Q366 880 395 912T470 945ZM469 925Q434 925 412 899T390 836Q390 810 405 793T450 776Q485 776 507 802T530 864Q530 890 514 907T469 925Z" horiz-adv-x="653" unicode="Å"/>
			<glyph d="M554 708H929L912 673H613L563 385H857L840 350H557L501 36H839L823 0H455L491 203H187L19 0H-30ZM569 673L214 238H497L574 673Z" horiz-adv-x="920" unicode="Æ"/>
			<glyph d="M496 727Q568 727 631 702T729 639L708 598Q677 639 621 665T495 691Q390 691 304 635T170 487T121 292Q121 214 151 151T244 53T397 17Q461 17 521 44T628 115L633 78Q594 39 527 10T395 -19H388L334 -82Q357 -76 379 -76Q410 -76 433 -91T457 -139Q457 -183 422 -205T336 -227Q315 -227 287 -221T241 -207L253 -183Q269 -191 292 -195T335 -200Q377 -200 399 -184T422 -142Q422 -120 405 -109T366 -98Q352 -98 332 -101T301 -111L290 -100L360 -18Q270 -11 207 29T111 135T79 287Q79 409 136 510T289 669T496 727Z" horiz-adv-x="722" unicode="Ç"/>
			<glyph d="M182 708H537L521 673H214L164 385H465L449 350H158L103 36H448L431 0H57ZM280 908H328L432 764H399Z" horiz-adv-x="528" unicode="È"/>
			<glyph d="M182 708H537L521 673H214L164 385H465L449 350H158L103 36H448L431 0H57ZM445 908H494L351 764H318Z" horiz-adv-x="528" unicode="É"/>
			<glyph d="M182 708H537L521 673H214L164 385H465L449 350H158L103 36H448L431 0H57ZM377 908H424L500 764H465L398 888L285 764H245Z" horiz-adv-x="528" unicode="Ê"/>
			<glyph d="M182 708H537L521 673H214L164 385H465L449 350H158L103 36H448L431 0H57ZM304 889Q316 889 324 880T333 858Q333 843 323 832T300 821Q287 821 278 829T270 853Q270 867 280 878T304 889ZM469 889Q482 889 490 880T499 858Q499 843 489 832T466 821Q452 821 444 829T436 853Q436 868 445 878T469 889Z" horiz-adv-x="528" unicode="Ë"/>
			<glyph d="M182 708H222L97 0H57ZM75 908H123L227 764H194Z" horiz-adv-x="244" unicode="Ì"/>
			<glyph d="M182 708H222L97 0H57ZM316 908H365L222 764H189Z" horiz-adv-x="244" unicode="Í"/>
			<glyph d="M182 708H222L97 0H57ZM212 908H259L335 764H300L233 888L120 764H80Z" horiz-adv-x="244" unicode="Î"/>
			<glyph d="M182 708H222L97 0H57ZM142 889Q154 889 162 880T171 858Q171 843 161 832T138 821Q125 821 116 829T108 853Q108 867 118 878T142 889ZM307 889Q320 889 328 880T337 858Q337 843 327 832T304 821Q290 821 282 829T274 853Q274 868 283 878T307 889Z" horiz-adv-x="244" unicode="Ï"/>
			<glyph d="M182 708H379Q472 708 548 674T670 575T715 415Q715 281 655 187T493 47T264 0H57L119 354H44L51 386H125ZM217 673L166 386H425L420 354H160L104 36H265Q383 36 475 79T620 206T673 410Q673 491 635 550T530 641T370 673Z" horiz-adv-x="769" unicode="Ð"/>
			<glyph d="M182 708H233L570 53H572L687 708H727L602 0H551L215 658H213L97 0H57ZM588 870H614Q603 832 581 811T531 790Q518 790 501 796T460 816Q422 837 410 837Q376 837 358 787H332Q344 825 366 847T415 869Q431 869 444 863T478 845Q499 831 511 826T536 821Q555 821 567 833T588 870Z" horiz-adv-x="750" unicode="Ñ"/>
			<glyph d="M487 727Q587 727 659 687T768 576T805 415Q805 299 753 199T609 40T398 -19Q298 -19 226 20T116 130T79 292Q79 408 131 508T276 667T487 727ZM486 691Q380 691 296 635T167 488T121 294Q121 215 152 152T246 53T399 17Q505 17 588 72T717 218T763 413Q763 492 732 555T638 654T486 691ZM394 908H442L546 764H513Z" horiz-adv-x="859" unicode="Ò"/>
			<glyph d="M487 727Q587 727 659 687T768 576T805 415Q805 299 753 199T609 40T398 -19Q298 -19 226 20T116 130T79 292Q79 408 131 508T276 667T487 727ZM486 691Q380 691 296 635T167 488T121 294Q121 215 152 152T246 53T399 17Q505 17 588 72T717 218T763 413Q763 492 732 555T638 654T486 691ZM597 908H646L503 764H470Z" horiz-adv-x="859" unicode="Ó"/>
			<glyph d="M487 727Q587 727 659 687T768 576T805 415Q805 299 753 199T609 40T398 -19Q298 -19 226 20T116 130T79 292Q79 408 131 508T276 667T487 727ZM486 691Q380 691 296 635T167 488T121 294Q121 215 152 152T246 53T399 17Q505 17 588 72T717 218T763 413Q763 492 732 555T638 654T486 691ZM520 908H567L643 764H608L541 888L428 764H388Z" horiz-adv-x="859" unicode="Ô"/>
			<glyph d="M487 727Q587 727 659 687T768 576T805 415Q805 299 753 199T609 40T398 -19Q298 -19 226 20T116 130T79 292Q79 408 131 508T276 667T487 727ZM486 691Q380 691 296 635T167 488T121 294Q121 215 152 152T246 53T399 17Q505 17 588 72T717 218T763 413Q763 492 732 555T638 654T486 691ZM639 870H665Q654 832 632 811T582 790Q569 790 552 796T511 816Q473 837 461 837Q427 837 409 787H383Q395 825 417 847T466 869Q482 869 495 863T529 845Q550 831 562 826T587 821Q606 821 618 833T639 870Z" horiz-adv-x="859" unicode="Õ"/>
			<glyph d="M487 727Q587 727 659 687T768 576T805 415Q805 299 753 199T609 40T398 -19Q298 -19 226 20T116 130T79 292Q79 408 131 508T276 667T487 727ZM486 691Q380 691 296 635T167 488T121 294Q121 215 152 152T246 53T399 17Q505 17 588 72T717 218T763 413Q763 492 732 555T638 654T486 691ZM447 889Q459 889 467 880T476 858Q476 843 466 832T443 821Q430 821 421 829T413 853Q413 867 423 878T447 889ZM612 889Q625 889 633 880T642 858Q642 843 632 832T609 821Q595 821 587 829T579 853Q579 868 588 878T612 889Z" horiz-adv-x="859" unicode="Ö"/>
			<glyph d="M160 503L334 330L507 503L531 480L358 306L531 133L506 109L334 281L161 109L136 133L310 306L136 480Z" horiz-adv-x="666" unicode="×"/>
			<glyph d="M489 727Q561 727 619 706T719 645L802 725L820 704L737 625Q771 585 789 531T807 415Q807 299 755 199T609 40T398 -19Q322 -19 261 4T160 72L71 -13L53 7L141 93Q79 172 79 292Q79 408 131 508T277 667T489 727ZM488 691Q382 691 298 635T167 488T121 294Q121 192 172 120L689 617Q618 691 488 691ZM707 596L189 99Q258 17 399 17Q505 17 588 72T718 218T765 413Q765 523 707 596Z" horiz-adv-x="859" unicode="Ø"/>
			<glyph d="M174 708H214L138 275Q132 242 132 210Q132 123 180 70T329 17Q456 17 511 88T586 272L663 708H703L625 267Q602 137 535 59T329 -19Q212 -19 151 40T91 204Q91 241 98 279ZM319 908H367L471 764H438Z" horiz-adv-x="715" unicode="Ù"/>
			<glyph d="M174 708H214L138 275Q132 242 132 210Q132 123 180 70T329 17Q456 17 511 88T586 272L663 708H703L625 267Q602 137 535 59T329 -19Q212 -19 151 40T91 204Q91 241 98 279ZM529 908H578L435 764H402Z" horiz-adv-x="715" unicode="Ú"/>
			<glyph d="M174 708H214L138 275Q132 242 132 210Q132 123 180 70T329 17Q456 17 511 88T586 272L663 708H703L625 267Q602 137 535 59T329 -19Q212 -19 151 40T91 204Q91 241 98 279ZM450 908H497L573 764H538L471 888L358 764H318Z" horiz-adv-x="715" unicode="Û"/>
			<glyph d="M174 708H214L138 275Q132 242 132 210Q132 123 180 70T329 17Q456 17 511 88T586 272L663 708H703L625 267Q602 137 535 59T329 -19Q212 -19 151 40T91 204Q91 241 98 279ZM379 889Q391 889 399 880T408 858Q408 843 398 832T375 821Q362 821 353 829T345 853Q345 867 355 878T379 889ZM544 889Q557 889 565 880T574 858Q574 843 564 832T541 821Q527 821 519 829T511 853Q511 868 520 878T544 889Z" horiz-adv-x="715" unicode="Ü"/>
			<glyph d="M77 708H122L270 344L566 708H616L284 308L230 0H190L244 308ZM448 908H497L354 764H321Z" horiz-adv-x="529" unicode="Ý"/>
			<glyph d="M182 708H222L195 553H338Q426 553 483 513T540 391Q540 331 511 284T425 210T287 184H130L97 0H57ZM189 518L136 218H293Q390 218 444 264T499 389Q499 456 454 487T340 518Z" horiz-adv-x="568" unicode="Þ"/>
			<glyph d="M367 768Q443 768 493 726T543 609Q543 534 497 488T384 429L383 427Q443 415 483 366T524 241Q524 171 492 113T399 22T257 -11Q236 -11 204 -7L210 27Q234 23 259 23Q323 23 374 50T455 126T484 238Q484 312 439 361T314 410H300L307 445H321Q368 445 409 462T477 516T503 603Q503 666 465 700T367 734Q281 734 240 678T184 536L90 0H51L146 539Q185 768 367 768Z" horiz-adv-x="584" unicode="ß"/>
			<glyph d="M283 477Q356 477 398 441T441 339Q441 322 436 289L402 104Q392 46 392 0H357Q357 39 368 98H365Q335 44 289 16T183 -12Q127 -12 82 16T38 107Q38 206 134 241T397 276Q404 311 404 333Q404 389 372 416T281 444Q241 444 200 427T131 384L117 418Q148 446 192 461T283 477ZM367 245Q234 245 155 216T77 113Q77 63 111 41T192 20Q270 20 319 76T385 211L392 245ZM186 708H234L338 564H305Z" horiz-adv-x="520" unicode="à"/>
			<glyph d="M283 477Q356 477 398 441T441 339Q441 322 436 289L402 104Q392 46 392 0H357Q357 39 368 98H365Q335 44 289 16T183 -12Q127 -12 82 16T38 107Q38 206 134 241T397 276Q404 311 404 333Q404 389 372 416T281 444Q241 444 200 427T131 384L117 418Q148 446 192 461T283 477ZM367 245Q234 245 155 216T77 113Q77 63 111 41T192 20Q270 20 319 76T385 211L392 245ZM399 708H448L305 564H272Z" horiz-adv-x="520" unicode="á"/>
			<glyph d="M283 477Q356 477 398 441T441 339Q441 322 436 289L402 104Q392 46 392 0H357Q357 39 368 98H365Q335 44 289 16T183 -12Q127 -12 82 16T38 107Q38 206 134 241T397 276Q404 311 404 333Q404 389 372 416T281 444Q241 444 200 427T131 384L117 418Q148 446 192 461T283 477ZM367 245Q234 245 155 216T77 113Q77 63 111 41T192 20Q270 20 319 76T385 211L392 245ZM318 708H365L441 564H406L339 688L226 564H186Z" horiz-adv-x="520" unicode="â"/>
			<glyph d="M283 477Q356 477 398 441T441 339Q441 322 436 289L402 104Q392 46 392 0H357Q357 39 368 98H365Q335 44 289 16T183 -12Q127 -12 82 16T38 107Q38 206 134 241T397 276Q404 311 404 333Q404 389 372 416T281 444Q241 444 200 427T131 384L117 418Q148 446 192 461T283 477ZM367 245Q234 245 155 216T77 113Q77 63 111 41T192 20Q270 20 319 76T385 211L392 245ZM435 670H461Q450 632 428 611T378 590Q365 590 348 597T308 617Q293 625 278 631T257 638Q223 638 205 587H179Q191 625 213 647T262 669Q278 669 291 663T325 645Q346 631 358 626T383 621Q402 621 414 633T435 670Z" horiz-adv-x="520" unicode="ã"/>
			<glyph d="M283 477Q356 477 398 441T441 339Q441 322 436 289L402 104Q392 46 392 0H357Q357 39 368 98H365Q335 44 289 16T183 -12Q127 -12 82 16T38 107Q38 206 134 241T397 276Q404 311 404 333Q404 389 372 416T281 444Q241 444 200 427T131 384L117 418Q148 446 192 461T283 477ZM367 245Q234 245 155 216T77 113Q77 63 111 41T192 20Q270 20 319 76T385 211L392 245ZM243 689Q256 689 264 681T272 658Q272 644 262 632T239 621Q226 621 217 629T209 653Q209 668 219 678T243 689ZM408 689Q421 689 429 681T438 658Q438 644 428 632T405 621Q391 621 383 629T375 653Q375 668 384 678T408 689Z" horiz-adv-x="520" unicode="ä"/>
			<glyph d="M283 477Q356 477 398 441T441 339Q441 322 436 289L402 104Q392 46 392 0H357Q357 39 368 98H365Q335 44 289 16T183 -12Q127 -12 82 16T38 107Q38 206 134 241T397 276Q404 311 404 333Q404 389 372 416T281 444Q241 444 200 427T131 384L117 418Q148 446 192 461T283 477ZM367 245Q234 245 155 216T77 113Q77 63 111 41T192 20Q270 20 319 76T385 211L392 245ZM335 746Q374 746 396 723T419 666Q419 620 389 587T314 555Q275 555 253 577T231 634Q231 680 260 713T335 746ZM334 725Q299 725 277 699T255 636Q255 610 270 593T315 577Q350 577 372 602T395 664Q395 690 379 707T334 725Z" horiz-adv-x="520" unicode="å"/>
			<glyph d="M284 477Q349 477 389 446T436 358Q467 410 520 443T638 477Q729 477 777 426T825 294Q825 259 816 228H424Q421 213 421 198Q421 117 465 68T588 19Q639 19 685 38T761 85L769 47Q692 -13 585 -13Q505 -13 454 31T395 144Q372 78 319 33T188 -12Q129 -12 83 16T37 104Q37 196 131 227T393 259Q404 309 404 332Q404 388 372 416T281 444Q242 444 205 429T136 389L118 417Q154 445 198 461T284 477ZM638 444Q580 444 536 416T465 346T429 259H784Q786 285 786 298Q786 364 746 404T638 444ZM362 229Q229 229 153 202T77 110Q77 62 112 40T194 19Q272 19 320 73T383 204L388 229Z" horiz-adv-x="879" unicode="æ"/>
			<glyph d="M325 477Q373 477 415 460T480 411L451 387Q433 414 399 429T326 444Q259 444 205 408T121 314T91 190Q91 115 135 66T262 18Q305 18 343 33T409 77L431 53Q395 18 355 2T265 -16L210 -83Q230 -76 254 -76Q285 -76 308 -91T332 -139Q332 -183 298 -205T212 -227Q190 -227 162 -221T117 -207L128 -183Q144 -191 167 -195T210 -200Q253 -200 275 -184T298 -142Q298 -120 281 -109T241 -98Q227 -98 207 -101T177 -111L165 -100L237 -15Q147 -9 99 46T51 186Q51 263 86 330T184 437T325 477Z" horiz-adv-x="478" unicode="ç"/>
			<glyph d="M316 477Q407 477 454 426T502 294Q502 262 495 228H91Q89 208 89 198Q89 115 137 67T266 20Q317 20 363 39T440 85L447 47Q372 -13 263 -13Q165 -13 107 44T50 195Q50 269 84 334T180 438T316 477ZM315 444Q255 444 208 416T133 346T96 259H462Q464 285 464 298Q464 364 424 404T315 444ZM221 708H269L373 564H340Z" horiz-adv-x="558" unicode="è"/>
			<glyph d="M316 477Q407 477 454 426T502 294Q502 262 495 228H91Q89 208 89 198Q89 115 137 67T266 20Q317 20 363 39T440 85L447 47Q372 -13 263 -13Q165 -13 107 44T50 195Q50 269 84 334T180 438T316 477ZM315 444Q255 444 208 416T133 346T96 259H462Q464 285 464 298Q464 364 424 404T315 444ZM414 708H463L320 564H287Z" horiz-adv-x="558" unicode="é"/>
			<glyph d="M316 477Q407 477 454 426T502 294Q502 262 495 228H91Q89 208 89 198Q89 115 137 67T266 20Q317 20 363 39T440 85L447 47Q372 -13 263 -13Q165 -13 107 44T50 195Q50 269 84 334T180 438T316 477ZM315 444Q255 444 208 416T133 346T96 259H462Q464 285 464 298Q464 364 424 404T315 444ZM350 708H397L473 564H438L371 688L258 564H218Z" horiz-adv-x="558" unicode="ê"/>
			<glyph d="M316 477Q407 477 454 426T502 294Q502 262 495 228H91Q89 208 89 198Q89 115 137 67T266 20Q317 20 363 39T440 85L447 47Q372 -13 263 -13Q165 -13 107 44T50 195Q50 269 84 334T180 438T316 477ZM315 444Q255 444 208 416T133 346T96 259H462Q464 285 464 298Q464 364 424 404T315 444ZM275 689Q288 689 296 681T304 658Q304 644 294 632T271 621Q258 621 249 629T241 653Q241 668 251 678T275 689ZM440 689Q453 689 461 681T470 658Q470 644 460 632T437 621Q423 621 415 629T407 653Q407 668 416 678T440 689Z" horiz-adv-x="558" unicode="ë"/>
			<glyph d="M135 463H174L92 0H53ZM45 708H93L197 564H164Z" horiz-adv-x="234" unicode="ì"/>
			<glyph d="M135 463H174L92 0H53ZM271 708H320L177 564H144Z" horiz-adv-x="234" unicode="í"/>
			<glyph d="M135 463H174L92 0H53ZM178 708H225L301 564H266L199 688L86 564H46Z" horiz-adv-x="234" unicode="î"/>
			<glyph d="M135 463H174L92 0H53ZM103 689Q116 689 124 681T132 658Q132 644 122 632T99 621Q86 621 77 629T69 653Q69 668 79 678T103 689ZM268 689Q281 689 289 681T298 658Q298 644 288 632T265 621Q251 621 243 629T235 653Q235 668 244 678T268 689Z" horiz-adv-x="234" unicode="ï"/>
			<glyph d="M309 768Q357 731 392 686L507 744L530 723L413 664Q469 596 509 494T549 287Q549 208 517 139T424 29T278 -13Q211 -13 162 13T88 86T63 192Q63 268 96 333T192 438T333 477Q440 477 493 405L498 407Q484 473 450 538T378 647L255 587L238 609L359 669Q321 714 275 748ZM331 444Q264 444 212 409T131 318T103 195Q103 118 148 68T279 19Q346 19 398 53T479 145T508 269Q508 344 461 394T331 444Z" horiz-adv-x="598" unicode="ð"/>
			<glyph d="M335 477Q408 477 446 434T484 320Q484 296 479 264L432 0H393L441 269Q445 289 445 317Q445 372 416 408T327 444Q283 444 243 418T173 340T130 215L92 0H53L115 351Q119 376 123 407T130 463H168Q165 426 153 356H155Q184 414 232 445T335 477ZM462 670H488Q477 632 455 611T405 590Q392 590 375 597T335 617Q320 625 305 631T284 638Q250 638 232 587H206Q218 625 240 647T289 669Q305 669 318 663T352 645Q373 631 385 626T410 621Q429 621 441 633T462 670Z" unicode="ñ"/>
			<glyph d="M320 477Q387 477 435 450T509 377T535 272Q535 195 501 130T406 26T265 -13Q198 -13 149 13T75 86T50 192Q50 268 84 333T179 438T320 477ZM318 443Q251 443 199 409T118 318T90 195Q90 118 135 69T266 20Q333 20 385 54T466 145T495 269Q495 344 449 393T318 443ZM223 708H271L375 564H342Z" horiz-adv-x="598" unicode="ò"/>
			<glyph d="M320 477Q387 477 435 450T509 377T535 272Q535 195 501 130T406 26T265 -13Q198 -13 149 13T75 86T50 192Q50 268 84 333T179 438T320 477ZM318 443Q251 443 199 409T118 318T90 195Q90 118 135 69T266 20Q333 20 385 54T466 145T495 269Q495 344 449 393T318 443ZM434 708H483L340 564H307Z" horiz-adv-x="598" unicode="ó"/>
			<glyph d="M320 477Q387 477 435 450T509 377T535 272Q535 195 501 130T406 26T265 -13Q198 -13 149 13T75 86T50 192Q50 268 84 333T179 438T320 477ZM318 443Q251 443 199 409T118 318T90 195Q90 118 135 69T266 20Q333 20 385 54T466 145T495 269Q495 344 449 393T318 443ZM358 708H405L481 564H446L379 688L266 564H226Z" horiz-adv-x="598" unicode="ô"/>
			<glyph d="M320 477Q387 477 435 450T509 377T535 272Q535 195 501 130T406 26T265 -13Q198 -13 149 13T75 86T50 192Q50 268 84 333T179 438T320 477ZM318 443Q251 443 199 409T118 318T90 195Q90 118 135 69T266 20Q333 20 385 54T466 145T495 269Q495 344 449 393T318 443ZM473 670H499Q488 632 466 611T416 590Q403 590 386 597T346 617Q331 625 316 631T295 638Q261 638 243 587H217Q229 625 251 647T300 669Q316 669 329 663T363 645Q384 631 396 626T421 621Q440 621 452 633T473 670Z" horiz-adv-x="598" unicode="õ"/>
			<glyph d="M320 477Q387 477 435 450T509 377T535 272Q535 195 501 130T406 26T265 -13Q198 -13 149 13T75 86T50 192Q50 268 84 333T179 438T320 477ZM318 443Q251 443 199 409T118 318T90 195Q90 118 135 69T266 20Q333 20 385 54T466 145T495 269Q495 344 449 393T318 443ZM282 689Q295 689 303 681T311 658Q311 644 301 632T278 621Q265 621 256 629T248 653Q248 668 258 678T282 689ZM447 689Q460 689 468 681T477 658Q477 644 467 632T444 621Q430 621 422 629T414 653Q414 668 423 678T447 689Z" horiz-adv-x="598" unicode="ö"/>
			<glyph d="M333 512Q351 512 363 499T376 468Q376 451 363 438T333 426Q315 426 303 438T291 468Q291 487 303 499T333 512ZM89 320H578V286H89ZM333 180Q351 180 363 167T376 138Q376 119 363 106T333 94Q315 94 303 106T291 138Q291 156 303 168T333 180Z" horiz-adv-x="666" unicode="÷"/>
			<glyph d="M551 481L566 461L495 398Q535 348 535 272Q535 195 501 130T406 26T265 -13Q212 -13 170 3T102 50L29 -15L12 4L86 69Q50 119 50 192Q50 268 84 333T179 438T320 477Q421 477 478 418ZM318 444Q251 444 199 409T118 318T90 195Q90 136 116 96L450 392Q404 444 318 444ZM466 372L130 75Q179 19 266 19Q333 19 385 53T466 145T495 269Q495 330 466 372Z" horiz-adv-x="598" unicode="ø"/>
			<glyph d="M122 463H161L113 194Q108 167 108 147Q108 91 136 55T227 19Q297 19 351 78T425 249L462 463H501L439 112Q427 47 424 0H386Q389 36 401 107H399Q369 49 321 18T218 -13Q146 -13 108 29T70 143Q70 164 75 196ZM193 708H241L345 564H312Z" unicode="ù"/>
			<glyph d="M122 463H161L113 194Q108 167 108 147Q108 91 136 55T227 19Q297 19 351 78T425 249L462 463H501L439 112Q427 47 424 0H386Q389 36 401 107H399Q369 49 321 18T218 -13Q146 -13 108 29T70 143Q70 164 75 196ZM416 708H465L322 564H289Z" unicode="ú"/>
			<glyph d="M122 463H161L113 194Q108 167 108 147Q108 91 136 55T227 19Q297 19 351 78T425 249L462 463H501L439 112Q427 47 424 0H386Q389 36 401 107H399Q369 49 321 18T218 -13Q146 -13 108 29T70 143Q70 164 75 196ZM334 708H381L457 564H422L355 688L242 564H202Z" unicode="û"/>
			<glyph d="M122 463H161L113 194Q108 167 108 147Q108 91 136 55T227 19Q297 19 351 78T425 249L462 463H501L439 112Q427 47 424 0H386Q389 36 401 107H399Q369 49 321 18T218 -13Q146 -13 108 29T70 143Q70 164 75 196ZM260 689Q273 689 281 681T289 658Q289 644 279 632T256 621Q243 621 234 629T226 653Q226 668 236 678T260 689ZM425 689Q438 689 446 681T455 658Q455 644 445 632T422 621Q408 621 400 629T392 653Q392 668 401 678T425 689Z" unicode="ü"/>
			<glyph d="M60 463H100L185 34L421 463H465L126 -136Q97 -191 56 -215T-41 -240L-49 -204Q4 -203 37 -184T96 -118L158 -9ZM373 708H422L279 564H246Z" horiz-adv-x="448" unicode="ý"/>
			<glyph d="M226 759L155 359H158Q185 410 237 443T353 477Q452 477 507 420T562 273Q562 196 528 130T434 26T296 -13Q230 -13 181 21T115 112H112L50 -240H11L185 750ZM349 444Q288 444 236 408T155 315T126 191Q126 143 147 103T206 41T295 19Q361 19 413 53T493 145T522 270Q522 346 477 395T349 444Z" horiz-adv-x="626" unicode="þ"/>
			<glyph d="M60 463H100L185 34L421 463H465L126 -136Q97 -191 56 -215T-41 -240L-49 -204Q4 -203 37 -184T96 -118L158 -9ZM212 689Q225 689 233 681T241 658Q241 644 231 632T208 621Q195 621 186 629T178 653Q178 668 188 678T212 689ZM377 689Q390 689 398 681T407 658Q407 644 397 632T374 621Q360 621 352 629T344 653Q344 668 353 678T377 689Z" horiz-adv-x="448" unicode="ÿ"/>
			<glyph d="M413 708H460L593 0H552L500 278H180L5 0H-42ZM430 670L202 314H494ZM334 846H580L574 815H328Z" horiz-adv-x="653" unicode="Ā"/>
			<glyph d="M283 477Q356 477 398 441T441 339Q441 322 436 289L402 104Q392 46 392 0H357Q357 39 368 98H365Q335 44 289 16T183 -12Q127 -12 82 16T38 107Q38 206 134 241T397 276Q404 311 404 333Q404 389 372 416T281 444Q241 444 200 427T131 384L117 418Q148 446 192 461T283 477ZM367 245Q234 245 155 216T77 113Q77 63 111 41T192 20Q270 20 319 76T385 211L392 245ZM198 646H444L438 615H192Z" horiz-adv-x="520" unicode="ā"/>
			<glyph d="M413 708H460L593 0H552L500 278H180L5 0H-42ZM430 670L202 314H494ZM324 901H352Q352 854 376 829T442 805Q488 805 519 828T565 901H590Q577 841 537 807T440 773Q387 773 355 806T324 901Z" horiz-adv-x="653" unicode="Ă"/>
			<glyph d="M283 477Q356 477 398 441T441 339Q441 322 436 289L402 104Q392 46 392 0H357Q357 39 368 98H365Q335 44 289 16T183 -12Q127 -12 82 16T38 107Q38 206 134 241T397 276Q404 311 404 333Q404 389 372 416T281 444Q241 444 200 427T131 384L117 418Q148 446 192 461T283 477ZM367 245Q234 245 155 216T77 113Q77 63 111 41T192 20Q270 20 319 76T385 211L392 245ZM186 701H214Q214 654 238 629T304 605Q350 605 381 628T427 701H452Q439 641 399 607T302 573Q249 573 217 606T186 701Z" horiz-adv-x="520" unicode="ă"/>
			<glyph d="M413 708H460L593 0H583Q519 -54 494 -86T470 -149Q470 -170 484 -181T521 -193Q539 -193 557 -185T589 -166L598 -190Q555 -223 512 -223Q479 -223 456 -206T433 -158Q433 -119 461 -83T552 0L515 197H129L5 0H-42ZM430 670L152 232H509Z" horiz-adv-x="653" unicode="Ą"/>
			<glyph d="M283 477Q356 477 398 441T441 339Q441 322 436 289L402 104Q392 46 392 0H390Q326 -54 301 -85T277 -148Q277 -170 291 -181T328 -193Q345 -193 363 -185T395 -166L405 -190Q362 -223 318 -223Q285 -223 262 -206T240 -158Q240 -119 268 -83T358 0H357Q357 39 368 98H365Q335 44 289 16T183 -12Q127 -12 82 16T38 107Q38 206 134 241T397 276Q404 311 404 333Q404 389 372 416T281 444Q241 444 200 427T131 384L117 418Q148 446 192 461T283 477ZM367 245Q234 245 155 216T77 113Q77 63 111 41T192 20Q270 20 319 76T385 211L392 245Z" horiz-adv-x="520" unicode="ą"/>
			<glyph d="M496 727Q568 727 631 702T729 639L708 598Q677 639 621 665T495 691Q390 691 304 635T170 487T121 292Q121 214 151 151T244 53T397 17Q461 17 521 44T628 115L633 78Q594 39 527 10T395 -19Q294 -19 223 20T115 128T79 287Q79 409 136 510T289 669T496 727ZM580 908H629L486 764H453Z" horiz-adv-x="722" unicode="Ć"/>
			<glyph d="M325 477Q370 477 412 461T481 420L463 389Q439 414 401 429T325 444Q259 444 205 408T121 314T91 190Q91 115 135 66T262 18Q303 18 346 33T418 75L424 41Q398 17 351 0T259 -16Q159 -16 105 40T51 186Q51 263 86 330T184 437T325 477ZM429 708H478L335 564H302Z" horiz-adv-x="478" unicode="ć"/>
			<glyph d="M496 727Q568 727 631 702T729 639L708 598Q677 639 621 665T495 691Q390 691 304 635T170 487T121 292Q121 214 151 151T244 53T397 17Q461 17 521 44T628 115L633 78Q594 39 527 10T395 -19Q294 -19 223 20T115 128T79 287Q79 409 136 510T289 669T496 727ZM508 908H555L631 764H596L529 888L416 764H376Z" horiz-adv-x="722" unicode="Ĉ"/>
			<glyph d="M325 477Q370 477 412 461T481 420L463 389Q439 414 401 429T325 444Q259 444 205 408T121 314T91 190Q91 115 135 66T262 18Q303 18 346 33T418 75L424 41Q398 17 351 0T259 -16Q159 -16 105 40T51 186Q51 263 86 330T184 437T325 477ZM352 708H399L475 564H440L373 688L260 564H220Z" horiz-adv-x="478" unicode="ĉ"/>
			<glyph d="M496 727Q568 727 631 702T729 639L708 598Q677 639 621 665T495 691Q390 691 304 635T170 487T121 292Q121 214 151 151T244 53T397 17Q461 17 521 44T628 115L633 78Q594 39 527 10T395 -19Q294 -19 223 20T115 128T79 287Q79 409 136 510T289 669T496 727ZM529 888Q542 888 550 880T559 858Q559 843 549 832T526 822Q513 822 504 830T496 853Q496 867 506 877T529 888Z" horiz-adv-x="722" unicode="Ċ"/>
			<glyph d="M325 477Q370 477 412 461T481 420L463 389Q439 414 401 429T325 444Q259 444 205 408T121 314T91 190Q91 115 135 66T262 18Q303 18 346 33T418 75L424 41Q398 17 351 0T259 -16Q159 -16 105 40T51 186Q51 263 86 330T184 437T325 477ZM362 688Q375 688 383 680T392 658Q392 643 382 632T359 622Q346 622 337 630T329 653Q329 667 339 677T362 688Z" horiz-adv-x="478" unicode="ċ"/>
			<glyph d="M496 727Q568 727 631 702T729 639L708 598Q677 639 621 665T495 691Q390 691 304 635T170 487T121 292Q121 214 151 151T244 53T397 17Q461 17 521 44T628 115L633 78Q594 39 527 10T395 -19Q294 -19 223 20T115 128T79 287Q79 409 136 510T289 669T496 727ZM403 908H439L505 784L619 908H659L527 764H479Z" horiz-adv-x="722" unicode="Č"/>
			<glyph d="M325 477Q370 477 412 461T481 420L463 389Q439 414 401 429T325 444Q259 444 205 408T121 314T91 190Q91 115 135 66T262 18Q303 18 346 33T418 75L424 41Q398 17 351 0T259 -16Q159 -16 105 40T51 186Q51 263 86 330T184 437T325 477ZM238 708H274L340 584L454 708H494L362 564H314Z" horiz-adv-x="478" unicode="č"/>
			<glyph d="M182 708H379Q472 708 548 674T670 573T715 413Q715 279 655 186T493 46T264 0H57ZM217 673L104 36H265Q383 36 475 79T620 206T673 410Q673 491 635 550T530 641T370 673ZM310 908H346L412 784L526 908H566L434 764H386Z" horiz-adv-x="769" unicode="Ď"/>
			<glyph d="M608 759L475 0H437L457 104H455Q428 53 375 20T258 -13Q159 -13 104 43T50 191Q50 268 83 333T178 438T317 477Q382 477 431 442T497 352H500L569 750ZM316 444Q250 444 198 409T117 318T89 194Q89 118 134 68T262 19Q322 19 373 54T454 148T484 272Q484 320 463 359T404 421T316 444ZM717 708H757L655 521H624Z" horiz-adv-x="661" unicode="ď"/>
			<glyph d="M182 708H379Q472 708 548 674T670 575T715 415Q715 281 655 187T493 47T264 0H57L119 354H44L51 386H125ZM217 673L166 386H425L420 354H160L104 36H265Q383 36 475 79T620 206T673 410Q673 491 635 550T530 641T370 673Z" horiz-adv-x="769" unicode="Đ"/>
			<glyph d="M608 759L581 599H641L636 570H575L475 0H437L457 104H455Q428 53 375 20T258 -13Q159 -13 104 43T50 191Q50 268 83 333T178 438T317 477Q382 477 431 442T497 352H500L538 570H337L343 599H543L570 750ZM316 444Q250 444 198 409T117 318T89 194Q89 118 134 68T262 19Q323 19 374 54T456 148T486 272Q486 320 465 359T405 421T316 444Z" horiz-adv-x="620" unicode="đ"/>
			<glyph d="M182 708H537L521 673H214L164 385H465L449 350H158L103 36H448L431 0H57ZM261 846H507L501 815H255Z" horiz-adv-x="528" unicode="Ē"/>
			<glyph d="M316 477Q407 477 454 426T502 294Q502 262 495 228H91Q89 208 89 198Q89 115 137 67T266 20Q317 20 363 39T440 85L447 47Q372 -13 263 -13Q165 -13 107 44T50 195Q50 269 84 334T180 438T316 477ZM315 444Q255 444 208 416T133 346T96 259H462Q464 285 464 298Q464 364 424 404T315 444ZM230 646H476L470 615H224Z" horiz-adv-x="558" unicode="ē"/>
			<glyph d="M182 708H537L521 673H214L164 385H465L449 350H158L103 36H448L431 0H57ZM266 901H294Q294 854 318 829T384 805Q430 805 461 828T507 901H532Q519 841 479 807T382 773Q329 773 297 806T266 901Z" horiz-adv-x="528" unicode="Ĕ"/>
			<glyph d="M316 477Q407 477 454 426T502 294Q502 262 495 228H91Q89 208 89 198Q89 115 137 67T266 20Q317 20 363 39T440 85L447 47Q372 -13 263 -13Q165 -13 107 44T50 195Q50 269 84 334T180 438T316 477ZM315 444Q255 444 208 416T133 346T96 259H462Q464 285 464 298Q464 364 424 404T315 444ZM223 701H251Q251 654 275 629T341 605Q387 605 418 628T464 701H489Q476 641 436 607T339 573Q286 573 254 606T223 701Z" horiz-adv-x="558" unicode="ĕ"/>
			<glyph d="M182 708H537L521 673H214L164 385H465L449 350H158L103 36H448L431 0H57ZM384 888Q397 888 405 880T414 858Q414 843 404 832T381 822Q368 822 359 830T351 853Q351 867 361 877T384 888Z" horiz-adv-x="528" unicode="Ė"/>
			<glyph d="M316 477Q407 477 454 426T502 294Q502 262 495 228H91Q89 208 89 198Q89 115 137 67T266 20Q317 20 363 39T440 85L447 47Q372 -13 263 -13Q165 -13 107 44T50 195Q50 269 84 334T180 438T316 477ZM315 444Q255 444 208 416T133 346T96 259H462Q464 285 464 298Q464 364 424 404T315 444ZM352 688Q365 688 373 680T382 658Q382 643 372 632T349 622Q336 622 327 630T319 653Q319 667 329 677T352 688Z" horiz-adv-x="558" unicode="ė"/>
			<glyph d="M182 708H540L534 673H214L164 385H468L453 350H158L103 36H451L444 0H425Q361 -54 336 -86T312 -149Q312 -170 326 -181T363 -193Q381 -193 399 -185T430 -166L440 -190Q397 -223 354 -223Q320 -223 297 -206T275 -158Q275 -119 303 -84T393 0H57Z" horiz-adv-x="560" unicode="Ę"/>
			<glyph d="M316 477Q407 477 454 426T502 294Q502 262 495 228H91Q89 208 89 198Q89 115 137 67T266 20Q317 20 363 39T440 85L447 47Q379 -8 283 -13Q228 -60 206 -89T184 -148Q184 -170 198 -181T235 -193Q253 -193 270 -185T302 -166L312 -190Q269 -223 225 -223Q192 -223 170 -206T148 -158Q148 -121 172 -88T249 -13Q156 -9 103 47T50 195Q50 269 84 334T180 438T316 477ZM315 444Q255 444 208 416T133 346T96 259H462Q464 285 464 298Q464 364 424 404T315 444Z" horiz-adv-x="558" unicode="ę"/>
			<glyph d="M182 708H537L521 673H214L164 385H465L449 350H158L103 36H448L431 0H57ZM273 908H309L375 784L489 908H529L397 764H349Z" horiz-adv-x="528" unicode="Ě"/>
			<glyph d="M316 477Q407 477 454 426T502 294Q502 262 495 228H91Q89 208 89 198Q89 115 137 67T266 20Q317 20 363 39T440 85L447 47Q372 -13 263 -13Q165 -13 107 44T50 195Q50 269 84 334T180 438T316 477ZM315 444Q255 444 208 416T133 346T96 259H462Q464 285 464 298Q464 364 424 404T315 444ZM236 708H272L338 584L452 708H492L360 564H312Z" horiz-adv-x="558" unicode="ě"/>
			<glyph d="M494 727Q564 727 626 706T728 653L709 616Q670 650 613 670T492 691Q389 691 303 635T169 487T121 292Q121 213 151 151T243 53T395 17Q457 17 513 30T609 67L653 323H466L483 357H699L643 44Q595 14 530 -2T394 -19Q293 -19 222 19T115 127T79 287Q79 403 134 504T284 666T494 727ZM512 908H559L635 764H600L533 888L420 764H380Z" horiz-adv-x="770" unicode="Ĝ"/>
			<glyph d="M320 477Q386 477 435 442T500 351H503L523 463H560L482 20Q460 -101 402 -174T219 -247Q155 -247 105 -228T22 -176L34 -134Q67 -171 115 -192T219 -213Q324 -213 374 -150T445 20L461 109H459Q431 55 378 22T261 -10Q163 -10 108 47T54 195Q54 271 87 335T181 438T320 477ZM320 444Q253 444 201 410T121 320T93 197Q93 122 138 72T267 23Q328 23 378 58T458 150T488 273Q488 320 467 359T408 421T320 444ZM366 708H413L489 564H454L387 688L274 564H234Z" horiz-adv-x="621" unicode="ĝ"/>
			<glyph d="M494 727Q564 727 626 706T728 653L709 616Q670 650 613 670T492 691Q389 691 303 635T169 487T121 292Q121 213 151 151T243 53T395 17Q457 17 513 30T609 67L653 323H466L483 357H699L643 44Q595 14 530 -2T394 -19Q293 -19 222 19T115 127T79 287Q79 403 134 504T284 666T494 727ZM392 901H420Q420 854 444 829T510 805Q556 805 587 828T633 901H658Q645 841 605 807T508 773Q455 773 423 806T392 901Z" horiz-adv-x="770" unicode="Ğ"/>
			<glyph d="M320 477Q386 477 435 442T500 351H503L523 463H560L482 20Q460 -101 402 -174T219 -247Q155 -247 105 -228T22 -176L34 -134Q67 -171 115 -192T219 -213Q324 -213 374 -150T445 20L461 109H459Q431 55 378 22T261 -10Q163 -10 108 47T54 195Q54 271 87 335T181 438T320 477ZM320 444Q253 444 201 410T121 320T93 197Q93 122 138 72T267 23Q328 23 378 58T458 150T488 273Q488 320 467 359T408 421T320 444ZM241 701H269Q269 654 293 629T359 605Q405 605 436 628T482 701H507Q494 641 454 607T357 573Q304 573 272 606T241 701Z" horiz-adv-x="621" unicode="ğ"/>
			<glyph d="M494 727Q564 727 626 706T728 653L709 616Q670 650 613 670T492 691Q389 691 303 635T169 487T121 292Q121 213 151 151T243 53T395 17Q457 17 513 30T609 67L653 323H466L483 357H699L643 44Q595 14 530 -2T394 -19Q293 -19 222 19T115 127T79 287Q79 403 134 504T284 666T494 727ZM526 888Q539 888 547 880T556 858Q556 843 546 832T523 822Q510 822 501 830T493 853Q493 867 503 877T526 888Z" horiz-adv-x="770" unicode="Ġ"/>
			<glyph d="M320 477Q386 477 435 442T500 351H503L523 463H560L482 20Q460 -101 402 -174T219 -247Q155 -247 105 -228T22 -176L34 -134Q67 -171 115 -192T219 -213Q324 -213 374 -150T445 20L461 109H459Q431 55 378 22T261 -10Q163 -10 108 47T54 195Q54 271 87 335T181 438T320 477ZM320 444Q253 444 201 410T121 320T93 197Q93 122 138 72T267 23Q328 23 378 58T458 150T488 273Q488 320 467 359T408 421T320 444ZM370 688Q383 688 391 680T400 658Q400 643 390 632T367 622Q354 622 345 630T337 653Q337 667 347 677T370 688Z" horiz-adv-x="621" unicode="ġ"/>
			<glyph d="M494 727Q564 727 626 706T728 653L709 616Q670 650 613 670T492 691Q389 691 303 635T169 487T121 292Q121 213 151 151T243 53T395 17Q457 17 513 30T609 67L653 323H466L483 357H699L643 44Q595 14 530 -2T394 -19Q293 -19 222 19T115 127T79 287Q79 403 134 504T284 666T494 727ZM382 -43H423L321 -230H290Z" horiz-adv-x="770" unicode="Ģ"/>
			<glyph d="M320 477Q386 477 435 442T500 351H503L523 463H560L482 20Q460 -101 402 -174T219 -247Q155 -247 105 -228T22 -176L34 -134Q67 -171 115 -192T219 -213Q324 -213 374 -150T445 20L461 109H459Q431 55 378 22T261 -10Q163 -10 108 47T54 195Q54 271 87 335T181 438T320 477ZM320 444Q253 444 201 410T121 320T93 197Q93 122 138 72T267 23Q328 23 378 58T458 150T488 273Q488 320 467 359T408 421T320 444ZM418 751H449L357 564H315Z" horiz-adv-x="621" unicode="ģ"/>
			<glyph d="M182 708H222L164 384H628L686 708H726L601 0H561L622 349H159L97 0H57ZM451 908H498L574 764H539L472 888L359 764H319Z" horiz-adv-x="747" unicode="Ĥ"/>
			<glyph d="M224 759L156 362H158Q187 417 234 447T335 477Q408 477 446 434T484 320Q484 296 479 264L432 0H393L441 269Q445 289 445 316Q445 371 416 407T327 444Q283 444 243 418T173 340T130 215L92 0H53L184 750ZM373 940H420L496 796H461L394 920L281 796H241Z" unicode="ĥ"/>
			<glyph d="M182 708H222L190 529H654L686 708H726L601 0H561L622 349H159L97 0H57ZM185 500L164 384H628L649 500Z" horiz-adv-x="747" unicode="Ħ"/>
			<glyph d="M224 759L197 599H397L390 570H192L155 357H157Q185 414 232 445T335 477Q407 477 446 435T486 330Q486 311 481 278L432 0H393L441 269Q446 297 446 322Q446 375 417 409T327 444Q257 444 204 388T133 234L92 0H53L153 570H92L97 599H158L184 750Z" unicode="ħ"/>
			<glyph d="M182 708H222L97 0H57ZM336 870H362Q351 832 329 811T279 790Q266 790 249 796T208 816Q170 837 158 837Q124 837 106 787H80Q92 825 114 847T163 869Q179 869 192 863T226 845Q247 831 259 826T284 821Q303 821 315 833T336 870Z" horiz-adv-x="244" unicode="Ĩ"/>
			<glyph d="M135 463H174L92 0H53ZM296 670H322Q311 632 289 611T239 590Q226 590 209 597T169 617Q154 625 139 631T118 638Q84 638 66 587H40Q52 625 74 647T123 669Q139 669 152 663T186 645Q207 631 219 626T244 621Q263 621 275 633T296 670Z" horiz-adv-x="234" unicode="ĩ"/>
			<glyph d="M182 708H222L97 0H57ZM99 846H345L339 815H93Z" horiz-adv-x="244" unicode="Ī"/>
			<glyph d="M135 463H174L92 0H53ZM60 646H306L300 615H54Z" horiz-adv-x="234" unicode="ī"/>
			<glyph d="M182 708H222L97 0H57ZM101 901H129Q129 854 153 829T219 805Q265 805 296 828T342 901H367Q354 841 314 807T217 773Q164 773 132 806T101 901Z" horiz-adv-x="244" unicode="Ĭ"/>
			<glyph d="M135 463H174L92 0H53ZM61 701H89Q89 654 113 629T179 605Q225 605 256 628T302 701H327Q314 641 274 607T177 573Q124 573 92 606T61 701Z" horiz-adv-x="234" unicode="ĭ"/>
			<glyph d="M182 708H222L97 0H96Q32 -54 7 -85T-17 -148Q-17 -170 -3 -181T34 -193Q51 -193 69 -185T101 -166L111 -190Q68 -223 24 -223Q-9 -223 -31 -206T-54 -158Q-54 -119 -25 -83T64 0H57Z" horiz-adv-x="244" unicode="Į"/>
			<glyph d="M185 688Q197 688 205 680T214 658Q214 643 204 632T181 622Q168 622 159 630T151 653Q151 667 161 677T185 688ZM135 463H174L91 0Q27 -54 2 -86T-22 -149Q-22 -170 -8 -181T28 -193Q46 -193 64 -185T96 -166L105 -190Q64 -223 20 -223Q-14 -223 -36 -206T-59 -158Q-59 -119 -31 -84T58 0H53Z" horiz-adv-x="234" unicode="į"/>
			<glyph d="M182 708H222L97 0H57ZM225 888Q238 888 246 880T255 858Q255 843 245 832T222 822Q209 822 200 830T192 853Q192 867 202 877T225 888Z" horiz-adv-x="244" unicode="İ"/>
			<glyph d="M135 463H174L92 0H53Z" horiz-adv-x="234" unicode="ı"/>
			<glyph d="M182 708H222L97 0H57ZM548 708H588L498 197Q481 101 426 41T278 -18Q255 -18 238 -14L228 24Q253 18 281 18Q358 18 401 67T459 201Z" horiz-adv-x="605" unicode="Ĳ"/>
			<glyph d="M185 688Q197 688 205 680T214 658Q214 643 204 632T181 622Q168 622 159 630T151 653Q151 667 161 677T185 688ZM135 463H174L92 0H53ZM419 688Q431 688 439 680T448 658Q448 643 438 632T416 622Q402 622 393 630T385 653Q385 667 395 677T419 688ZM369 463H408L310 -94Q297 -163 267 -202T171 -241Q153 -241 133 -236L140 -204Q160 -208 170 -208Q220 -208 241 -177T272 -92Z" horiz-adv-x="470" unicode="ĳ"/>
			<glyph d="M304 708H344L254 197Q237 101 182 41T34 -18Q11 -18 -6 -14L-16 24Q9 18 37 18Q114 18 157 67T215 201ZM326 908H373L449 764H414L347 888L234 764H194Z" horiz-adv-x="362" unicode="Ĵ"/>
			<glyph d="M135 463H174L76 -94Q63 -163 33 -202T-63 -241Q-81 -241 -101 -236L-94 -204Q-74 -208 -64 -208Q-14 -208 7 -177T38 -92ZM170 708H217L293 564H258L191 688L78 564H38Z" horiz-adv-x="235" unicode="ĵ"/>
			<glyph d="M182 708H222L165 388L548 708H605L211 381L514 0H463L164 380L97 0H57ZM254 -45H295L193 -232H162Z" horiz-adv-x="549" unicode="Ķ"/>
			<glyph d="M225 759L137 252H139L399 463H455L180 246L408 0H361L138 244H136L93 0H54L186 750ZM205 -44H246L144 -231H113Z" horiz-adv-x="455" unicode="ķ"/>
			<glyph d="M136 463H174L137 252H139L399 463H455L180 246L408 0H361L138 244H136L93 0H54Z" horiz-adv-x="455" unicode="ĸ"/>
			<glyph d="M182 708H222L103 36H437L421 0H57ZM317 908H366L223 764H190Z" horiz-adv-x="493" unicode="Ĺ"/>
			<glyph d="M227 759L109 95Q106 80 106 67Q105 51 112 41T136 24L117 -9Q94 -3 80 15T66 60Q66 72 68 84L186 750ZM317 936H366L223 792H190Z" horiz-adv-x="235" unicode="ĺ"/>
			<glyph d="M182 708H222L103 36H437L421 0H57ZM237 -45H278L176 -232H145Z" horiz-adv-x="493" unicode="Ļ"/>
			<glyph d="M227 759L109 95Q106 80 106 67Q105 51 112 41T136 24L117 -9Q94 -3 80 15T66 60Q66 72 68 84L186 750ZM72 -46H113L11 -233H-20Z" horiz-adv-x="235" unicode="ļ"/>
			<glyph d="M182 708H222L103 36H437L421 0H57ZM390 708H431L329 521H298Z" horiz-adv-x="493" unicode="Ľ"/>
			<glyph d="M227 759L109 95Q106 80 106 67Q105 51 112 41T136 24L117 -9Q94 -3 80 15T66 60Q66 72 68 84L186 750ZM346 708H386L284 521H253Z" horiz-adv-x="269" unicode="ľ"/>
			<glyph d="M182 708H222L103 36H437L421 0H57ZM394 435Q407 435 415 427T424 405Q424 390 414 379T391 369Q378 369 369 377T361 400Q361 414 371 424T394 435Z" horiz-adv-x="493" unicode="Ŀ"/>
			<glyph d="M227 759L109 95Q106 80 106 67Q105 51 112 41T136 24L117 -9Q94 -3 80 15T66 60Q66 72 68 84L186 750ZM288 458Q301 458 309 450T318 428Q318 413 308 402T285 392Q272 392 263 400T255 423Q255 437 265 447T288 458Z" horiz-adv-x="275" unicode="ŀ"/>
			<glyph d="M182 708H222L155 324L397 509L390 468L146 281L104 37H438L422 0H57L101 251L20 188L28 231L109 294Z" horiz-adv-x="494" unicode="Ł"/>
			<glyph d="M227 759L168 424L257 494L249 452L160 381L109 95Q106 80 106 70Q105 52 112 42T136 24L117 -9Q95 -3 80 14T66 58Q66 72 68 84L114 345L37 283L44 328L122 389L186 750Z" horiz-adv-x="235" unicode="ł"/>
			<glyph d="M182 708H233L570 53H572L687 708H727L602 0H551L215 658H213L97 0H57ZM549 908H598L455 764H422Z" horiz-adv-x="750" unicode="Ń"/>
			<glyph d="M335 477Q408 477 446 434T484 320Q484 296 479 264L432 0H393L441 269Q445 289 445 317Q445 372 416 408T327 444Q283 444 243 418T173 340T130 215L92 0H53L115 351Q119 376 123 407T130 463H168Q165 426 153 356H155Q184 414 232 445T335 477ZM417 708H466L323 564H290Z" unicode="ń"/>
			<glyph d="M182 708H233L570 53H572L687 708H727L602 0H551L215 658H213L97 0H57ZM318 -45H359L257 -232H226Z" horiz-adv-x="750" unicode="Ņ"/>
			<glyph d="M335 477Q408 477 446 434T484 320Q484 296 479 264L432 0H393L441 269Q445 289 445 317Q445 372 416 408T327 444Q283 444 243 418T173 340T130 215L92 0H53L115 351Q119 376 123 407T130 463H168Q165 426 153 356H155Q184 414 232 445T335 477ZM236 -44H277L175 -231H144Z" unicode="ņ"/>
			<glyph d="M182 708H233L570 53H572L687 708H727L602 0H551L215 658H213L97 0H57ZM359 908H395L461 784L575 908H615L483 764H435Z" horiz-adv-x="750" unicode="Ň"/>
			<glyph d="M335 477Q408 477 446 434T484 320Q484 296 479 264L432 0H393L441 269Q445 289 445 317Q445 372 416 408T327 444Q283 444 243 418T173 340T130 215L92 0H53L115 351Q119 376 123 407T130 463H168Q165 426 153 356H155Q184 414 232 445T335 477ZM227 708H263L329 584L443 708H483L351 564H303Z" unicode="ň"/>
			<glyph d="M337 477Q410 477 448 434T486 320Q486 296 481 264L434 0H395L443 269Q447 289 447 317Q447 372 418 408T329 444Q285 444 245 418T175 340T132 215L94 0H55L117 351Q121 376 125 407T132 463H170Q167 426 155 356H157Q186 414 234 445T337 477ZM194 708H234L132 521H101Z" horiz-adv-x="572" unicode="ŉ"/>
			<glyph d="M182 708H234L573 61H575L688 708H728L586 -94Q574 -162 544 -201T448 -241Q428 -241 410 -236L416 -204Q436 -208 447 -208Q497 -208 517 -178T548 -92L563 -10L215 658H213L97 0H57Z" horiz-adv-x="750" unicode="Ŋ"/>
			<glyph d="M335 477Q407 477 446 435T486 330Q486 311 481 278L415 -94Q403 -161 372 -201T277 -241Q256 -241 238 -236L245 -204Q265 -208 275 -208Q326 -208 346 -178T377 -92L441 269Q446 297 446 322Q446 375 417 409T327 444Q257 444 204 388T133 234L92 0H53L115 351Q119 376 123 407T130 463H168Q165 426 153 356H155Q184 414 232 445T335 477Z" unicode="ŋ"/>
			<glyph d="M487 727Q587 727 659 687T768 576T805 415Q805 299 753 199T609 40T398 -19Q298 -19 226 20T116 130T79 292Q79 408 131 508T276 667T487 727ZM486 691Q380 691 296 635T167 488T121 294Q121 215 152 152T246 53T399 17Q505 17 588 72T717 218T763 413Q763 492 732 555T638 654T486 691ZM404 846H650L644 815H398Z" horiz-adv-x="859" unicode="Ō"/>
			<glyph d="M320 477Q387 477 435 450T509 377T535 272Q535 195 501 130T406 26T265 -13Q198 -13 149 13T75 86T50 192Q50 268 84 333T179 438T320 477ZM318 443Q251 443 199 409T118 318T90 195Q90 118 135 69T266 20Q333 20 385 54T466 145T495 269Q495 344 449 393T318 443ZM238 646H484L478 615H232Z" horiz-adv-x="598" unicode="ō"/>
			<glyph d="M487 727Q587 727 659 687T768 576T805 415Q805 299 753 199T609 40T398 -19Q298 -19 226 20T116 130T79 292Q79 408 131 508T276 667T487 727ZM486 691Q380 691 296 635T167 488T121 294Q121 215 152 152T246 53T399 17Q505 17 588 72T717 218T763 413Q763 492 732 555T638 654T486 691ZM393 901H421Q421 854 445 829T511 805Q557 805 588 828T634 901H659Q646 841 606 807T509 773Q456 773 424 806T393 901Z" horiz-adv-x="859" unicode="Ŏ"/>
			<glyph d="M320 477Q387 477 435 450T509 377T535 272Q535 195 501 130T406 26T265 -13Q198 -13 149 13T75 86T50 192Q50 268 84 333T179 438T320 477ZM318 443Q251 443 199 409T118 318T90 195Q90 118 135 69T266 20Q333 20 385 54T466 145T495 269Q495 344 449 393T318 443ZM225 701H253Q253 654 277 629T343 605Q389 605 420 628T466 701H491Q478 641 438 607T341 573Q288 573 256 606T225 701Z" horiz-adv-x="598" unicode="ŏ"/>
			<glyph d="M487 727Q587 727 659 687T768 576T805 415Q805 299 753 199T609 40T398 -19Q298 -19 226 20T116 130T79 292Q79 408 131 508T276 667T487 727ZM486 691Q380 691 296 635T167 488T121 294Q121 215 152 152T246 53T399 17Q505 17 588 72T717 218T763 413Q763 492 732 555T638 654T486 691ZM544 908H594L451 764H417ZM682 908H732L589 764H555Z" horiz-adv-x="859" unicode="Ő"/>
			<glyph d="M320 477Q387 477 435 450T509 377T535 272Q535 195 501 130T406 26T265 -13Q198 -13 149 13T75 86T50 192Q50 268 84 333T179 438T320 477ZM318 443Q251 443 199 409T118 318T90 195Q90 118 135 69T266 20Q333 20 385 54T466 145T495 269Q495 344 449 393T318 443ZM380 708H430L287 564H253ZM518 708H568L425 564H391Z" horiz-adv-x="598" unicode="ő"/>
			<glyph d="M530 708H933L917 673H627L577 385H861L846 350H572L516 36H844L827 0H415Q322 0 245 33T124 133T79 293Q79 427 138 520T300 661T530 708ZM529 673Q411 673 318 629T173 501T121 299Q121 218 158 158T263 67T424 36H477L589 673Z" horiz-adv-x="924" unicode="Œ"/>
			<glyph d="M320 477Q402 477 455 436T525 329Q556 395 617 436T755 477Q845 477 893 426T941 294Q941 260 933 228H530Q527 213 527 198Q527 115 575 67T704 19Q756 19 802 38T879 85L887 47Q810 -13 703 -13Q621 -13 568 26T499 133Q467 67 407 27T265 -13Q198 -13 149 13T75 86T50 192Q50 268 84 333T179 438T320 477ZM754 444Q694 444 647 416T572 346T535 259H900Q903 279 903 298Q903 364 863 404T754 444ZM318 444Q251 444 199 409T118 318T90 195Q90 118 135 68T266 19Q333 19 385 53T466 145T495 269Q495 344 449 394T318 444Z" horiz-adv-x="997" unicode="œ"/>
			<glyph d="M182 708H357Q446 708 506 669T566 551Q566 447 503 401T351 351L511 0H467L310 348H159L97 0H57ZM216 674L164 382H312Q525 382 525 547Q525 612 475 643T347 674ZM454 908H503L360 764H327Z" horiz-adv-x="597" unicode="Ŕ"/>
			<glyph d="M324 477Q339 477 351 475L336 439Q324 441 311 441Q240 441 194 380T131 221L92 0H53L115 351Q119 376 123 407T130 463H168Q165 426 153 356H155Q184 416 228 446T324 477ZM291 708H340L197 564H164Z" horiz-adv-x="322" unicode="ŕ"/>
			<glyph d="M182 708H357Q446 708 506 669T566 551Q566 447 503 401T351 351L511 0H467L310 348H159L97 0H57ZM216 674L164 382H312Q525 382 525 547Q525 612 475 643T347 674ZM244 -45H285L183 -232H152Z" horiz-adv-x="597" unicode="Ŗ"/>
			<glyph d="M324 477Q339 477 351 475L336 439Q324 441 311 441Q240 441 194 380T131 221L92 0H53L115 351Q119 376 123 407T130 463H168Q165 426 153 356H155Q184 416 228 446T324 477ZM69 -46H110L8 -233H-23Z" horiz-adv-x="322" unicode="ŗ"/>
			<glyph d="M182 708H357Q446 708 506 669T566 551Q566 447 503 401T351 351L511 0H467L310 348H159L97 0H57ZM216 674L164 382H312Q525 382 525 547Q525 612 475 643T347 674ZM264 908H300L366 784L480 908H520L388 764H340Z" horiz-adv-x="597" unicode="Ř"/>
			<glyph d="M324 477Q339 477 351 475L336 439Q324 441 311 441Q240 441 194 380T131 221L92 0H53L115 351Q119 376 123 407T130 463H168Q165 426 153 356H155Q184 416 228 446T324 477ZM144 708H180L246 584L360 708H400L268 564H220Z" horiz-adv-x="322" unicode="ř"/>
			<glyph d="M358 727Q410 727 461 710T542 667L523 627Q497 653 451 672T355 692Q307 692 260 672T184 615T154 527Q154 486 171 459T219 416T300 383Q391 353 438 311T486 196Q486 134 456 85T371 9T237 -19Q179 -19 121 2T35 56L52 95Q82 59 134 37T242 16Q301 16 347 38T419 100T445 191Q445 236 423 265T365 314T272 352Q189 379 150 418T112 522Q112 586 145 632T235 703T358 727ZM447 908H496L353 764H320Z" horiz-adv-x="568" unicode="Ś"/>
			<glyph d="M241 477Q282 477 320 462T379 429L358 400Q338 418 307 431T240 444Q186 444 149 417T113 343Q113 308 136 289T209 257Q278 238 309 207T340 130Q340 66 292 27T172 -12Q123 -12 83 2T20 40L35 75Q57 51 92 36T171 21Q227 21 264 50T301 126Q301 164 274 187T186 227Q130 243 102 270T74 340Q74 383 97 414T159 461T241 477ZM345 708H394L251 564H218Z" horiz-adv-x="415" unicode="ś"/>
			<glyph d="M358 727Q410 727 461 710T542 667L523 627Q497 653 451 672T355 692Q307 692 260 672T184 615T154 527Q154 486 171 459T219 416T300 383Q391 353 438 311T486 196Q486 134 456 85T371 9T237 -19Q179 -19 121 2T35 56L52 95Q82 59 134 37T242 16Q301 16 347 38T419 100T445 191Q445 236 423 265T365 314T272 352Q189 379 150 418T112 522Q112 586 145 632T235 703T358 727ZM381 908H428L504 764H469L402 888L289 764H249Z" horiz-adv-x="568" unicode="Ŝ"/>
			<glyph d="M241 477Q282 477 320 462T379 429L358 400Q338 418 307 431T240 444Q186 444 149 417T113 343Q113 308 136 289T209 257Q278 238 309 207T340 130Q340 66 292 27T172 -12Q123 -12 83 2T20 40L35 75Q57 51 92 36T171 21Q227 21 264 50T301 126Q301 164 274 187T186 227Q130 243 102 270T74 340Q74 383 97 414T159 461T241 477ZM271 708H318L394 564H359L292 688L179 564H139Z" horiz-adv-x="415" unicode="ŝ"/>
			<glyph d="M358 727Q426 727 475 703T550 642L520 617Q491 655 450 673T355 692Q307 692 260 672T184 615T154 527Q154 486 171 459T219 416T300 383Q391 353 438 311T486 196Q486 137 459 89T379 13T255 -18L202 -83Q222 -76 246 -76Q277 -76 300 -91T324 -139Q324 -183 290 -205T204 -227Q182 -227 154 -221T109 -207L120 -183Q136 -191 159 -195T202 -200Q245 -200 267 -184T290 -142Q290 -120 273 -109T233 -98Q219 -98 199 -101T169 -111L157 -100L226 -19Q162 -17 110 7T28 78L59 102Q91 59 135 37T242 16Q301 16 347 38T419 100T445 191Q445 236 423 265T365 314T272 352Q189 379 150 418T112 522Q112 586 145 632T235 703T358 727Z" horiz-adv-x="568" unicode="Ş"/>
			<glyph d="M241 477Q289 477 326 460T381 415L353 394Q333 421 305 432T240 444Q186 444 149 417T113 343Q113 308 136 289T209 257Q278 238 309 207T340 130Q340 70 298 32T193 -11L133 -83Q154 -76 177 -76Q208 -76 232 -91T256 -139Q256 -183 221 -205T135 -227Q114 -227 86 -221T40 -207L52 -183Q68 -191 91 -195T134 -200Q176 -200 198 -184T221 -142Q221 -120 204 -109T164 -98Q151 -98 131 -101T100 -111L89 -100L164 -12Q113 -10 76 6T14 58L43 82Q91 21 171 21Q228 21 264 50T301 126Q301 164 274 187T186 227Q130 243 102 270T74 340Q74 383 97 414T159 461T241 477Z" horiz-adv-x="415" unicode="ş"/>
			<glyph d="M358 727Q410 727 461 710T542 667L523 627Q497 653 451 672T355 692Q307 692 260 672T184 615T154 527Q154 486 171 459T219 416T300 383Q391 353 438 311T486 196Q486 134 456 85T371 9T237 -19Q179 -19 121 2T35 56L52 95Q82 59 134 37T242 16Q301 16 347 38T419 100T445 191Q445 236 423 265T365 314T272 352Q189 379 150 418T112 522Q112 586 145 632T235 703T358 727ZM263 908H299L365 784L479 908H519L387 764H339Z" horiz-adv-x="568" unicode="Š"/>
			<glyph d="M241 477Q282 477 320 462T379 429L358 400Q338 418 307 431T240 444Q186 444 149 417T113 343Q113 308 136 289T209 257Q278 238 309 207T340 130Q340 66 292 27T172 -12Q123 -12 83 2T20 40L35 75Q57 51 92 36T171 21Q227 21 264 50T301 126Q301 164 274 187T186 227Q130 243 102 270T74 340Q74 383 97 414T159 461T241 477ZM157 708H193L259 584L373 708H413L281 564H233Z" horiz-adv-x="415" unicode="š"/>
			<glyph d="M90 708H603L586 673H355L237 0H197L314 673H73ZM212 -45H253L151 -232H120Z" horiz-adv-x="526" unicode="Ţ"/>
			<glyph d="M196 598L172 463H310L294 431H167L112 118Q108 96 108 81Q108 50 125 36T174 23Q207 23 253 46L254 14Q208 -10 161 -10Q119 -10 94 11T69 73Q69 91 73 113L129 431H50L66 463H134L155 578ZM136 -45H177L75 -232H44Z" horiz-adv-x="300" unicode="ţ"/>
			<glyph d="M90 708H603L586 673H355L237 0H197L314 673H73ZM248 908H284L350 784L464 908H504L372 764H324Z" horiz-adv-x="526" unicode="Ť"/>
			<glyph d="M196 598L172 463H310L294 431H167L112 118Q108 96 108 81Q108 50 125 36T174 23Q207 23 253 46L254 14Q208 -10 161 -10Q119 -10 94 11T69 73Q69 91 73 113L129 431H50L66 463H134L155 578ZM367 731H407L305 544H274Z" horiz-adv-x="310" unicode="ť"/>
			<glyph d="M101 708H613L596 673H365L342 542H531L526 513H337L246 0H206L297 513H107L112 542H301L325 673H83Z" horiz-adv-x="546" unicode="Ŧ"/>
			<glyph d="M196 598L172 463H310L294 431H167L142 288H249L244 260H137L112 118Q108 96 108 81Q108 50 125 36T174 23Q207 23 253 46L254 14Q208 -10 161 -10Q119 -10 94 11T69 73Q69 91 73 113L99 260H34L40 288H104L129 431H50L66 463H134L155 578Z" horiz-adv-x="300" unicode="ŧ"/>
			<glyph d="M174 708H214L138 275Q132 242 132 210Q132 123 180 70T329 17Q456 17 511 88T586 272L663 708H703L625 267Q602 137 535 59T329 -19Q212 -19 151 40T91 204Q91 241 98 279ZM569 870H595Q584 832 562 811T512 790Q499 790 482 796T441 816Q403 837 391 837Q357 837 339 787H313Q325 825 347 847T396 869Q412 869 425 863T459 845Q480 831 492 826T517 821Q536 821 548 833T569 870Z" horiz-adv-x="715" unicode="Ũ"/>
			<glyph d="M122 463H161L113 194Q108 167 108 147Q108 91 136 55T227 19Q297 19 351 78T425 249L462 463H501L439 112Q427 47 424 0H386Q389 36 401 107H399Q369 49 321 18T218 -13Q146 -13 108 29T70 143Q70 164 75 196ZM452 670H478Q467 632 445 611T395 590Q382 590 365 597T325 617Q310 625 295 631T274 638Q240 638 222 587H196Q208 625 230 647T279 669Q295 669 308 663T342 645Q363 631 375 626T400 621Q419 621 431 633T452 670Z" unicode="ũ"/>
			<glyph d="M174 708H214L138 275Q132 242 132 210Q132 123 180 70T329 17Q456 17 511 88T586 272L663 708H703L625 267Q602 137 535 59T329 -19Q212 -19 151 40T91 204Q91 241 98 279ZM334 846H580L574 815H328Z" horiz-adv-x="715" unicode="Ū"/>
			<glyph d="M122 463H161L113 194Q108 167 108 147Q108 91 136 55T227 19Q297 19 351 78T425 249L462 463H501L439 112Q427 47 424 0H386Q389 36 401 107H399Q369 49 321 18T218 -13Q146 -13 108 29T70 143Q70 164 75 196ZM217 646H463L457 615H211Z" unicode="ū"/>
			<glyph d="M174 708H214L138 275Q132 242 132 210Q132 123 180 70T329 17Q456 17 511 88T586 272L663 708H703L625 267Q602 137 535 59T329 -19Q212 -19 151 40T91 204Q91 241 98 279ZM324 901H352Q352 854 376 829T442 805Q488 805 519 828T565 901H590Q577 841 537 807T440 773Q387 773 355 806T324 901Z" horiz-adv-x="715" unicode="Ŭ"/>
			<glyph d="M122 463H161L113 194Q108 167 108 147Q108 91 136 55T227 19Q297 19 351 78T425 249L462 463H501L439 112Q427 47 424 0H386Q389 36 401 107H399Q369 49 321 18T218 -13Q146 -13 108 29T70 143Q70 164 75 196ZM205 701H233Q233 654 257 629T323 605Q369 605 400 628T446 701H471Q458 641 418 607T321 573Q268 573 236 606T205 701Z" unicode="ŭ"/>
			<glyph d="M174 708H214L138 275Q132 242 132 210Q132 123 180 70T329 17Q456 17 511 88T586 272L663 708H703L625 267Q602 137 535 59T329 -19Q212 -19 151 40T91 204Q91 241 98 279ZM468 945Q507 945 529 923T552 866Q552 820 522 787T447 755Q408 755 386 777T364 834Q364 880 393 912T468 945ZM467 925Q432 925 410 899T388 836Q388 810 403 793T448 776Q483 776 505 802T528 864Q528 890 512 907T467 925Z" horiz-adv-x="715" unicode="Ů"/>
			<glyph d="M122 463H161L113 194Q108 167 108 147Q108 91 136 55T227 19Q297 19 351 78T425 249L462 463H501L439 112Q427 47 424 0H386Q389 36 401 107H399Q369 49 321 18T218 -13Q146 -13 108 29T70 143Q70 164 75 196ZM350 746Q389 746 411 723T434 666Q434 620 404 587T329 555Q290 555 268 577T246 634Q246 680 275 713T350 746ZM349 725Q314 725 292 699T270 636Q270 610 285 593T330 577Q365 577 387 602T410 664Q410 690 394 707T349 725Z" unicode="ů"/>
			<glyph d="M174 708H214L138 275Q132 242 132 210Q132 123 180 70T329 17Q456 17 511 88T586 272L663 708H703L625 267Q602 137 535 59T329 -19Q212 -19 151 40T91 204Q91 241 98 279ZM477 908H527L384 764H350ZM615 908H665L522 764H488Z" horiz-adv-x="715" unicode="Ű"/>
			<glyph d="M122 463H161L113 194Q108 167 108 147Q108 91 136 55T227 19Q297 19 351 78T425 249L462 463H501L439 112Q427 47 424 0H386Q389 36 401 107H399Q369 49 321 18T218 -13Q146 -13 108 29T70 143Q70 164 75 196ZM359 708H409L266 564H232ZM497 708H547L404 564H370Z" unicode="ű"/>
			<glyph d="M174 708H214L138 275Q132 242 132 210Q132 123 180 70T329 17Q456 17 511 88T586 272L663 708H703L625 267Q602 141 539 64T345 -19Q295 -64 274 -92T254 -148Q254 -170 267 -181T304 -193Q322 -193 340 -185T372 -166L381 -190Q340 -223 295 -223Q261 -223 239 -206T217 -158Q217 -123 240 -90T312 -19Q203 -15 147 44T91 204Q91 241 98 279Z" horiz-adv-x="715" unicode="Ų"/>
			<glyph d="M122 463H161L113 194Q108 167 108 147Q108 91 136 55T227 19Q297 19 351 78T425 249L462 463H501L439 112Q427 47 424 0H418Q354 -55 329 -86T305 -148Q305 -170 319 -181T356 -193Q374 -193 392 -185T424 -166L433 -190Q392 -223 346 -223Q313 -223 291 -206T269 -158Q269 -119 297 -83T386 0Q389 36 401 107H399Q369 49 321 18T218 -13Q146 -13 108 29T70 143Q70 164 75 196Z" unicode="ų"/>
			<glyph d="M105 708H147L203 49H206L535 708H588L645 49H648L979 708H1023L664 0H611L555 658H553L221 0H168ZM574 908H621L697 764H662L595 888L482 764H442Z" horiz-adv-x="949" unicode="Ŵ"/>
			<glyph d="M68 463H108L141 45H143L369 463H413L468 45H470L678 463H720L484 0H439L383 416H381L155 0H111ZM414 708H461L537 564H502L435 688L322 564H282Z" horiz-adv-x="708" unicode="ŵ"/>
			<glyph d="M77 708H122L270 344L566 708H616L284 308L230 0H190L244 308ZM359 908H406L482 764H447L380 888L267 764H227Z" horiz-adv-x="529" unicode="Ŷ"/>
			<glyph d="M60 463H100L185 34L421 463H465L126 -136Q97 -191 56 -215T-41 -240L-49 -204Q4 -203 37 -184T96 -118L158 -9ZM283 708H330L406 564H371L304 688L191 564H151Z" horiz-adv-x="448" unicode="ŷ"/>
			<glyph d="M77 708H122L270 344L566 708H616L284 308L230 0H190L244 308ZM284 889Q296 889 304 880T313 858Q313 843 303 832T280 821Q267 821 258 829T250 853Q250 867 260 878T284 889ZM449 889Q462 889 470 880T479 858Q479 843 469 832T446 821Q432 821 424 829T416 853Q416 868 425 878T449 889Z" horiz-adv-x="529" unicode="Ÿ"/>
			<glyph d="M141 708H621L613 667L55 36H521L505 0H1L8 39L567 673H134ZM469 908H518L375 764H342Z" horiz-adv-x="588" unicode="Ź"/>
			<glyph d="M93 463H420L414 431L50 33H364L349 0H-4L0 31L365 431H77ZM353 708H402L259 564H226Z" horiz-adv-x="436" unicode="ź"/>
			<glyph d="M141 708H621L613 667L55 36H521L505 0H1L8 39L567 673H134ZM401 888Q414 888 422 880T431 858Q431 843 421 832T398 822Q385 822 376 830T368 853Q368 867 378 877T401 888Z" horiz-adv-x="588" unicode="Ż"/>
			<glyph d="M93 463H420L414 431L50 33H364L349 0H-4L0 31L365 431H77ZM283 688Q296 688 304 680T313 658Q313 643 303 632T280 622Q267 622 258 630T250 653Q250 667 260 677T283 688Z" horiz-adv-x="436" unicode="ż"/>
			<glyph d="M141 708H621L613 667L55 36H521L505 0H1L8 39L567 673H134ZM279 908H315L381 784L495 908H535L403 764H355Z" horiz-adv-x="588" unicode="Ž"/>
			<glyph d="M93 463H420L414 431L50 33H364L349 0H-4L0 31L365 431H77ZM166 708H202L268 584L382 708H422L290 564H242Z" horiz-adv-x="436" unicode="ž"/>
			<glyph d="M500 720Q546 720 573 698L550 669Q541 677 527 681T499 686Q452 686 424 654T379 573L321 412H446L431 381H309L169 -9Q147 -72 112 -107T18 -142Q-24 -142 -47 -126L-27 -96Q-5 -108 20 -108Q67 -108 93 -77T140 14L270 381H150L165 412H281L339 574Q362 641 399 680T500 720Z" horiz-adv-x="568" unicode="ƒ"/>
			<glyph d="M554 708H929L912 673H613L563 385H857L840 350H557L501 36H839L823 0H455L491 203H187L19 0H-30ZM569 673L214 238H497L574 673ZM771 908H820L677 764H644Z" horiz-adv-x="920" unicode="Ǽ"/>
			<glyph d="M284 477Q349 477 389 446T436 358Q467 410 520 443T638 477Q729 477 777 426T825 294Q825 259 816 228H424Q421 213 421 198Q421 117 465 68T588 19Q639 19 685 38T761 85L769 47Q692 -13 585 -13Q505 -13 454 31T395 144Q372 78 319 33T188 -12Q129 -12 83 16T37 104Q37 196 131 227T393 259Q404 309 404 332Q404 388 372 416T281 444Q242 444 205 429T136 389L118 417Q154 445 198 461T284 477ZM638 444Q580 444 536 416T465 346T429 259H784Q786 285 786 298Q786 364 746 404T638 444ZM362 229Q229 229 153 202T77 110Q77 62 112 40T194 19Q272 19 320 73T383 204L388 229ZM588 708H637L494 564H461Z" horiz-adv-x="879" unicode="ǽ"/>
			<glyph d="M489 727Q561 727 619 706T719 645L802 725L820 704L737 625Q771 585 789 531T807 415Q807 299 755 199T609 40T398 -19Q322 -19 261 4T160 72L71 -13L53 7L141 93Q79 172 79 292Q79 408 131 508T277 667T489 727ZM488 691Q382 691 298 635T167 488T121 294Q121 192 172 120L689 617Q618 691 488 691ZM707 596L189 99Q258 17 399 17Q505 17 588 72T718 218T765 413Q765 523 707 596ZM605 908H654L511 764H478Z" horiz-adv-x="859" unicode="Ǿ"/>
			<glyph d="M551 481L566 461L495 398Q535 348 535 272Q535 195 501 130T406 26T265 -13Q212 -13 170 3T102 50L29 -15L12 4L86 69Q50 119 50 192Q50 268 84 333T179 438T320 477Q421 477 478 418ZM318 444Q251 444 199 409T118 318T90 195Q90 136 116 96L450 392Q404 444 318 444ZM466 372L130 75Q179 19 266 19Q333 19 385 53T466 145T495 269Q495 330 466 372ZM442 708H491L348 564H315Z" horiz-adv-x="598" unicode="ǿ"/>
			<glyph d="M358 727Q410 727 461 710T542 667L523 627Q497 653 451 672T355 692Q307 692 260 672T184 615T154 527Q154 486 171 459T219 416T300 383Q391 353 438 311T486 196Q486 134 456 85T371 9T237 -19Q179 -19 121 2T35 56L52 95Q82 59 134 37T242 16Q301 16 347 38T419 100T445 191Q445 236 423 265T365 314T272 352Q189 379 150 418T112 522Q112 586 145 632T235 703T358 727ZM230 -44H271L169 -231H138Z" horiz-adv-x="568" unicode="Ș"/>
			<glyph d="M241 477Q282 477 320 462T379 429L358 400Q338 418 307 431T240 444Q186 444 149 417T113 343Q113 308 136 289T209 257Q278 238 309 207T340 130Q340 66 292 27T172 -12Q123 -12 83 2T20 40L35 75Q57 51 92 36T171 21Q227 21 264 50T301 126Q301 164 274 187T186 227Q130 243 102 270T74 340Q74 383 97 414T159 461T241 477ZM157 -45H198L96 -232H65Z" horiz-adv-x="415" unicode="ș"/>
			<glyph d="M90 708H603L586 673H355L237 0H197L314 673H73ZM212 -45H253L151 -232H120Z" horiz-adv-x="526" unicode="Ț"/>
			<glyph d="M196 598L172 463H310L294 431H167L112 118Q108 96 108 81Q108 50 125 36T174 23Q207 23 253 46L254 14Q208 -10 161 -10Q119 -10 94 11T69 73Q69 91 73 113L129 431H50L66 463H134L155 578ZM136 -45H177L75 -232H44Z" horiz-adv-x="300" unicode="ț"/>
			<glyph d="M135 463H174L76 -94Q63 -163 33 -202T-63 -241Q-81 -241 -101 -236L-94 -204Q-74 -208 -64 -208Q-14 -208 7 -177T38 -92Z" horiz-adv-x="235" unicode="ȷ"/>
			<glyph d="M178 708H225L301 564H266L199 688L86 564H46Z" horiz-adv-x="241" unicode="ˆ"/>
			<glyph d="M71 708H107L173 584L287 708H327L195 564H147Z" horiz-adv-x="241" unicode="ˇ"/>
			<glyph d="M67 846H313L307 815H61Z" horiz-adv-x="241" unicode="ˉ"/>
			<glyph d="M67 701H95Q95 654 119 629T185 605Q231 605 262 628T308 701H333Q320 641 280 607T183 573Q130 573 98 606T67 701Z" horiz-adv-x="241" unicode="˘"/>
			<glyph d="M193 688Q206 688 214 680T223 658Q223 643 213 632T190 622Q177 622 168 630T160 653Q160 667 170 677T193 688Z" horiz-adv-x="241" unicode="˙"/>
			<glyph d="M203 746Q242 746 264 723T287 666Q287 620 257 587T182 555Q143 555 121 577T99 634Q99 680 128 713T203 746ZM202 725Q167 725 145 699T123 636Q123 610 138 593T183 577Q218 577 240 602T263 664Q263 690 247 707T202 725Z" horiz-adv-x="241" unicode="˚"/>
			<glyph d="M84 0H116Q52 -54 27 -86T3 -149Q3 -170 17 -181T53 -193Q71 -193 89 -185T121 -166L130 -190Q89 -223 44 -223Q10 -223 -12 -206T-34 -158Q-34 -119 -5 -83T84 0Z" horiz-adv-x="241" unicode="˛"/>
			<glyph d="M302 670H328Q317 632 295 611T245 590Q232 590 215 597T175 617Q160 625 145 631T124 638Q90 638 72 587H46Q58 625 80 647T129 669Q145 669 158 663T192 645Q213 631 225 626T250 621Q269 621 281 633T302 670Z" horiz-adv-x="241" unicode="˜"/>
			<glyph d="M188 708H238L95 564H61ZM326 708H376L233 564H199Z" horiz-adv-x="241" unicode="˝"/>
			<glyph d="M-110 -45H-69L-171 -232H-202Z" horiz-adv-x="0" unicode="̦"/>
			<glyph d="M195 728H243L150 544H118Z" horiz-adv-x="361" unicode="ʹ"/>
			<glyph d="M211 20H243L166 -164H118Z" horiz-adv-x="361" unicode="͵"/>
			<glyph d="M269 714H299L564 14V0H4V15ZM284 670L272 636Q258 594 245 562L46 32H522L325 556Q314 584 284 670Z" horiz-adv-x="603" unicode="Δ"/>
			<glyph d="M384 725Q480 725 552 685T665 568T705 386Q705 257 653 173T505 34H730V0H458V33Q562 93 613 175T665 385Q665 480 629 548T530 653T384 689Q304 689 240 651T141 545T106 385Q106 258 158 178T312 33V0H41V34H267Q171 93 118 176T66 386Q66 485 106 562T219 682T384 725Z" horiz-adv-x="739" unicode="Ω"/>
			<glyph d="M89 463H124V186Q124 108 165 67T283 27Q375 27 416 78T457 229V463H492V0H460L457 94H455Q407 -10 283 -10Q224 -10 184 11T126 70H124V-20V-240H89Z" horiz-adv-x="582" unicode="μ"/>
			<glyph d="M98 463H563V432H452V105Q452 63 467 41T516 20Q540 20 557 27V-3Q538 -10 510 -10Q467 -10 442 17T417 94V432H156V0H119V432H12V460Z" horiz-adv-x="589" unicode="π"/>
			<glyph d="M105 708H147L203 49H206L535 708H588L645 49H648L979 708H1023L664 0H611L555 658H553L221 0H168ZM436 908H484L588 764H555Z" horiz-adv-x="949" unicode="Ẁ"/>
			<glyph d="M68 463H108L141 45H143L369 463H413L468 45H470L678 463H720L484 0H439L383 416H381L155 0H111ZM269 708H317L421 564H388Z" horiz-adv-x="708" unicode="ẁ"/>
			<glyph d="M105 708H147L203 49H206L535 708H588L645 49H648L979 708H1023L664 0H611L555 658H553L221 0H168ZM680 908H729L586 764H553Z" horiz-adv-x="949" unicode="Ẃ"/>
			<glyph d="M68 463H108L141 45H143L369 463H413L468 45H470L678 463H720L484 0H439L383 416H381L155 0H111ZM521 708H570L427 564H394Z" horiz-adv-x="708" unicode="ẃ"/>
			<glyph d="M105 708H147L203 49H206L535 708H588L645 49H648L979 708H1023L664 0H611L555 658H553L221 0H168ZM508 889Q520 889 528 880T537 858Q537 843 527 832T504 821Q491 821 482 829T474 853Q474 867 484 878T508 889ZM673 889Q686 889 694 880T703 858Q703 843 693 832T670 821Q656 821 648 829T640 853Q640 868 649 878T673 889Z" horiz-adv-x="949" unicode="Ẅ"/>
			<glyph d="M68 463H108L141 45H143L369 463H413L468 45H470L678 463H720L484 0H439L383 416H381L155 0H111ZM343 689Q356 689 364 681T372 658Q372 644 362 632T339 621Q326 621 317 629T309 653Q309 668 319 678T343 689ZM508 689Q521 689 529 681T538 658Q538 644 528 632T505 621Q491 621 483 629T475 653Q475 668 484 678T508 689Z" horiz-adv-x="708" unicode="ẅ"/>
			<glyph d="M77 708H122L270 344L566 708H616L284 308L230 0H190L244 308ZM226 908H274L378 764H345Z" horiz-adv-x="529" unicode="Ỳ"/>
			<glyph d="M60 463H100L185 34L421 463H465L126 -136Q97 -191 56 -215T-41 -240L-49 -204Q4 -203 37 -184T96 -118L158 -9ZM156 708H204L308 564H275Z" horiz-adv-x="448" unicode="ỳ"/>
			<glyph d="M59 267H254L247 234H52Z" horiz-adv-x="306" unicode="‐"/>
			<glyph d="M35 267H375L369 234H29Z" horiz-adv-x="400" unicode="–"/>
			<glyph d="M35 267H575L569 234H29Z" horiz-adv-x="600" unicode="—"/>
			<glyph d="M35 267H575L569 234H29Z" horiz-adv-x="600" unicode="―"/>
			<glyph d="M222 708L237 698Q211 674 187 640T157 572Q168 572 175 564T182 545Q182 531 173 520T150 510Q139 510 131 517T123 538V541L119 538Q119 579 149 624T222 708Z" horiz-adv-x="223" unicode="‘"/>
			<glyph d="M197 708Q210 708 219 699T228 676Q228 634 198 589T126 506L110 515Q136 540 158 572T189 637Q177 638 169 646T161 669Q161 684 171 696T197 708Z" horiz-adv-x="223" unicode="’"/>
			<glyph d="M98 94Q111 94 120 85T129 62Q129 20 99 -24T26 -108L10 -99Q36 -75 59 -43T90 23Q77 24 69 32T61 55Q61 70 72 82T98 94Z" horiz-adv-x="223" unicode="‚"/>
			<glyph d="M213 708L229 698Q204 676 181 643T149 576Q163 576 170 567T178 545Q178 530 167 518T141 506Q129 506 119 514T110 538Q110 579 140 624T213 708ZM366 708L382 698Q357 676 334 643T302 576Q315 576 323 567T331 545Q331 530 320 518T295 506Q282 506 272 514T263 538Q263 579 293 624T366 708Z" horiz-adv-x="364" unicode="“"/>
			<glyph d="M197 708Q210 708 219 699T228 676Q228 634 198 589T126 506L110 515Q136 540 158 572T189 637Q177 638 169 646T161 669Q161 684 171 696T197 708ZM350 708Q363 708 372 699T381 676Q381 634 351 589T279 506L263 515Q289 540 311 572T342 637Q314 639 314 669Q314 684 324 696T350 708Z" horiz-adv-x="364" unicode="”"/>
			<glyph d="M88 94Q101 94 110 85T119 62Q119 20 89 -24T17 -109L1 -99Q27 -74 49 -42T80 23Q68 24 60 32T52 55Q52 70 62 82T88 94ZM241 94Q254 94 263 85T272 62Q272 20 242 -24T170 -109L154 -99Q180 -74 202 -42T233 23Q205 25 205 55Q205 70 215 82T241 94Z" horiz-adv-x="364" unicode="„"/>
			<glyph d="M328 708H367L330 502H527L521 468H324L220 -126H181L286 468H87L93 502H291Z" horiz-adv-x="533" unicode="†"/>
			<glyph d="M328 708H367L331 507H525L518 472H324L261 110H455L449 75H255L220 -126H181L217 75H21L28 110H223L287 472H91L97 507H292Z" horiz-adv-x="533" unicode="‡"/>
			<glyph d="M250 531Q298 531 338 507T403 442T427 354Q427 306 403 265T338 201T250 177Q202 177 161 201T97 265T73 354Q73 402 97 442T161 507T250 531Z" horiz-adv-x="500" unicode="•"/>
			<glyph d="M130 66Q143 66 152 56T161 32Q161 17 149 5T123 -6Q110 -6 101 2T93 25Q93 42 103 54T130 66ZM464 66Q478 66 486 57T495 34Q495 18 483 6T457 -6Q444 -6 436 2T428 25Q428 42 438 54T464 66ZM799 66Q812 66 821 57T830 34Q830 18 818 6T792 -6Q779 -6 770 2T762 25Q762 42 773 54T799 66Z" horiz-adv-x="1000" unicode="…"/>
			<glyph d="M626 737L653 720L78 -28L52 -11ZM263 716Q324 716 359 681T395 591Q395 544 374 504T315 442T229 419Q168 419 132 454T97 544Q97 591 118 630T177 693T263 716ZM260 686Q204 686 167 645T131 548Q131 504 157 476T231 448Q269 448 298 467T344 518T361 587Q361 630 335 658T260 686ZM482 289Q543 289 578 254T613 164Q613 117 592 77T533 15T448 -8Q387 -8 351 27T316 118Q316 165 337 204T395 266T482 289ZM823 289Q885 289 920 254T955 164Q955 116 934 77T876 15T789 -8Q728 -8 693 27T659 118Q659 165 679 204T737 266T823 289ZM479 260Q422 260 386 219T350 121Q350 78 375 50T449 22Q487 22 517 41T563 91T580 160Q580 203 553 231T479 260ZM820 260Q783 260 753 241T707 190T691 121Q691 78 717 50T791 22Q849 22 885 62T921 160Q921 203 895 231T820 260Z" horiz-adv-x="1006" unicode="‰"/>
			<glyph d="M235 440L258 420L111 236L194 57L164 39L71 239Z" horiz-adv-x="315" unicode="‹"/>
			<glyph d="M145 440L240 238L76 38L52 58L199 241L117 422Z" horiz-adv-x="315" unicode="›"/>
			<glyph d="M315 724Q386 724 432 684T479 570Q479 511 447 469T360 387Q304 346 283 318T254 246L245 199H206L268 551H307L271 347Q284 364 294 374T321 397T346 416Q394 452 416 487T439 568Q439 625 404 656T314 688Q262 688 216 663T142 599L122 632Q157 675 205 699T315 724ZM209 66Q223 66 231 57T240 32Q240 17 229 5T205 -6Q191 -6 181 3T172 27Q172 43 183 54T209 66Z" horiz-adv-x="477" unicode="‽"/>
			<glyph d="M331 737L355 720L-220 -28L-244 -11Z" horiz-adv-x="100" unicode="⁄"/>
			<glyph d="M284 883Q341 883 367 843T393 741Q393 673 374 604T315 489T218 443Q161 443 134 482T108 584Q108 653 127 722T186 837T284 883ZM282 853Q240 853 208 814T160 714T143 587Q143 538 161 505T220 473Q262 473 293 511T340 611T357 738Q357 853 282 853Z" horiz-adv-x="358" unicode="⁰"/>
			<glyph d="M319 873H363L312 587H384L373 556H307L288 453H256L275 556H81L87 589ZM320 830L121 587H280L323 830Z" horiz-adv-x="335" unicode="⁴"/>
			<glyph d="M189 873H387L381 843H216L189 708Q216 717 242 717Q298 717 331 684T365 600Q365 533 323 488T213 443Q175 443 144 454T94 484L103 520Q121 498 150 485T213 473Q265 473 298 509T331 597Q331 637 305 663T237 689Q194 689 148 662Z" horiz-adv-x="345" unicode="⁵"/>
			<glyph d="M335 871Q355 871 374 867T404 857L391 830Q381 835 363 838T329 842Q259 842 208 789T140 645Q158 673 189 690T258 707Q308 707 339 676T371 594Q371 553 352 518T301 463T228 443Q171 443 137 479T104 583Q104 672 136 737T221 837T335 871ZM253 677Q219 677 192 660T151 618T137 565Q137 526 161 499T228 473Q275 473 306 508T338 592Q338 629 314 653T253 677Z" horiz-adv-x="335" unicode="⁶"/>
			<glyph d="M170 873H410L405 843L163 453H123L368 843H154Z" horiz-adv-x="304" unicode="⁷"/>
			<glyph d="M248 883Q296 883 326 856T357 782Q357 744 333 716T274 677V676Q301 666 319 641T338 583Q338 539 316 507T261 459T189 443Q140 443 105 471T70 550Q70 596 98 631T174 680V681Q149 691 135 713T122 761Q122 812 159 847T248 883ZM247 854Q208 854 181 826T155 761Q155 731 174 711T225 691Q268 691 295 717T323 779Q323 814 302 834T247 854ZM220 663Q172 663 138 630T104 552Q104 517 128 495T190 473Q241 473 272 504T304 583Q304 617 280 640T220 663Z" horiz-adv-x="296" unicode="⁸"/>
			<glyph d="M263 883Q316 883 348 846T381 743Q381 659 348 593T262 491T149 455Q104 455 80 468L93 496Q117 484 153 484Q194 484 234 508T304 577T345 682Q329 655 296 637T226 619Q176 619 144 650T113 732Q113 773 132 808T185 863T263 883ZM262 853Q211 853 179 818T147 734Q147 697 170 673T231 649Q282 649 314 682T347 761Q347 801 323 827T262 853Z" horiz-adv-x="335" unicode="⁹"/>
			<glyph d="M226 799H247V661H381V640H247V502H226V640H89V661H226Z" horiz-adv-x="357" unicode="⁺"/>
			<glyph d="M106 661H397V641H106Z" horiz-adv-x="357" unicode="⁻"/>
			<glyph d="M102 712H394V691H102ZM102 612H394V592H102Z" horiz-adv-x="368" unicode="⁼"/>
			<glyph d="M262 915L280 904Q225 844 187 752T149 562Q149 512 159 465T188 385L168 375Q148 412 137 461T126 561Q126 654 161 748T262 915Z" horiz-adv-x="248" unicode="⁽"/>
			<glyph d="M195 914Q215 877 226 828T237 728Q237 635 202 541T101 375L83 386Q138 446 176 537T215 727Q215 777 205 823T176 904Z" horiz-adv-x="248" unicode="⁾"/>
			<glyph d="M206 295Q263 295 289 255T315 153Q315 85 296 16T237 -99T140 -145Q83 -145 56 -105T30 -4Q30 65 49 134T108 249T206 295ZM204 265Q162 265 130 226T82 126T65 -1Q65 -50 83 -82T142 -115Q184 -115 215 -76T262 23T279 150Q279 265 204 265Z" horiz-adv-x="358" unicode="₀"/>
			<glyph d="M140 282H171L97 -139H62L128 241L32 179L15 205Z" horiz-adv-x="200" unicode="₁"/>
			<glyph d="M170 291Q215 291 245 264T275 196Q275 150 253 118T171 33L13 -109H240L230 -139H-33L-27 -106L156 58Q206 102 224 130T242 191Q242 224 221 242T167 261Q131 261 100 241T50 188L36 219Q85 291 170 291Z" horiz-adv-x="322" unicode="₂"/>
			<glyph d="M151 292Q197 292 226 266T255 194Q255 145 226 117T153 82Q190 74 212 47T234 -20Q234 -80 194 -114T95 -148Q49 -148 16 -127T-32 -72L0 -60Q11 -88 37 -103T95 -118Q144 -118 172 -91T201 -21Q201 24 173 45T101 67H83L88 97H106Q160 97 191 122T222 190Q222 226 201 244T148 263Q97 263 62 218L38 237Q83 292 151 292Z" horiz-adv-x="318" unicode="₃"/>
			<glyph d="M205 284H249L198 -2H270L259 -33H193L174 -136H142L161 -33H-33L-27 0ZM206 241L7 -2H166L209 241Z" horiz-adv-x="335" unicode="₄"/>
			<glyph d="M88 282H286L280 252H115L88 117Q115 126 141 126Q197 126 230 93T264 9Q264 -58 222 -103T112 -148Q74 -148 43 -137T-7 -107L2 -71Q20 -93 49 -105T112 -118Q164 -118 197 -82T230 6Q230 46 204 72T136 98Q93 98 47 71Z" horiz-adv-x="345" unicode="₅"/>
			<glyph d="M234 284Q254 284 273 280T303 270L290 243Q280 248 262 251T228 255Q158 255 107 202T39 58Q57 86 88 103T157 120Q207 120 238 89T270 7Q270 -34 251 -68T200 -123T127 -144Q70 -144 36 -107T3 -4Q3 85 35 150T120 250T234 284ZM152 90Q118 90 91 73T50 31T36 -22Q36 -61 60 -87T127 -114Q174 -114 205 -79T237 5Q237 42 213 66T152 90Z" horiz-adv-x="335" unicode="₆"/>
			<glyph d="M48 284H288L283 254L41 -136H1L246 254H32Z" horiz-adv-x="304" unicode="₇"/>
			<glyph d="M156 294Q204 294 234 267T265 193Q265 155 241 127T182 88V87Q209 77 227 52T246 -6Q246 -50 224 -82T169 -130T97 -146Q48 -146 13 -118T-22 -39Q-22 7 6 42T82 91V92Q57 102 43 124T30 172Q30 223 67 258T156 294ZM155 265Q116 265 89 237T63 172Q63 142 82 122T133 102Q176 102 203 128T231 190Q231 225 210 245T155 265ZM128 74Q80 74 46 41T12 -37Q12 -72 36 -94T98 -116Q149 -116 180 -84T212 -6Q212 28 188 51T128 74Z" horiz-adv-x="296" unicode="₈"/>
			<glyph d="M171 290Q224 290 256 253T289 150Q289 66 256 0T170 -101T57 -138Q12 -138 -12 -125L1 -97Q25 -109 61 -109Q102 -109 142 -85T212 -15T253 89Q237 62 204 44T134 26Q84 26 52 57T21 139Q21 180 40 215T93 270T171 290ZM170 260Q119 260 87 225T55 141Q55 104 78 80T139 56Q190 56 222 89T255 168Q255 208 231 234T170 260Z" horiz-adv-x="335" unicode="₉"/>
			<glyph d="M161 192H183V54H317V33H183V-105H161V33H25V54H161Z" horiz-adv-x="357" unicode="₊"/>
			<glyph d="M22 53H313V33H22Z" horiz-adv-x="357" unicode="₋"/>
			<glyph d="M16 105H308V84H16ZM16 4H308V-16H16Z" horiz-adv-x="358" unicode="₌"/>
			<glyph d="M149 332L167 321Q112 261 74 170T36 -20Q36 -70 46 -116T75 -197L55 -207Q35 -170 24 -121T13 -21Q13 72 48 165T149 332Z" horiz-adv-x="248" unicode="₍"/>
			<glyph d="M99 332Q119 295 130 246T142 146Q142 53 107 -40T6 -207L-12 -196Q43 -136 81 -44T120 145Q120 195 110 241T81 322Z" horiz-adv-x="258" unicode="₎"/>
			<glyph d="M447 727Q489 727 525 718T587 695L569 663Q518 692 445 692Q353 692 278 624T165 453H484L468 421H154Q144 391 137 354T129 287H408L392 255H128Q129 148 186 82T342 16Q419 16 486 56L501 28Q430 -19 336 -19Q255 -19 199 18T116 118T89 255H15L33 287H90Q90 307 97 348T113 421H42L58 453H124Q152 533 201 595T313 692T447 727Z" horiz-adv-x="568" unicode="€"/>
			<glyph d="M694 737L720 720L146 -28L120 -11ZM276 721Q309 721 338 708T384 672L359 651Q345 669 322 679T275 690Q234 690 200 668T147 609T128 530Q128 482 155 453T234 424Q261 424 286 435T331 464L353 442Q301 392 232 392Q165 392 128 429T91 527Q91 578 115 623T181 694T276 721ZM607 316Q675 316 714 277T753 178Q753 126 730 82T666 13T571 -12Q502 -12 463 26T425 125Q425 177 448 220T512 290T607 316ZM605 285Q563 285 530 263T479 206T461 128Q461 80 489 49T572 19Q615 19 648 40T699 98T717 176Q717 224 688 254T605 285Z" horiz-adv-x="811" unicode="℅"/>
			<glyph d="M407 721Q440 721 461 695T482 630Q482 491 247 279Q240 244 229 201Q220 164 213 131T207 76Q207 16 270 16Q318 16 368 56H370L381 33Q324 -14 262 -14Q221 -14 195 6T169 70Q169 95 204 250L130 184H128L116 207L212 290L273 572Q291 646 327 683T407 721ZM404 691Q374 691 347 659T307 562L255 318Q331 391 390 474T449 630Q449 657 436 674T404 691Z" horiz-adv-x="500" unicode="ℓ"/>
			<glyph d="M401 730Q504 730 591 679T729 542T780 353Q780 250 729 164T591 28T401 -22Q298 -22 210 28T71 164T20 353Q20 456 71 542T210 679T401 730ZM401 696Q307 696 227 650T101 525T55 353Q55 260 101 181T227 57T401 12Q495 12 574 57T699 181T745 353Q745 447 699 525T574 650T401 696ZM291 567H440Q507 567 550 534T593 436Q593 374 552 336T445 299H328V128H291ZM328 535V333H445Q494 333 524 360T555 436Q555 484 523 509T442 535Z" horiz-adv-x="800" unicode="℗"/>
			<glyph d="M143 708H445V677H312V296H277V677H143ZM545 708H601L751 352L900 708H957V296H921V670H919L760 296H738L583 670H581V296H545Z" horiz-adv-x="1000" unicode="™"/>
			<glyph d="M384 725Q480 725 552 685T665 568T705 386Q705 257 653 173T505 34H730V0H458V33Q562 93 613 175T665 385Q665 480 629 548T530 653T384 689Q304 689 240 651T141 545T106 385Q106 258 158 178T312 33V0H41V34H267Q171 93 118 176T66 386Q66 485 106 562T219 682T384 725Z" horiz-adv-x="739" unicode="Ω"/>
			<glyph d="M302 535Q378 535 436 500T528 402T561 259H157V78Q216 19 302 19Q365 19 411 47T495 139L530 118Q484 46 432 14T302 -17Q225 -17 166 19T76 119T44 259Q44 336 76 399T166 498T302 535ZM301 500Q217 500 157 440V295H448V440Q385 500 301 500Z" horiz-adv-x="603" unicode="℮"/>
			<glyph d="M635 737L659 720L84 -28L60 -11ZM219 709H251L177 288H141L208 668L111 606L95 631ZM582 430Q628 430 657 404T686 332Q686 283 657 255T584 220Q621 212 643 185T665 118Q665 58 625 24T526 -10Q480 -10 446 10T399 66L430 78Q441 50 468 35T526 20Q575 20 603 47T632 117Q632 162 604 183T531 205H513L518 235H537Q590 235 621 260T653 328Q653 364 631 382T578 401Q527 401 492 356L469 375Q512 430 582 430Z" horiz-adv-x="772" unicode="⅓"/>
			<glyph d="M722 737L746 720L171 -28L147 -11ZM246 717Q291 717 321 690T351 621Q351 576 329 545T247 459L89 317H316L305 287H43L48 320L232 484Q282 528 300 556T318 617Q318 650 297 668T242 687Q207 687 176 667T126 614L112 645Q161 717 246 717ZM669 430Q715 430 744 404T773 332Q773 283 744 255T671 220Q708 212 730 185T752 118Q752 58 712 24T613 -10Q567 -10 533 10T486 66L517 78Q528 50 555 35T613 20Q662 20 690 47T719 117Q719 162 691 183T618 205H600L605 235H624Q677 235 708 260T740 328Q740 364 718 382T665 401Q614 401 579 356L556 375Q599 430 669 430Z" horiz-adv-x="841" unicode="⅔"/>
			<glyph d="M635 737L659 720L84 -28L60 -11ZM219 709H251L177 288H141L208 668L111 606L95 631ZM591 431Q632 431 658 406T684 346Q684 314 664 285T612 239Q642 227 659 202T676 144Q676 102 654 67T594 11T514 -9Q463 -9 429 22T396 100Q396 146 426 185T502 239Q484 251 473 271T462 315Q462 347 480 373T528 415T591 431ZM586 402Q549 402 522 377T496 315Q496 288 513 270T560 253Q596 253 623 279T650 341Q650 367 632 384T586 402ZM555 224Q525 224 496 208T448 165T430 106Q430 69 455 45T519 21Q551 21 579 36T625 79T642 139Q642 176 617 200T555 224Z" horiz-adv-x="761" unicode="⅛"/>
			<glyph d="M661 737L685 720L110 -28L86 -11ZM223 717Q270 717 298 691T327 619Q327 570 298 542T226 507Q263 499 284 472T306 405Q306 345 266 311T168 277Q93 277 53 317L62 354Q103 307 172 307Q218 307 246 334T274 404Q274 448 245 470T173 492H155L160 521H179Q232 521 263 546T295 614Q295 651 273 669T220 688Q171 688 128 649L119 679Q164 717 223 717ZM591 431Q632 431 658 406T684 346Q684 314 664 285T612 239Q642 227 659 202T676 144Q676 102 654 67T594 11T514 -9Q463 -9 429 22T396 100Q396 146 426 185T502 239Q484 251 473 271T462 315Q462 347 480 373T528 415T591 431ZM586 402Q549 402 522 377T496 315Q496 288 513 270T560 253Q596 253 623 279T650 341Q650 367 632 384T586 402ZM555 224Q525 224 496 208T448 165T430 106Q430 69 455 45T519 21Q551 21 579 36T625 79T642 139Q642 176 617 200T555 224Z" horiz-adv-x="760" unicode="⅜"/>
			<glyph d="M661 737L685 720L110 -28L86 -11ZM157 708H355L349 678H184L157 542Q183 552 210 552Q266 552 299 519T333 435Q333 368 291 323T180 278Q143 278 112 289T62 319L71 355Q89 333 118 320T181 308Q233 308 265 343T298 432Q298 472 273 498T205 524Q162 524 116 497ZM591 431Q632 431 658 406T684 346Q684 314 664 285T612 239Q642 227 659 202T676 144Q676 102 654 67T594 11T514 -9Q463 -9 429 22T396 100Q396 146 426 185T502 239Q484 251 473 271T462 315Q462 347 480 373T528 415T591 431ZM586 402Q549 402 522 377T496 315Q496 288 513 270T560 253Q596 253 623 279T650 341Q650 367 632 384T586 402ZM555 224Q525 224 496 208T448 165T430 106Q430 69 455 45T519 21Q551 21 579 36T625 79T642 139Q642 176 617 200T555 224Z" horiz-adv-x="760" unicode="⅝"/>
			<glyph d="M628 737L652 720L77 -28L53 -11ZM148 708H390L386 685L126 288H88L344 678H143ZM590 431Q631 431 657 406T683 346Q683 314 663 285T611 239Q641 227 658 202T675 144Q675 102 653 67T593 11T513 -9Q462 -9 428 22T395 100Q395 146 425 185T501 239Q483 251 472 271T461 315Q461 347 479 373T527 415T590 431ZM585 402Q548 402 521 377T495 315Q495 288 512 270T559 253Q595 253 622 279T649 341Q649 367 631 384T585 402ZM554 224Q524 224 495 208T447 165T429 106Q429 69 454 45T518 21Q550 21 578 36T624 79T641 139Q641 176 616 200T554 224Z" horiz-adv-x="760" unicode="⅞"/>
			<glyph d="M206 724Q325 724 381 623T437 365Q437 175 380 80T224 -15Q170 -15 127 15T61 95T38 207Q38 272 61 319T126 392T221 418Q275 418 322 389T399 314Q401 364 401 385Q400 473 377 542T311 651T208 690Q175 690 149 680T97 648L77 674Q107 700 138 712T206 724ZM225 384Q178 384 144 359T94 293T77 206Q77 161 94 117T144 46T225 18Q310 18 349 98T395 277Q363 325 319 354T225 384Z" horiz-adv-x="485" unicode="∂"/>
			<glyph d="M269 714H299L564 14V0H4V15ZM284 670L272 636Q258 594 245 562L46 32H522L325 556Q314 584 284 670Z" horiz-adv-x="603" unicode="∆"/>
			<glyph d="M85 786H623V-214H584V751H123V-214H85Z" horiz-adv-x="707" unicode="∏"/>
			<glyph d="M53 786H548V751H100L422 289L86 -179H559V-214H39V-180L374 289L53 751Z" horiz-adv-x="598" unicode="∑"/>
			<glyph d="M92 322H574V289H92Z" horiz-adv-x="666" unicode="−"/>
			<glyph d="M331 737L355 720L-220 -28L-244 -11Z" horiz-adv-x="100" unicode="∕"/>
			<glyph d="M133 309Q146 309 155 300T165 277Q165 261 154 249T129 238Q115 238 106 247T97 271Q97 286 107 297T133 309Z" horiz-adv-x="247" unicode="∙"/>
			<glyph d="M445 786H482L273 -215H229L63 144L6 116L-8 147L81 189L246 -170Z" horiz-adv-x="483" unicode="√"/>
			<glyph d="M189 388Q233 388 278 354T371 270Q419 322 463 355T552 388Q608 388 644 349T680 249Q680 188 644 149T553 110Q509 110 463 143T371 226Q331 186 307 165T253 127T192 110Q135 110 99 148T63 248Q63 309 98 348T189 388ZM553 356Q519 356 482 330T392 247Q448 191 483 166T554 142Q597 142 622 172T647 247Q647 293 622 324T553 356ZM189 355Q146 355 121 324T97 247Q97 203 121 172T190 142Q224 142 262 168T350 247Q298 303 261 329T189 355Z" horiz-adv-x="730" unicode="∞"/>
			<glyph d="M334 778Q356 778 372 768T388 741Q388 729 380 722T362 715Q354 715 349 719T337 733Q331 742 327 746T316 750Q292 750 280 702T268 603V511L265 -7Q265 -207 163 -207Q141 -207 126 -198T112 -171Q112 -160 119 -153T137 -146Q149 -146 161 -164Q167 -172 171 -176T182 -180Q205 -180 217 -130T230 -12V48L233 538Q233 633 242 684T272 756T334 778Z" horiz-adv-x="539" unicode="∫"/>
			<glyph d="M542 413H569Q564 362 534 328T446 294Q417 294 386 302T300 330Q253 347 225 355T174 363Q90 363 77 279H49Q55 330 84 364T169 399Q199 399 232 390T318 362Q365 345 394 337T448 329Q493 329 514 352T542 413ZM542 230H569Q563 179 533 144T446 110Q416 110 381 120T299 148Q254 165 225 173T174 181Q91 181 77 95H49Q55 147 84 181T169 216Q200 216 235 206T319 178Q366 161 395 153T448 145Q526 145 542 230Z" horiz-adv-x="666" unicode="≈"/>
			<glyph d="M435 538L466 523L400 391H572V357H382L309 214H572V179H291L209 17L179 33L255 179H93V214H272L344 357H93V391H361Z" horiz-adv-x="666" unicode="≠"/>
			<glyph d="M572 545V509L131 313L572 118V82L94 295V332ZM94 36H572V2H94Z" horiz-adv-x="666" unicode="≤"/>
			<glyph d="M94 545L572 332V295L94 82V118L535 313L94 509ZM94 36H572V2H94Z" horiz-adv-x="666" unicode="≥"/>
			<glyph d="M276 747H314L481 356L314 -35H276L113 356ZM295 714L150 356L295 -2L441 356Z" horiz-adv-x="593" unicode="◊"/>
			<glyph d="M0 718H512V0H0ZM50 667V50H462V667ZM259 609Q313 609 348 573T383 478Q383 445 370 418T320 358Q294 334 284 320T273 292T271 234H225L223 251Q223 289 228 311T245 349T282 391Q313 422 322 438T332 474Q332 510 309 534T256 559Q223 559 201 536T174 464L124 472Q131 541 167 575T259 609ZM222 184H278V117H222Z" horiz-adv-x="512" unicode=""/>
			<glyph d="M342 768Q364 768 386 764T422 757L410 724Q374 735 336 735Q286 735 257 700T219 613L192 463H421L448 614Q461 693 505 730T609 768Q631 768 654 764T690 757L677 724Q641 735 603 735Q553 735 524 700T486 613L460 463H581L565 431H455L379 0H341L417 431H188L111 0H73L149 431H51L68 463H153L180 614Q193 693 237 730T342 768Z" horiz-adv-x="555" unicode="ﬀ"/>
			<glyph d="M342 768Q364 768 386 764T422 757L410 724Q374 735 336 735Q286 735 257 700T219 613L192 463H313L298 431H188L111 0H73L149 431H51L68 463H153L180 614Q193 693 237 730T342 768ZM463 688Q475 688 483 680T492 658Q492 643 482 632T459 622Q446 622 437 630T429 653Q429 667 439 677T463 688ZM413 463H452L370 0H331Z" horiz-adv-x="512" unicode="ﬁ"/>
			<glyph d="M342 768Q364 768 386 764T422 757L410 724Q374 735 336 735Q286 735 257 700T219 613L192 463H313L298 431H188L111 0H73L149 431H51L68 463H153L180 614Q193 693 237 730T342 768ZM504 759L386 95Q383 80 383 67Q382 51 389 41T413 24L394 -9Q371 -3 357 15T343 60Q343 72 345 84L463 750Z" horiz-adv-x="512" unicode="ﬂ"/>
			<glyph d="M342 768Q364 768 386 764T422 757L410 724Q374 735 336 735Q286 735 257 700T219 613L192 463H421L448 614Q461 693 505 730T609 768Q631 768 654 764T690 757L677 724Q641 735 603 735Q553 735 524 700T486 613L460 463H581L565 431H455L379 0H341L417 431H188L111 0H73L149 431H51L68 463H153L180 614Q193 693 237 730T342 768ZM733 688Q745 688 753 680T762 658Q762 643 752 632T729 622Q716 622 707 630T699 653Q699 667 709 677T733 688ZM683 463H722L640 0H601Z" horiz-adv-x="782" unicode="ﬃ"/>
			<glyph d="M342 768Q364 768 386 764T422 757L410 724Q374 735 336 735Q286 735 257 700T219 613L192 463H421L448 614Q461 693 505 730T609 768Q631 768 654 764T690 757L677 724Q641 735 603 735Q553 735 524 700T486 613L460 463H581L565 431H455L379 0H341L417 431H188L111 0H73L149 431H51L68 463H153L180 614Q193 693 237 730T342 768ZM774 759L656 95Q653 80 653 67Q652 51 659 41T683 24L664 -9Q641 -3 627 15T613 60Q613 72 615 84L733 750Z" horiz-adv-x="782" unicode="ﬄ"/>
		</font>
</defs>
</svg>
