<?xml version="1.0" encoding="UTF-8"?>
<svg height="100%" width="100%" xmlns="http://www.w3.org/2000/svg">
	<defs>
		<font horiz-adv-x="357" id="web">
			<font-face alphabetic="0" ascent="968" descent="-253" font-family="" panose-1="2 0 3 7 0 0 0 0 0 4"/>
			<missing-glyph d="M0 718H512V0H0ZM50 667V50H462V667ZM259 609Q313 609 348 573T383 478Q383 444 370 418T320 358Q283 325 277 306T271 234H225L223 251Q223 307 236 332Q251 360 282 391Q313 420 322 437T332 474Q332 510 309 534T256 559Q223 559 201 536T174 464L124 472Q131 541 167 575T259 609ZM222 184H278V117H222Z" horiz-adv-x="512"/>
			<glyph d="" horiz-adv-x="250" unicode=" "/>
			<glyph d="M126 708H167V195H126ZM147 66Q161 66 171 55T181 29Q181 15 171 4T147 -6Q133 -6 122 4T112 29Q112 45 122 55T147 66Z" horiz-adv-x="293" unicode="!"/>
			<glyph d="M112 708H149V477H112ZM258 708H294V477H258Z" horiz-adv-x="406" unicode="&quot;"/>
			<glyph d="M202 708H236L206 479H364L394 708H428L398 479H502V447H394L369 263H475V231H365L335 0H301L331 231H173L143 0H109L139 231H31V263H143L168 447H58V479H173ZM202 447L178 263H335L360 447Z" horiz-adv-x="553" unicode="#"/>
			<glyph d="M258 792H290V717Q341 717 390 700T475 657L463 617Q433 643 386 662T290 682V371Q355 348 394 328T461 271T489 176Q489 94 432 46T290 -8V-84H258V-9Q201 -7 145 14T57 66L66 105Q102 71 153 50T258 27V341Q198 362 158 384T93 443T67 538Q67 615 122 661T258 716ZM258 680Q194 673 150 636T107 540Q107 476 145 442T258 383ZM290 330V28Q357 34 402 72T448 174Q448 219 427 248T373 294T290 330Z" horiz-adv-x="568" unicode="$"/>
			<glyph d="M618 737L647 720L204 -28L176 -12ZM211 717Q256 717 293 695T352 635T374 553Q374 507 352 469T293 409T211 388Q166 388 129 409T70 469T48 553Q48 598 70 635T129 695T211 717ZM211 683Q176 683 147 665T100 618T83 553Q83 516 100 486T147 439T211 422Q246 422 275 439T321 486T339 553Q339 589 321 618T275 665T211 683ZM615 319Q659 319 697 297T757 237T779 155Q779 109 757 71T697 12T615 -9Q571 -9 533 12T474 71T452 155Q452 200 474 237T533 297T615 319ZM615 285Q580 285 551 267T504 220T487 155Q487 118 504 88T551 41T615 24Q649 24 678 41T725 88T743 155Q743 191 725 220T678 267T615 285Z" horiz-adv-x="826" unicode="%"/>
			<glyph d="M308 726Q351 726 387 707T443 654T464 579Q464 535 442 501T386 441T295 385L491 176L600 373H646L519 151L662 0H607L497 117Q453 50 398 17T274 -16Q216 -16 169 7T94 76T67 181Q67 254 110 302T236 393Q187 446 166 485T145 569Q145 640 191 683T308 726ZM307 693Q255 693 219 658T184 569Q184 529 206 491T271 409Q346 447 385 484T425 576Q425 628 391 660T307 693ZM260 367Q188 332 147 288T107 181Q107 133 130 96T192 38T278 18Q395 18 471 145Z" horiz-adv-x="706" unicode="&amp;"/>
			<glyph d="M112 708H149V477H112Z" horiz-adv-x="261" unicode="'"/>
			<glyph d="M195 733L226 715Q168 634 133 517T98 288Q98 176 133 59T226 -139L195 -157Q132 -68 96 49T60 288Q60 409 96 526T195 733Z" horiz-adv-x="301" unicode="("/>
			<glyph d="M104 733Q167 644 203 526T240 288Q240 167 203 49T104 -157L73 -139Q132 -58 167 59T202 288Q202 400 167 517T73 715Z" horiz-adv-x="301" unicode=")"/>
			<glyph d="M207 708H238V547L394 596L405 565L248 517L347 382L320 363L222 500L125 363L98 382L197 517L40 565L51 596L207 547Z" horiz-adv-x="445" unicode="*"/>
			<glyph d="M317 549H352V321H574V287H352V59H317V287H92V321H317Z" horiz-adv-x="666" unicode="+"/>
			<glyph d="M124 94Q138 94 148 82T158 48Q158 5 138 -33T84 -108L66 -99Q87 -75 104 -43T125 23H124Q110 23 100 33T90 59Q90 73 100 83T124 94Z" horiz-adv-x="247" unicode=","/>
			<glyph d="M56 267H251V234H56Z" horiz-adv-x="306" unicode="-"/>
			<glyph d="M124 66Q137 66 147 55T158 30Q158 15 148 4T124 -6Q110 -6 100 4T90 30Q90 44 100 55T124 66Z" horiz-adv-x="247" unicode="."/>
			<glyph d="M323 729L355 717L49 -17L16 -5Z" horiz-adv-x="371" unicode="/"/>
			<glyph d="M284 722Q407 722 458 614T509 354Q509 200 458 93T284 -14Q160 -14 109 92T59 354Q59 508 109 615T284 722ZM284 687Q177 687 138 584T100 354Q100 227 138 124T284 21Q390 21 429 124T468 354Q468 480 429 583T284 687Z" horiz-adv-x="568" unicode="0"/>
			<glyph d="M291 708H329V0H289V660L134 529L119 564Z" horiz-adv-x="568" unicode="1"/>
			<glyph d="M266 722Q321 722 365 699T434 636T459 542Q459 482 428 428T329 296L105 37H495L485 0H58V37L309 329Q362 390 390 440T418 542Q418 606 374 647T266 688Q214 688 169 663T94 599L74 632Q107 674 156 698T266 722Z" horiz-adv-x="568" unicode="2"/>
			<glyph d="M266 722Q319 722 362 700T430 638T455 544Q455 481 419 434T318 374V372Q394 359 436 308T478 189Q478 131 453 85T380 12T266 -14Q197 -14 144 9T59 68L69 112Q100 72 152 46T266 21Q345 21 391 68T438 191Q438 246 408 282T334 336T243 354H218V389H243Q314 389 365 427T416 541Q416 607 373 647T266 688Q214 688 168 663T94 599L74 632Q108 674 157 698T266 722Z" horiz-adv-x="568" unicode="3"/>
			<glyph d="M355 708H410V214H534L524 179H410V0H372V179H43V221ZM369 663L82 214H372V663Z" horiz-adv-x="568" unicode="4"/>
			<glyph d="M127 708H457L447 672H164L153 418Q198 439 264 439Q330 439 380 410T458 331T486 216Q486 146 455 93T374 13T263 -14Q194 -14 141 9T56 67L65 112Q97 72 149 46T263 21Q311 21 353 44T420 111T446 214Q446 300 393 352T251 405Q216 405 181 395T115 369Z" horiz-adv-x="568" unicode="5"/>
			<glyph d="M360 714Q425 714 464 696L457 661Q434 671 412 676T359 681Q242 681 176 584T104 312H107Q138 364 185 392T295 420Q353 420 400 392T474 314T501 203Q501 140 475 90T403 13T294 -14Q229 -14 177 19T96 120T66 286Q66 421 100 517T201 663T360 714ZM294 387Q242 387 200 363T134 302T110 223Q110 174 133 127T198 50T295 20Q371 20 416 71T461 203Q461 255 439 297T379 363T294 387Z" horiz-adv-x="568" unicode="6"/>
			<glyph d="M77 708H473V667L182 0H137L434 672H67Z" horiz-adv-x="568" unicode="7"/>
			<glyph d="M284 722Q336 722 379 699T448 636T473 544Q473 490 442 445T355 380V378Q426 357 463 305T500 187Q500 127 471 81T393 11T284 -14Q224 -14 174 11T97 81T69 187Q69 254 106 306T212 378V380Q156 400 126 445T96 544Q96 596 120 636T188 699T284 722ZM284 688Q242 688 208 669T154 617T134 542Q134 502 153 468T207 415T284 395Q326 395 360 415T414 468T434 542Q434 584 414 617T360 669T284 688ZM284 361Q235 361 195 339T132 278T109 190Q109 142 131 103T192 42T284 20Q336 20 375 42T437 103T459 190Q459 239 436 278T373 339T284 361Z" horiz-adv-x="568" unicode="8"/>
			<glyph d="M278 714Q381 714 441 633T501 402Q501 188 430 87T237 -14Q151 -14 106 14L112 50Q172 20 239 20Q304 20 354 59T434 180T463 386H460Q436 342 384 311T273 280Q211 280 164 308T91 385T66 497Q66 559 94 608T170 686T278 714ZM278 680Q230 680 190 656T128 590T106 497Q106 445 127 403T186 337T274 313Q324 313 367 337T435 394T461 453Q461 513 438 565T373 648T278 680Z" horiz-adv-x="568" unicode="9"/>
			<glyph d="M144 465Q158 465 168 454T178 430Q178 415 168 404T144 394Q130 394 120 404T110 430Q110 444 120 454T144 465ZM144 66Q157 66 167 55T178 30Q178 15 168 4T144 -6Q130 -6 120 4T110 30Q110 44 120 55T144 66Z" horiz-adv-x="287" unicode=":"/>
			<glyph d="M144 465Q158 465 168 454T178 430Q178 415 168 404T144 394Q130 394 120 404T110 430Q110 444 120 454T144 465ZM141 94Q155 94 165 82T175 48Q175 5 155 -33T101 -108L83 -99Q104 -75 121 -43T142 23H141Q127 23 117 33T107 59Q107 73 117 83T141 94Z" horiz-adv-x="287" unicode=";"/>
			<glyph d="M573 547V512L131 303L573 94V59L93 287V319Z" horiz-adv-x="666" unicode="&lt;"/>
			<glyph d="M92 403H574V369H92ZM92 238H574V205H92Z" horiz-adv-x="666" unicode="="/>
			<glyph d="M93 547L573 319V287L93 59V94L536 303L93 512Z" horiz-adv-x="666" unicode="&gt;"/>
			<glyph d="M235 724Q315 724 368 679T421 556Q421 518 408 488T378 437T325 382Q292 350 276 327T254 281T249 222V199H210V233Q210 277 226 314T286 394Q321 428 338 448T368 496T380 557Q380 617 338 652T233 688Q176 688 131 665T60 609L41 642Q72 677 120 700T235 724ZM234 66Q247 66 257 55T267 29Q267 15 257 4T234 -6Q219 -6 209 4T199 29Q199 45 209 55T234 66Z" horiz-adv-x="477" unicode="?"/>
			<glyph d="M416 727Q513 727 592 687T717 576T763 412Q763 342 741 284T676 193T574 160Q532 160 509 183T486 244H483Q466 211 431 185T351 160Q292 160 260 200T228 300Q228 359 253 418T323 514T426 552Q469 552 496 530T530 471H534L551 535H586L527 314Q523 300 520 280T517 248Q517 194 579 194Q649 194 688 256T727 410Q727 493 686 557T575 657T416 693Q321 693 245 646T126 522T83 353Q83 258 126 180T246 58T422 14Q505 14 576 47T699 138L722 114Q665 51 588 16T420 -19Q309 -19 223 30T90 164T43 354Q43 457 92 542T227 677T416 727ZM426 518Q378 518 342 484T286 399T267 298Q267 254 289 224T358 194Q406 194 441 233T495 325T513 417Q513 460 491 489T426 518Z" horiz-adv-x="800" unicode="@"/>
			<glyph d="M321 708H365L663 0H618L503 279H176L60 0H15ZM342 670L191 315H488Z" horiz-adv-x="678" unicode="A"/>
			<glyph d="M101 708H249Q343 708 407 668T471 537Q471 471 432 430T334 376V374Q376 370 415 348T479 287T504 191Q504 93 435 46T265 0H101ZM142 673V389H249Q323 389 377 425T431 532Q431 606 377 639T239 673ZM142 355V35H256Q349 35 406 73T463 191Q463 272 406 313T268 355Z" horiz-adv-x="571" unicode="B"/>
			<glyph d="M431 727Q503 727 571 702T679 639L665 598Q627 638 564 664T431 690Q336 690 263 645T149 524T109 354Q109 261 149 184T262 63T431 18Q501 18 563 45T669 115L681 79Q646 40 575 10T431 -19Q326 -19 243 29T113 162T66 354Q66 461 113 546T243 679T431 727Z" horiz-adv-x="722" unicode="C"/>
			<glyph d="M101 708H314Q421 708 508 669T648 551T700 354Q700 238 648 158T509 39T315 0H101ZM142 671V37H304Q409 37 489 73T613 181T658 354Q658 455 613 526T489 634T304 671Z" horiz-adv-x="766" unicode="D"/>
			<glyph d="M101 708H466L456 671H141V385H442L432 350H141V37H481L470 0H101Z" horiz-adv-x="539" unicode="E"/>
			<glyph d="M101 708H450L449 671H142V384H434L424 348H142V0H101Z" horiz-adv-x="502" unicode="F"/>
			<glyph d="M436 727Q506 727 572 706T682 653L670 616Q625 650 563 670T436 691Q339 691 264 646T149 524T109 355Q109 262 149 185T264 62T441 17Q563 17 656 65V323H479L490 357H696V44Q646 15 580 -2T439 -19Q330 -19 245 30T113 164T66 355Q66 461 113 546T245 679T436 727Z" horiz-adv-x="790" unicode="G"/>
			<glyph d="M101 708H142V385H607V708H647V0H607V349H142V0H101Z" horiz-adv-x="748" unicode="H"/>
			<glyph d="M101 708H142V0H101Z" horiz-adv-x="244" unicode="I"/>
			<glyph d="M238 708H278V197Q278 101 232 41T93 -18Q61 -18 34 -12L27 27Q56 18 90 18Q167 18 202 68T238 201Z" horiz-adv-x="375" unicode="J"/>
			<glyph d="M101 708H142V364L491 708H549L191 362L567 0H509L142 358V0H101Z" horiz-adv-x="587" unicode="K"/>
			<glyph d="M101 708H142V37H468L458 0H101Z" horiz-adv-x="503" unicode="L"/>
			<glyph d="M101 708H166L451 64L735 708H800V0H759V665L463 0H436L142 665V0H101Z" horiz-adv-x="901" unicode="M"/>
			<glyph d="M101 708H155L629 56H631V708H672V0H619L144 654H142V0H101Z" horiz-adv-x="773" unicode="N"/>
			<glyph d="M433 727Q537 727 620 679T750 546T798 354Q798 247 750 162T619 29T433 -19Q329 -19 245 29T114 162T66 354Q66 461 113 546T245 679T433 727ZM433 691Q338 691 264 646T150 524T109 354Q109 261 149 184T263 63T433 18Q528 18 601 63T715 184T756 354Q756 447 715 524T600 646T433 691Z" horiz-adv-x="865" unicode="O"/>
			<glyph d="M101 708H297Q393 708 458 660T524 519Q524 459 495 411T416 337T305 311H142V0H101ZM142 674V345H305Q353 345 393 366T458 427T483 519Q483 595 430 634T301 674Z" horiz-adv-x="575" unicode="P"/>
			<glyph d="M429 727Q532 727 614 679T744 548T791 362Q791 291 763 224T686 107T575 38V36H832L822 0H428Q325 0 242 47T113 176T66 362Q66 465 112 548T241 679T429 727ZM429 691Q338 691 265 647T150 529T109 362Q109 271 150 196T264 78T430 35Q519 35 592 79T708 198T750 362Q750 453 709 528T595 647T429 691Z" horiz-adv-x="865" unicode="Q"/>
			<glyph d="M101 708H287Q387 708 451 667T516 528Q516 445 465 394T346 329L546 0H499L307 322H142V0H101ZM142 674V357H286Q372 357 424 404T476 528Q476 607 421 640T276 674Z" horiz-adv-x="598" unicode="R"/>
			<glyph d="M300 727Q351 727 401 710T487 667L475 627Q444 654 397 673T300 692Q254 692 212 674T145 622T119 539Q119 491 142 460T201 411T296 373Q365 349 405 329T473 272T501 176Q501 114 470 70T389 3T280 -19Q222 -19 162 2T69 56L79 96Q116 59 170 38T280 17Q328 17 369 35T435 89T460 174Q460 222 436 252T378 298T282 337Q216 360 175 381T107 440T79 538Q79 598 110 640T191 705T300 727Z" horiz-adv-x="569" unicode="S"/>
			<glyph d="M16 708H505L495 671H275V0H235V671H6Z" horiz-adv-x="511" unicode="T"/>
			<glyph d="M93 708H134V272Q134 167 184 92T363 17Q490 17 541 92T592 272V708H632V267Q632 142 568 61T363 -19Q221 -19 157 62T93 267Z" horiz-adv-x="725" unicode="U"/>
			<glyph d="M12 708H57L304 47H306L557 708H600L330 0H280Z" horiz-adv-x="613" unicode="V"/>
			<glyph d="M23 708H66L259 48H262L453 708H506L702 48H704L897 708H939L728 0H676L481 659H479L286 0H234Z" horiz-adv-x="962" unicode="W"/>
			<glyph d="M51 708H100L306 401L510 708H558L330 371L583 0H533L305 341L77 0H27L280 371Z" horiz-adv-x="610" unicode="X"/>
			<glyph d="M9 708H59L281 344L504 708H550L301 308V0H260V308Z" horiz-adv-x="561" unicode="Y"/>
			<glyph d="M69 708H529V667L92 37H560L550 0H47V40L486 671H69Z" horiz-adv-x="588" unicode="Z"/>
			<glyph d="M73 732H221V700H111V-124H221V-156H73Z" horiz-adv-x="301" unicode="["/>
			<glyph d="M50 729L356 -5L323 -17L17 717Z" horiz-adv-x="371" unicode="\"/>
			<glyph d="M80 732H228V-156H80V-124H190V700H80Z" horiz-adv-x="301" unicode="]"/>
			<glyph d="M316 708H350L575 254H539L333 674L127 254H92Z" horiz-adv-x="667" unicode="^"/>
			<glyph d="M0 -88H500V-118H0Z" horiz-adv-x="500" unicode="_"/>
			<glyph d="M10 708H60L162 564H128Z" horiz-adv-x="241" unicode="`"/>
			<glyph d="M255 477Q336 477 382 434T429 307V104Q429 35 436 0H401Q398 18 396 46T394 98H391Q369 44 319 15T211 -13Q149 -13 105 21T62 123Q62 212 138 244T327 276H392V305Q392 374 355 409T252 444Q212 444 171 427T102 384L88 418Q119 446 163 461T255 477ZM337 245Q236 245 168 220T101 124Q101 70 135 44T216 19Q273 19 313 45T372 112T392 194V245Z" horiz-adv-x="520" unicode="a"/>
			<glyph d="M137 765V353H140Q169 412 222 444T337 477Q405 477 458 445T540 357T570 231Q570 162 540 106T457 19T337 -13Q274 -13 220 19T140 109H137Q135 50 130 0H93Q98 50 98 115V756ZM333 443Q278 443 232 414T161 337T136 231Q136 174 162 125T233 48T333 20Q392 20 437 48T506 125T530 231Q530 288 506 336T437 414T333 443Z" horiz-adv-x="630" unicode="b"/>
			<glyph d="M299 477Q345 477 387 461T456 420L438 389Q414 414 376 428T299 443Q240 443 195 414T125 337T100 231Q100 173 125 125T195 49T300 21Q346 21 382 35T449 78L456 44Q429 19 387 3T299 -13Q230 -13 175 18T90 105T60 231Q60 301 90 357T175 445T299 477Z" horiz-adv-x="486" unicode="c"/>
			<glyph d="M531 766V119Q531 67 536 0H498Q493 62 493 109H491Q462 51 408 19T294 -13Q226 -13 172 19T89 106T60 231Q60 300 89 356T172 444T294 477Q356 477 409 444T491 353H493V756ZM296 443Q237 443 192 414T124 337T100 231Q100 173 124 125T192 48T296 20Q352 20 397 48T468 125T494 231Q494 289 468 337T397 414T296 443Z" horiz-adv-x="630" unicode="d"/>
			<glyph d="M285 477Q354 477 403 446T477 364T502 253Q502 238 501 230H97Q98 173 123 125T192 48T294 20Q346 20 392 39T468 85L475 47Q400 -13 293 -13Q225 -13 172 19T89 107T60 235Q60 304 89 359T170 446T285 477ZM285 444Q228 444 186 415T122 343T99 262H464Q462 344 413 394T285 444Z" horiz-adv-x="562" unicode="e"/>
			<glyph d="M251 768Q273 768 296 764T333 757L327 724Q289 735 251 735Q200 735 178 700T157 613V463H277L265 431H157V0H118V431H21L31 463H117V614Q117 693 154 730T251 768Z" horiz-adv-x="288" unicode="f"/>
			<glyph d="M294 477Q355 477 408 444T491 353H493Q493 401 498 463H534Q531 412 531 361V0Q531 -110 473 -178T289 -247Q231 -247 180 -232T89 -191L98 -152Q137 -179 186 -196T287 -213Q395 -213 444 -155T493 2V113H491Q465 55 410 22T294 -10Q226 -10 172 21T89 108T60 232Q60 300 89 356T172 444T294 477ZM296 443Q237 443 192 414T124 337T100 232Q100 176 124 128T192 51T296 23Q352 23 397 51T468 127T494 233Q494 290 468 338T397 414T296 443Z" horiz-adv-x="629" unicode="g"/>
			<glyph d="M137 760V357H139Q159 412 207 444T312 477Q400 477 441 422T482 282V0H443V271Q443 344 411 393T305 443Q258 443 220 417T159 341T137 220V0H98V753Z" horiz-adv-x="574" unicode="h"/>
			<glyph d="M118 689Q130 689 139 679T149 656Q149 641 140 631T118 622Q105 622 95 631T85 656Q85 670 95 679T118 689ZM98 463H137V0H98Z" horiz-adv-x="234" unicode="i"/>
			<glyph d="M118 689Q131 689 140 679T150 656Q150 641 140 631T118 622Q105 622 95 631T85 656Q85 670 95 679T118 689ZM98 463H137V-94Q137 -164 113 -201T26 -241L15 -208Q48 -208 65 -197T90 -162T98 -92Z" horiz-adv-x="235" unicode="j"/>
			<glyph d="M137 760V252H139L369 463H424L184 250L449 0H393L139 244H137V0H98V752Z" horiz-adv-x="468" unicode="k"/>
			<glyph d="M137 759V95Q137 64 146 50T178 27L164 -9Q135 -2 116 22T98 84V750Z" horiz-adv-x="236" unicode="l"/>
			<glyph d="M303 477Q362 477 400 443T457 350Q478 410 523 443T628 477Q715 477 755 420T796 276V0H757V266Q757 341 725 392T624 443Q577 443 541 417T485 344T465 237V0H425V275Q425 356 392 399T298 443Q255 443 218 418T160 343T139 226V0H99V351Q99 427 95 463H132Q137 401 137 356H139Q159 412 204 444T303 477Z" horiz-adv-x="888" unicode="m"/>
			<glyph d="M311 477Q399 477 441 421T484 282V0H445V271Q445 344 413 393T307 443Q261 443 222 418T161 346T139 234V0H99V351Q99 427 95 463H132Q137 401 137 356H139Q159 411 206 444T311 477Z" horiz-adv-x="576" unicode="n"/>
			<glyph d="M303 477Q374 477 429 445T516 358T548 232Q548 162 516 106T429 18T303 -13Q233 -13 177 18T91 106T60 232Q60 303 91 358T177 445T303 477ZM303 443Q242 443 195 415T124 339T100 232Q100 174 125 125T196 48T303 20Q364 20 410 48T482 125T507 232Q507 291 482 339T410 415T303 443Z" horiz-adv-x="608" unicode="o"/>
			<glyph d="M336 477Q405 477 458 445T540 357T570 231Q570 162 540 106T457 19T336 -13Q274 -13 220 19T140 109H137V-240H97V379Q97 421 94 463H133Q137 403 137 353H140Q169 412 221 444T336 477ZM333 443Q277 443 232 414T161 337T135 231Q135 174 161 125T232 48T333 20Q392 20 436 48T505 125T529 231Q529 288 505 336T436 414T333 443Z" horiz-adv-x="630" unicode="p"/>
			<glyph d="M294 477Q356 477 408 444T490 353H493Q493 389 497 463H534Q531 420 531 375V-118Q531 -158 546 -176T601 -204L587 -240Q545 -232 519 -205T493 -131V109H490Q464 51 410 19T294 -13Q226 -13 172 19T89 106T60 231Q60 301 89 357T171 445T294 477ZM296 443Q237 443 192 414T124 337T100 231Q100 173 124 125T192 48T296 20Q352 20 397 48T468 125T494 231Q494 289 468 337T397 414T296 443Z" horiz-adv-x="630" unicode="q"/>
			<glyph d="M279 477Q305 477 329 469L319 433Q312 436 299 438T277 441Q236 441 204 413T156 336T139 229V0H99V351Q99 427 95 463H132Q137 420 137 356H139Q157 414 197 445T279 477Z" horiz-adv-x="331" unicode="r"/>
			<glyph d="M216 477Q257 477 295 462T357 429L338 397Q314 417 282 430T215 444Q168 444 137 422T106 357Q106 319 134 298T230 253Q305 228 338 197T372 117Q372 77 350 48T295 3T222 -12Q172 -12 129 2T59 40L68 78Q130 21 224 21Q268 21 301 46T334 117Q334 155 302 178T200 225Q131 248 99 276T68 356Q68 413 112 445T216 477Z" horiz-adv-x="425" unicode="s"/>
			<glyph d="M142 598V463H275L265 431H142V110Q142 65 161 44T212 24Q247 24 289 47L295 15Q276 4 251 -3T203 -10Q159 -10 131 19T104 103V431H14L24 463H103V577Z" horiz-adv-x="310" unicode="t"/>
			<glyph d="M91 463H130V193Q130 119 161 69T267 19Q314 19 352 44T413 119T436 236V463H475V112Q475 89 477 54T484 0L445 -1Q441 18 435 107Q415 52 366 19T261 -13Q173 -13 132 42T91 182Z" horiz-adv-x="576" unicode="u"/>
			<glyph d="M10 463H51L211 37L365 463H404L233 0H187Z" horiz-adv-x="416" unicode="v"/>
			<glyph d="M31 463H72L194 45H196L335 463H380L521 45H523L644 463H685L546 0H500L358 416H356L216 0H170Z" horiz-adv-x="717" unicode="w"/>
			<glyph d="M43 463H93L232 270L371 463H419L255 244L442 0H390L231 217L72 0H23L207 243Z" horiz-adv-x="465" unicode="x"/>
			<glyph d="M21 463H65L235 40L386 463H428L207 -135Q186 -191 148 -215T52 -240L43 -204Q96 -203 126 -184T174 -118L215 -6Z" horiz-adv-x="450" unicode="y"/>
			<glyph d="M59 463H385V431L90 33H404L396 0H43V31L340 431H49Z" horiz-adv-x="441" unicode="z"/>
			<glyph d="M185 732H237V700H190Q151 700 133 674T115 602V413Q115 353 93 323T41 289V287Q71 282 93 252T115 163V-26Q115 -72 133 -98T190 -124H237V-156H185Q78 -156 78 -30V159Q78 272 0 272V304Q78 304 78 417V606Q78 732 185 732Z" horiz-adv-x="301" unicode="{"/>
			<glyph d="M93 750H129V-250H93Z" horiz-adv-x="222" unicode="|"/>
			<glyph d="M64 732H116Q223 732 223 606V417Q223 304 301 304V272Q223 272 223 159V-30Q223 -156 116 -156H64V-124H111Q150 -124 168 -98T186 -26V163Q186 223 207 252T260 287V289Q229 294 207 323T186 413V602Q186 648 168 674T111 700H64Z" horiz-adv-x="301" unicode="}"/>
			<glyph d="M225 362Q253 362 276 354T328 327Q365 301 392 290T442 280Q477 280 502 302T551 361L576 336Q549 293 515 269T443 245Q412 245 390 253T339 280Q297 307 275 316T227 326Q190 326 164 305T117 245L92 269Q121 317 153 339T225 362Z" horiz-adv-x="666" unicode="~"/>
			<glyph d="" horiz-adv-x="250" unicode=" "/>
			<glyph d="M147 491Q161 491 171 480T181 455Q181 440 171 429T147 419Q133 419 122 429T112 455Q112 469 122 480T147 491ZM127 290H167V-223H126Z" horiz-adv-x="293" unicode="¡"/>
			<glyph d="M301 541H332V477Q377 476 418 460T486 420L468 389Q444 414 407 428T332 443V21Q417 22 479 78L486 44Q460 19 418 3T332 -13V-72H301V-12Q239 -6 191 27T116 113T89 231Q89 296 115 349T190 436T301 475ZM301 442Q223 432 176 372T130 231Q130 150 176 91T301 23Z" horiz-adv-x="568" unicode="¢"/>
			<glyph d="M374 726Q447 726 506 688L490 652Q467 670 437 680T373 691Q294 691 258 637T223 502V385H401L391 351H223V158Q223 112 205 80T154 34H481L471 0H76V34H87Q136 34 159 70T183 154V351H74L85 385H183V506Q183 605 231 665T374 726Z" horiz-adv-x="568" unicode="£"/>
			<glyph d="M154 587L245 496Q314 557 412 557Q461 557 503 541T577 497L667 587L694 562L604 472Q658 405 658 310Q658 261 643 218T600 142L694 48L668 22L573 117Q507 60 412 60Q317 60 250 119L153 22Q150 25 140 35T127 48L223 144Q167 211 167 310Q167 404 220 471L127 562ZM412 520Q351 520 304 492T231 416T206 310Q206 251 231 202T304 125T412 97Q473 97 520 125T592 202T618 310Q618 368 592 416T520 492T412 520Z" horiz-adv-x="822" unicode="¤"/>
			<glyph d="M21 708H70L285 388L500 708H547L318 377H490L480 345H303V224H490L480 192H303V0H265V192H78L88 224H265V345H78L88 377H252Z" horiz-adv-x="568" unicode="¥"/>
			<glyph d="M95 675H127V337H95ZM95 166H127V-172H95Z" horiz-adv-x="222" unicode="¦"/>
			<glyph d="M301 727Q354 727 394 708T456 654L424 633Q408 661 375 677T299 694Q244 694 204 663T164 577Q164 543 177 523T223 484T332 434Q400 405 433 372T466 287Q466 231 431 195T345 149Q393 127 417 96T441 21Q441 -52 389 -93T262 -134Q205 -134 158 -112T84 -50L118 -28Q141 -63 179 -81T263 -99Q320 -99 360 -69T401 17Q401 50 386 71T335 112T221 166Q176 187 151 203T112 244T98 308Q98 363 133 399T219 447Q171 471 148 498T125 576Q125 647 175 687T301 727ZM256 426Q208 420 172 391T137 310Q137 277 152 255T191 221T258 190L310 169Q358 174 392 203T427 282Q427 329 395 355T304 406Z" horiz-adv-x="567" unicode="§"/>
			<glyph d="M37 689Q51 689 60 679T70 655Q70 640 60 630T37 621Q23 621 13 630T4 655Q4 669 13 679T37 689ZM204 689Q218 689 227 679T237 655Q237 640 227 630T204 621Q190 621 180 630T171 655Q171 669 180 679T204 689Z" horiz-adv-x="241" unicode="¨"/>
			<glyph d="M401 730Q504 730 591 679T729 542T780 353Q780 250 729 164T591 28T401 -22Q298 -22 210 28T71 164T20 353Q20 456 71 542T210 679T401 730ZM401 696Q307 696 227 650T101 525T55 353Q55 260 101 181T227 57T401 12Q495 12 574 57T699 181T745 353Q745 447 699 525T574 650T401 696ZM415 579Q455 579 495 565T560 530L548 496Q523 518 488 531T415 545Q362 545 320 519T256 449T234 353Q234 302 256 258T320 188T415 162Q454 162 490 176T548 212L552 177Q530 155 493 141T415 128Q352 128 302 157T224 237T196 353Q196 418 224 469T302 550T415 579Z" horiz-adv-x="800" unicode="©"/>
			<glyph d="M177 720Q231 720 261 692T291 616V492Q291 456 296 431H264Q259 454 259 487H258Q241 456 211 440T147 424Q108 424 77 445T46 510Q46 568 102 586T258 605V615Q258 653 236 673T175 693Q148 693 120 683T71 656L60 683Q110 720 177 720ZM244 579Q167 579 123 565T79 510Q79 480 101 466T155 452Q203 452 230 482T258 557V579Z" horiz-adv-x="354" unicode="ª"/>
			<glyph d="M200 439L227 420L113 238L228 57L201 37L72 238ZM372 439L400 420L286 238L401 57L373 37L244 238Z" horiz-adv-x="482" unicode="«"/>
			<glyph d="M88 403H579V133H542V369H88Z" horiz-adv-x="666" unicode="¬"/>
			<glyph d="M56 267H251V234H56Z" horiz-adv-x="306" unicode="­"/>
			<glyph d="M301 720Q363 720 415 690T497 608T528 494Q528 432 497 380T415 299T301 269Q239 269 186 299T103 380T72 494Q72 556 103 608T186 690T301 720ZM301 695Q246 695 199 668T125 595T98 494Q98 440 125 393T199 319T301 292Q355 292 401 319T475 393T502 494Q502 549 475 595T402 668T301 695ZM219 622H306Q345 622 369 603T393 550Q393 521 374 503T328 482L403 369H366L297 479H250V369H219ZM250 596V502H293Q326 502 344 513T362 551Q362 596 305 596Z" horiz-adv-x="600" unicode="®"/>
			<glyph d="M-2 646H244V615H-2Z" horiz-adv-x="241" unicode="¯"/>
			<glyph d="M200 717Q240 717 274 697T327 644T347 571Q347 530 327 496T274 443T200 424Q160 424 126 443T73 496T54 571Q54 611 73 644T126 697T200 717ZM200 688Q152 688 117 653T83 571Q83 522 117 487T200 453Q249 453 283 487T318 571Q318 619 283 653T200 688Z" horiz-adv-x="400" unicode="°"/>
			<glyph d="M313 561H349V378H579V344H349V165H314V344H88V378H313ZM91 82H576V48H91Z" horiz-adv-x="666" unicode="±"/>
			<glyph d="M173 883Q228 883 260 852T293 774Q293 736 274 704T213 628L78 483H305L294 453H40V485L194 654Q229 692 243 718T257 771Q257 809 233 831T172 853Q112 853 66 796L49 825Q96 883 173 883Z" horiz-adv-x="346" unicode="²"/>
			<glyph d="M167 883Q221 883 252 854T283 775Q283 738 261 711T202 675Q246 668 271 638T296 566Q296 508 259 475T167 443Q127 443 95 456T47 490L59 520Q74 500 105 486T166 473Q211 473 237 498T263 566Q263 610 229 634T150 658H130V688H149Q196 688 222 713T249 776Q249 813 225 833T166 854Q137 854 110 841T68 811L55 837Q75 858 104 870T167 883Z" unicode="³"/>
			<glyph d="M182 708H232L114 564H80Z" horiz-adv-x="241" unicode="´"/>
			<glyph d="M89 463H124V186Q124 108 165 67T283 27Q375 27 416 78T457 229V463H492V0H460L457 94H455Q407 -10 283 -10Q224 -10 184 11T126 70H124V-20V-240H89Z" horiz-adv-x="582" unicode="µ"/>
			<glyph d="M290 708H497V-126H461V678H316V-126H279V333Q216 333 167 357T92 423T66 514Q66 608 125 658T290 708Z" horiz-adv-x="600" unicode="¶"/>
			<glyph d="M124 309Q138 309 148 298T158 273Q158 259 148 248T124 238Q110 238 100 248T90 273Q90 288 100 298T124 309Z" horiz-adv-x="247" unicode="·"/>
			<glyph d="M115 0H145L90 -82Q113 -76 137 -76Q172 -76 197 -93T222 -145Q222 -189 187 -208T108 -227Q88 -227 62 -221T16 -207L24 -183Q59 -200 107 -200Q139 -200 163 -187T188 -145Q188 -120 169 -109T122 -98Q108 -98 90 -101T62 -111L48 -100Z" horiz-adv-x="241" unicode="¸"/>
			<glyph d="M173 874H206V453H170V833L76 765L63 797Z" unicode="¹"/>
			<glyph d="M177 721Q241 721 282 679T323 573Q323 508 282 466T177 424Q113 424 72 466T31 573Q31 638 72 679T177 721ZM177 693Q126 693 95 658T65 573Q65 521 95 486T177 451Q229 451 259 486T289 573Q289 624 259 658T177 693Z" horiz-adv-x="354" unicode="º"/>
			<glyph d="M110 440L239 238L111 38L83 57L197 238L83 420ZM282 440L412 238L283 38L255 57L369 238L255 420Z" horiz-adv-x="482" unicode="»"/>
			<glyph d="M603 737L632 721L190 -28L162 -12ZM178 708H209V287H174V667L81 600L68 630ZM645 420H689V134H754V104H689V0H656V104H464V136ZM653 377L499 134H656V377Z" horiz-adv-x="815" unicode="¼"/>
			<glyph d="M602 737L631 721L189 -28L161 -12ZM173 708H206V287H170V667L76 599L63 630ZM615 430Q670 430 703 399T736 321Q736 284 717 252T656 175L520 31H747L737 0H483V32L637 201Q672 239 686 265T700 318Q700 356 676 378T615 400Q555 400 509 343L491 372Q540 430 615 430Z" horiz-adv-x="815" unicode="½"/>
			<glyph d="M600 737L629 721L187 -28L159 -12ZM167 718Q221 718 252 689T283 610Q283 573 261 546T202 510Q246 503 271 473T296 401Q296 343 259 310T167 278Q127 278 95 291T47 325L59 355Q74 335 105 321T166 308Q211 308 237 333T263 401Q263 445 229 469T150 493H130V522H149Q196 522 222 547T249 610Q249 647 225 668T166 689Q137 689 110 676T68 646L55 672Q75 693 104 705T167 718ZM646 420H690V134H755V104H690V0H657V104H465V136ZM654 377L500 134H657V377Z" horiz-adv-x="815" unicode="¾"/>
			<glyph d="M250 491Q265 491 274 480T284 455Q284 440 274 429T250 419Q236 419 226 429T216 455Q216 469 226 480T250 491ZM234 286H273V251Q273 208 256 170T198 91Q160 53 143 34T115 -11T103 -73Q103 -133 145 -168T251 -203Q307 -203 351 -180T423 -124L443 -157Q411 -193 362 -216T249 -240Q197 -240 154 -220T87 -162T62 -72Q62 -33 74 -4T105 46T159 102Q191 134 207 157T228 203T234 262Z" horiz-adv-x="477" unicode="¿"/>
			<glyph d="M321 708H365L663 0H618L503 279H176L60 0H15ZM342 670L191 315H488ZM211 908H261L363 764H329Z" horiz-adv-x="678" unicode="À"/>
			<glyph d="M321 708H365L663 0H618L503 279H176L60 0H15ZM342 670L191 315H488ZM425 908H474L357 764H323Z" horiz-adv-x="678" unicode="Á"/>
			<glyph d="M321 708H365L663 0H618L503 279H176L60 0H15ZM342 670L191 315H488ZM320 908H366L471 764H433L343 888L252 764H214Z" horiz-adv-x="678" unicode="Â"/>
			<glyph d="M321 708H365L663 0H618L503 279H176L60 0H15ZM342 670L191 315H488ZM450 870H476Q471 832 453 811T407 790Q392 790 377 795T341 813Q318 827 305 832T279 837Q246 837 236 787H210Q215 824 233 846T278 869Q294 869 309 863T346 845Q370 831 382 826T407 821Q426 821 436 833T450 870Z" horiz-adv-x="678" unicode="Ã"/>
			<glyph d="M321 708H365L663 0H618L503 279H176L60 0H15ZM342 670L191 315H488ZM259 889Q273 889 282 879T292 855Q292 840 282 830T259 821Q245 821 235 830T226 855Q226 869 236 879T259 889ZM426 889Q440 889 449 879T459 855Q459 840 449 830T426 821Q412 821 402 830T393 855Q393 869 403 879T426 889Z" horiz-adv-x="678" unicode="Ä"/>
			<glyph d="M321 708H365L663 0H618L503 279H176L60 0H15ZM342 670L191 315H488ZM343 945Q382 945 410 917T439 850Q439 810 410 782T343 755Q303 755 274 782T246 850Q246 890 274 917T343 945ZM343 922Q313 922 292 901T271 850Q271 820 292 799T343 778Q373 778 393 799T414 850Q414 880 393 901T343 922Z" horiz-adv-x="678" unicode="Å"/>
			<glyph d="M475 708H867L857 671H540V385H833L823 350H540V37H882L872 0H500V278H244L63 0H17ZM495 671L265 313H500V671Z" horiz-adv-x="940" unicode="Æ"/>
			<glyph d="M431 727Q503 727 571 702T679 639L665 598Q627 638 564 664T431 690Q336 690 263 645T149 524T109 354Q109 261 149 184T262 63T431 18Q501 18 563 45T669 115L681 79Q646 40 575 10T431 -19H427L385 -82Q409 -76 433 -76Q468 -76 493 -93T518 -145Q518 -189 483 -208T403 -227Q383 -227 358 -221T312 -207L320 -183Q338 -191 360 -195T402 -200Q434 -200 458 -187T483 -145Q483 -120 464 -109T418 -98Q404 -98 386 -101T357 -111L344 -100L399 -18Q302 -11 226 39T108 171T66 354Q66 461 113 546T243 679T431 727Z" horiz-adv-x="722" unicode="Ç"/>
			<glyph d="M101 708H466L456 671H141V385H442L432 350H141V37H481L470 0H101ZM164 910H214L316 766H282Z" horiz-adv-x="539" unicode="È"/>
			<glyph d="M101 708H466L456 671H141V385H442L432 350H141V37H481L470 0H101ZM342 906H391L274 762H240Z" horiz-adv-x="539" unicode="É"/>
			<glyph d="M101 708H466L456 671H141V385H442L432 350H141V37H481L470 0H101ZM265 906H311L416 762H378L288 886L197 762H159Z" horiz-adv-x="539" unicode="Ê"/>
			<glyph d="M101 708H466L456 671H141V385H442L432 350H141V37H481L470 0H101ZM191 889Q205 889 214 879T224 855Q224 840 214 830T191 821Q177 821 167 830T158 855Q158 869 168 879T191 889ZM358 889Q372 889 381 879T391 855Q391 840 381 830T358 821Q344 821 334 830T325 855Q325 869 335 879T358 889Z" horiz-adv-x="539" unicode="Ë"/>
			<glyph d="M101 708H142V0H101ZM-9 908H41L143 764H109Z" horiz-adv-x="244" unicode="Ì"/>
			<glyph d="M101 708H142V0H101ZM203 908H252L135 764H101Z" horiz-adv-x="244" unicode="Í"/>
			<glyph d="M101 708H142V0H101ZM98 908H144L249 764H211L121 888L30 764H-8Z" horiz-adv-x="244" unicode="Î"/>
			<glyph d="M101 708H142V0H101ZM38 889Q52 889 61 879T71 855Q71 840 61 830T38 821Q24 821 14 830T5 855Q5 869 15 879T38 889ZM205 889Q219 889 228 879T238 855Q238 840 228 830T205 821Q191 821 181 830T172 855Q172 869 182 879T205 889Z" horiz-adv-x="244" unicode="Ï"/>
			<glyph d="M99 708H312Q419 708 506 669T645 550T697 354Q697 238 645 158T506 39T312 0H99V354H22V386H99ZM140 671V386H403V354H140V37H301Q407 37 486 73T610 181T654 354Q654 455 610 526T486 634T302 671Z" horiz-adv-x="766" unicode="Ð"/>
			<glyph d="M101 708H155L629 56H631V708H672V0H619L144 654H142V0H101ZM498 870H524Q519 832 501 811T455 790Q440 790 425 795T389 813Q366 827 353 832T327 837Q294 837 284 787H258Q263 824 281 846T326 869Q342 869 357 863T394 845Q418 831 430 826T455 821Q474 821 484 833T498 870Z" horiz-adv-x="773" unicode="Ñ"/>
			<glyph d="M433 727Q537 727 620 679T750 546T798 354Q798 247 750 162T619 29T433 -19Q329 -19 245 29T114 162T66 354Q66 461 113 546T245 679T433 727ZM433 691Q338 691 264 646T150 524T109 354Q109 261 149 184T263 63T433 18Q528 18 601 63T715 184T756 354Q756 447 715 524T600 646T433 691ZM329 908H379L481 764H447Z" horiz-adv-x="865" unicode="Ò"/>
			<glyph d="M433 727Q537 727 620 679T750 546T798 354Q798 247 750 162T619 29T433 -19Q329 -19 245 29T114 162T66 354Q66 461 113 546T245 679T433 727ZM433 691Q338 691 264 646T150 524T109 354Q109 261 149 184T263 63T433 18Q528 18 601 63T715 184T756 354Q756 447 715 524T600 646T433 691ZM498 908H547L430 764H396Z" horiz-adv-x="865" unicode="Ó"/>
			<glyph d="M433 727Q537 727 620 679T750 546T798 354Q798 247 750 162T619 29T433 -19Q329 -19 245 29T114 162T66 354Q66 461 113 546T245 679T433 727ZM433 691Q338 691 264 646T150 524T109 354Q109 261 149 184T263 63T433 18Q528 18 601 63T715 184T756 354Q756 447 715 524T600 646T433 691ZM411 908H457L562 764H524L434 888L343 764H305Z" horiz-adv-x="865" unicode="Ô"/>
			<glyph d="M433 727Q537 727 620 679T750 546T798 354Q798 247 750 162T619 29T433 -19Q329 -19 245 29T114 162T66 354Q66 461 113 546T245 679T433 727ZM433 691Q338 691 264 646T150 524T109 354Q109 261 149 184T263 63T433 18Q528 18 601 63T715 184T756 354Q756 447 715 524T600 646T433 691ZM541 870H567Q562 832 544 811T498 790Q483 790 468 795T432 813Q409 827 396 832T370 837Q337 837 327 787H301Q306 824 324 846T369 869Q385 869 400 863T437 845Q461 831 473 826T498 821Q517 821 527 833T541 870Z" horiz-adv-x="865" unicode="Õ"/>
			<glyph d="M433 727Q537 727 620 679T750 546T798 354Q798 247 750 162T619 29T433 -19Q329 -19 245 29T114 162T66 354Q66 461 113 546T245 679T433 727ZM433 691Q338 691 264 646T150 524T109 354Q109 261 149 184T263 63T433 18Q528 18 601 63T715 184T756 354Q756 447 715 524T600 646T433 691ZM350 889Q364 889 373 879T383 855Q383 840 373 830T350 821Q336 821 326 830T317 855Q317 869 327 879T350 889ZM517 889Q531 889 540 879T550 855Q550 840 540 830T517 821Q503 821 493 830T484 855Q484 869 494 879T517 889Z" horiz-adv-x="865" unicode="Ö"/>
			<glyph d="M160 503L334 330L507 503L531 480L358 306L531 133L506 109L334 281L161 109L136 133L310 306L136 480Z" horiz-adv-x="666" unicode="×"/>
			<glyph d="M727 728L749 707L680 628Q733 578 761 507T790 354Q790 247 742 162T611 29T424 -19Q354 -19 292 3T183 66L113 -14L91 7L161 87Q112 136 85 204T58 354Q58 461 105 546T236 679T424 727Q490 727 549 706T657 648ZM424 691Q329 691 255 646T140 524T100 354Q100 285 122 223T188 117L631 619Q590 653 537 672T424 691ZM653 597L210 95Q298 17 424 17Q519 17 593 62T707 184T747 354Q747 426 723 488T653 597Z" horiz-adv-x="865" unicode="Ø"/>
			<glyph d="M93 708H134V272Q134 167 184 92T363 17Q490 17 541 92T592 272V708H632V267Q632 142 568 61T363 -19Q221 -19 157 62T93 267ZM255 908H305L407 764H373Z" horiz-adv-x="725" unicode="Ù"/>
			<glyph d="M93 708H134V272Q134 167 184 92T363 17Q490 17 541 92T592 272V708H632V267Q632 142 568 61T363 -19Q221 -19 157 62T93 267ZM419 908H468L351 764H317Z" horiz-adv-x="725" unicode="Ú"/>
			<glyph d="M93 708H134V272Q134 167 184 92T363 17Q490 17 541 92T592 272V708H632V267Q632 142 568 61T363 -19Q221 -19 157 62T93 267ZM340 908H386L491 764H453L363 888L272 764H234Z" horiz-adv-x="725" unicode="Û"/>
			<glyph d="M93 708H134V272Q134 167 184 92T363 17Q490 17 541 92T592 272V708H632V267Q632 142 568 61T363 -19Q221 -19 157 62T93 267ZM279 889Q293 889 302 879T312 855Q312 840 302 830T279 821Q265 821 255 830T246 855Q246 869 256 879T279 889ZM446 889Q460 889 469 879T479 855Q479 840 469 830T446 821Q432 821 422 830T413 855Q413 869 423 879T446 889Z" horiz-adv-x="725" unicode="Ü"/>
			<glyph d="M9 708H59L281 344L504 708H550L301 308V0H260V308ZM363 908H412L295 764H261Z" horiz-adv-x="561" unicode="Ý"/>
			<glyph d="M101 708H142V552H298Q395 552 459 508T524 371Q524 282 462 233T306 184H142V0H101ZM142 516V219H303Q381 219 431 257T482 371Q482 446 430 481T299 516Z" horiz-adv-x="575" unicode="Þ"/>
			<glyph d="M300 768Q382 768 434 720T487 593Q487 528 452 486T358 430V428Q437 418 486 363T535 213Q535 146 507 95T427 17T307 -11Q288 -11 256 -7V28Q286 23 303 23Q391 23 442 74T494 214Q494 310 438 359T292 409H279V445H292Q360 445 404 483T448 592Q448 658 406 696T300 734Q212 734 174 676T136 536V0H97V539Q97 639 148 703T300 768Z" horiz-adv-x="593" unicode="ß"/>
			<glyph d="M255 477Q336 477 382 434T429 307V104Q429 35 436 0H401Q398 18 396 46T394 98H391Q369 44 319 15T211 -13Q149 -13 105 21T62 123Q62 212 138 244T327 276H392V305Q392 374 355 409T252 444Q212 444 171 427T102 384L88 418Q119 446 163 461T255 477ZM337 245Q236 245 168 220T101 124Q101 70 135 44T216 19Q273 19 313 45T372 112T392 194V245ZM157 708H207L309 564H275Z" horiz-adv-x="520" unicode="à"/>
			<glyph d="M255 477Q336 477 382 434T429 307V104Q429 35 436 0H401Q398 18 396 46T394 98H391Q369 44 319 15T211 -13Q149 -13 105 21T62 123Q62 212 138 244T327 276H392V305Q392 374 355 409T252 444Q212 444 171 427T102 384L88 418Q119 446 163 461T255 477ZM337 245Q236 245 168 220T101 124Q101 70 135 44T216 19Q273 19 313 45T372 112T392 194V245ZM328 708H378L260 564H226Z" horiz-adv-x="520" unicode="á"/>
			<glyph d="M255 477Q336 477 382 434T429 307V104Q429 35 436 0H401Q398 18 396 46T394 98H391Q369 44 319 15T211 -13Q149 -13 105 21T62 123Q62 212 138 244T327 276H392V305Q392 374 355 409T252 444Q212 444 171 427T102 384L88 418Q119 446 163 461T255 477ZM337 245Q236 245 168 220T101 124Q101 70 135 44T216 19Q273 19 313 45T372 112T392 194V245ZM233 708H279L384 564H346L256 688L165 564H127Z" horiz-adv-x="520" unicode="â"/>
			<glyph d="M255 477Q336 477 382 434T429 307V104Q429 35 436 0H401Q398 18 396 46T394 98H391Q369 44 319 15T211 -13Q149 -13 105 21T62 123Q62 212 138 244T327 276H392V305Q392 374 355 409T252 444Q212 444 171 427T102 384L88 418Q119 446 163 461T255 477ZM337 245Q236 245 168 220T101 124Q101 70 135 44T216 19Q273 19 313 45T372 112T392 194V245ZM363 670H389Q384 632 366 611T320 590Q304 590 289 595T254 614Q231 628 218 633T192 638Q159 638 149 587H123Q128 624 146 646T191 669Q207 669 222 663T259 645Q283 631 295 626T320 621Q339 621 349 633T363 670Z" horiz-adv-x="520" unicode="ã"/>
			<glyph d="M255 477Q336 477 382 434T429 307V104Q429 35 436 0H401Q398 18 396 46T394 98H391Q369 44 319 15T211 -13Q149 -13 105 21T62 123Q62 212 138 244T327 276H392V305Q392 374 355 409T252 444Q212 444 171 427T102 384L88 418Q119 446 163 461T255 477ZM337 245Q236 245 168 220T101 124Q101 70 135 44T216 19Q273 19 313 45T372 112T392 194V245ZM173 689Q187 689 196 679T206 655Q206 640 196 630T173 621Q159 621 149 630T140 655Q140 669 149 679T173 689ZM340 689Q354 689 363 679T373 655Q373 640 363 630T340 621Q326 621 316 630T307 655Q307 669 316 679T340 689Z" horiz-adv-x="520" unicode="ä"/>
			<glyph d="M255 477Q336 477 382 434T429 307V104Q429 35 436 0H401Q398 18 396 46T394 98H391Q369 44 319 15T211 -13Q149 -13 105 21T62 123Q62 212 138 244T327 276H392V305Q392 374 355 409T252 444Q212 444 171 427T102 384L88 418Q119 446 163 461T255 477ZM337 245Q236 245 168 220T101 124Q101 70 135 44T216 19Q273 19 313 45T372 112T392 194V245ZM257 746Q296 746 324 718T353 650Q353 610 324 582T257 555Q217 555 188 582T160 650Q160 690 188 718T257 746ZM257 722Q227 722 206 701T185 650Q185 620 206 599T257 579Q287 579 307 599T328 650Q328 680 307 701T257 722Z" horiz-adv-x="520" unicode="å"/>
			<glyph d="M258 477Q327 477 368 443T419 354Q446 411 493 444T603 477Q664 477 710 448T781 369T807 252V228H429Q429 175 449 127T510 50T609 21Q655 21 698 37T774 80L781 44Q750 20 705 3T608 -13Q539 -13 488 24T414 128Q400 64 350 25T224 -13Q158 -13 110 19T62 117Q62 199 140 230T332 261H392V297Q392 369 356 406T255 444Q170 444 103 384L90 418Q121 446 166 461T258 477ZM603 444Q548 444 509 414T450 342T430 261H769Q767 343 721 393T603 444ZM345 229Q235 229 168 206T102 117Q102 65 139 42T229 19Q312 19 352 67T392 188V229Z" horiz-adv-x="867" unicode="æ"/>
			<glyph d="M299 477Q345 477 387 461T456 420L438 389Q414 414 376 428T299 443Q240 443 195 414T125 337T100 231Q100 173 125 125T195 49T300 21Q346 21 382 35T449 78L456 44Q429 19 387 3T299 -13H295L249 -82Q273 -76 296 -76Q331 -76 356 -93T382 -145Q382 -189 346 -208T267 -227Q247 -227 221 -221T175 -207L184 -183Q202 -191 224 -195T266 -200Q297 -200 322 -187T347 -145Q347 -120 328 -109T281 -98Q268 -98 250 -101T221 -111L207 -100L267 -11Q206 -4 159 28T86 113T60 231Q60 301 90 357T175 445T299 477Z" horiz-adv-x="486" unicode="ç"/>
			<glyph d="M285 477Q354 477 403 446T477 364T502 253Q502 238 501 230H97Q98 173 123 125T192 48T294 20Q346 20 392 39T468 85L475 47Q400 -13 293 -13Q225 -13 172 19T89 107T60 235Q60 304 89 359T170 446T285 477ZM285 444Q228 444 186 415T122 343T99 262H464Q462 344 413 394T285 444ZM173 708H223L325 564H291Z" horiz-adv-x="562" unicode="è"/>
			<glyph d="M285 477Q354 477 403 446T477 364T502 253Q502 238 501 230H97Q98 173 123 125T192 48T294 20Q346 20 392 39T468 85L475 47Q400 -13 293 -13Q225 -13 172 19T89 107T60 235Q60 304 89 359T170 446T285 477ZM285 444Q228 444 186 415T122 343T99 262H464Q462 344 413 394T285 444ZM356 708H406L288 564H254Z" horiz-adv-x="562" unicode="é"/>
			<glyph d="M285 477Q354 477 403 446T477 364T502 253Q502 238 501 230H97Q98 173 123 125T192 48T294 20Q346 20 392 39T468 85L475 47Q400 -13 293 -13Q225 -13 172 19T89 107T60 235Q60 304 89 359T170 446T285 477ZM285 444Q228 444 186 415T122 343T99 262H464Q462 344 413 394T285 444ZM268 708H314L419 564H381L291 688L200 564H162Z" horiz-adv-x="562" unicode="ê"/>
			<glyph d="M285 477Q354 477 403 446T477 364T502 253Q502 238 501 230H97Q98 173 123 125T192 48T294 20Q346 20 392 39T468 85L475 47Q400 -13 293 -13Q225 -13 172 19T89 107T60 235Q60 304 89 359T170 446T285 477ZM285 444Q228 444 186 415T122 343T99 262H464Q462 344 413 394T285 444ZM205 689Q219 689 228 679T238 655Q238 640 228 630T205 621Q191 621 181 630T172 655Q172 669 181 679T205 689ZM372 689Q386 689 395 679T405 655Q405 640 395 630T372 621Q358 621 348 630T339 655Q339 669 348 679T372 689Z" horiz-adv-x="562" unicode="ë"/>
			<glyph d="M98 463H137V0H98ZM-14 708H36L138 564H104Z" horiz-adv-x="234" unicode="ì"/>
			<glyph d="M98 463H137V0H98ZM200 708H250L132 564H98Z" horiz-adv-x="234" unicode="í"/>
			<glyph d="M98 463H137V0H98ZM96 708H142L247 564H209L119 688L28 564H-10Z" horiz-adv-x="234" unicode="î"/>
			<glyph d="M98 463H137V0H98ZM35 689Q49 689 58 679T68 655Q68 640 58 630T35 621Q21 621 11 630T2 655Q2 669 11 679T35 689ZM202 689Q216 689 225 679T235 655Q235 640 225 630T202 621Q188 621 178 630T169 655Q169 669 178 679T202 689Z" horiz-adv-x="234" unicode="ï"/>
			<glyph d="M221 769Q262 741 320 687L424 744L448 723L344 666Q388 622 434 555T512 406T545 242Q545 171 516 113T431 21T300 -13Q230 -13 175 18T89 106T58 232Q58 303 89 358T175 445T300 477Q400 477 469 407L474 409Q446 474 399 539T309 647L197 587L176 609L286 669Q235 718 189 748ZM300 442Q239 442 192 414T121 339T97 232Q97 174 122 125T193 48T300 20Q361 20 407 48T479 125T504 232Q504 291 479 338T407 414T300 442Z" horiz-adv-x="608" unicode="ð"/>
			<glyph d="M311 477Q399 477 441 421T484 282V0H445V271Q445 344 413 393T307 443Q261 443 222 418T161 346T139 234V0H99V351Q99 427 95 463H132Q137 401 137 356H139Q159 411 206 444T311 477ZM399 670H425Q420 632 402 611T356 590Q340 590 325 595T290 614Q267 628 254 633T228 638Q195 638 185 587H159Q164 624 182 646T227 669Q243 669 258 663T295 645Q319 631 331 626T356 621Q375 621 385 633T399 670Z" horiz-adv-x="576" unicode="ñ"/>
			<glyph d="M303 477Q374 477 429 445T516 358T548 232Q548 162 516 106T429 18T303 -13Q233 -13 177 18T91 106T60 232Q60 303 91 358T177 445T303 477ZM303 443Q242 443 195 415T124 339T100 232Q100 174 125 125T196 48T303 20Q364 20 410 48T482 125T507 232Q507 291 482 339T410 415T303 443ZM193 708H243L345 564H311Z" horiz-adv-x="608" unicode="ò"/>
			<glyph d="M303 477Q374 477 429 445T516 358T548 232Q548 162 516 106T429 18T303 -13Q233 -13 177 18T91 106T60 232Q60 303 91 358T177 445T303 477ZM303 443Q242 443 195 415T124 339T100 232Q100 174 125 125T196 48T303 20Q364 20 410 48T482 125T507 232Q507 291 482 339T410 415T303 443ZM367 708H417L299 564H265Z" horiz-adv-x="608" unicode="ó"/>
			<glyph d="M303 477Q374 477 429 445T516 358T548 232Q548 162 516 106T429 18T303 -13Q233 -13 177 18T91 106T60 232Q60 303 91 358T177 445T303 477ZM303 443Q242 443 195 415T124 339T100 232Q100 174 125 125T196 48T303 20Q364 20 410 48T482 125T507 232Q507 291 482 339T410 415T303 443ZM282 708H328L433 564H395L305 688L214 564H176Z" horiz-adv-x="608" unicode="ô"/>
			<glyph d="M303 477Q374 477 429 445T516 358T548 232Q548 162 516 106T429 18T303 -13Q233 -13 177 18T91 106T60 232Q60 303 91 358T177 445T303 477ZM303 443Q242 443 195 415T124 339T100 232Q100 174 125 125T196 48T303 20Q364 20 410 48T482 125T507 232Q507 291 482 339T410 415T303 443ZM412 670H438Q433 632 415 611T369 590Q353 590 338 595T303 614Q280 628 267 633T241 638Q208 638 198 587H172Q177 624 195 646T240 669Q256 669 271 663T308 645Q332 631 344 626T369 621Q388 621 398 633T412 670Z" horiz-adv-x="608" unicode="õ"/>
			<glyph d="M303 477Q374 477 429 445T516 358T548 232Q548 162 516 106T429 18T303 -13Q233 -13 177 18T91 106T60 232Q60 303 91 358T177 445T303 477ZM303 443Q242 443 195 415T124 339T100 232Q100 174 125 125T196 48T303 20Q364 20 410 48T482 125T507 232Q507 291 482 339T410 415T303 443ZM222 689Q236 689 245 679T255 655Q255 640 245 630T222 621Q208 621 198 630T189 655Q189 669 198 679T222 689ZM389 689Q403 689 412 679T422 655Q422 640 412 630T389 621Q375 621 365 630T356 655Q356 669 365 679T389 689Z" horiz-adv-x="608" unicode="ö"/>
			<glyph d="M333 512Q351 512 363 499T376 468Q376 451 363 438T333 426Q315 426 303 438T291 468Q291 487 303 499T333 512ZM89 320H578V286H89ZM333 180Q351 180 363 167T376 138Q376 119 363 106T333 94Q315 94 303 106T291 138Q291 156 303 168T333 180Z" horiz-adv-x="666" unicode="÷"/>
			<glyph d="M526 482L547 462L485 400Q515 369 531 326T548 232Q548 162 517 106T430 18T303 -13Q253 -13 210 3T137 50L70 -18L49 2L117 69Q60 136 60 232Q60 303 91 358T177 445T303 477Q396 477 465 421ZM303 445Q241 445 195 416T124 339T99 233Q99 152 142 95L440 395Q415 419 379 432T303 445ZM459 374L161 74Q216 19 302 19Q364 19 410 47T482 124T508 232Q508 274 495 311T459 374Z" horiz-adv-x="608" unicode="ø"/>
			<glyph d="M91 463H130V193Q130 119 161 69T267 19Q314 19 352 44T413 119T436 236V463H475V112Q475 89 477 54T484 0L445 -1Q441 18 435 107Q415 52 366 19T261 -13Q173 -13 132 42T91 182ZM155 708H205L307 564H273Z" horiz-adv-x="576" unicode="ù"/>
			<glyph d="M91 463H130V193Q130 119 161 69T267 19Q314 19 352 44T413 119T436 236V463H475V112Q475 89 477 54T484 0L445 -1Q441 18 435 107Q415 52 366 19T261 -13Q173 -13 132 42T91 182ZM338 708H388L270 564H236Z" horiz-adv-x="576" unicode="ú"/>
			<glyph d="M91 463H130V193Q130 119 161 69T267 19Q314 19 352 44T413 119T436 236V463H475V112Q475 89 477 54T484 0L445 -1Q441 18 435 107Q415 52 366 19T261 -13Q173 -13 132 42T91 182ZM257 708H303L408 564H370L280 688L189 564H151Z" horiz-adv-x="576" unicode="û"/>
			<glyph d="M91 463H130V193Q130 119 161 69T267 19Q314 19 352 44T413 119T436 236V463H475V112Q475 89 477 54T484 0L445 -1Q441 18 435 107Q415 52 366 19T261 -13Q173 -13 132 42T91 182ZM199 689Q213 689 222 679T232 655Q232 640 222 630T199 621Q185 621 175 630T166 655Q166 669 175 679T199 689ZM366 689Q380 689 389 679T399 655Q399 640 389 630T366 621Q352 621 342 630T333 655Q333 669 342 679T366 689Z" horiz-adv-x="576" unicode="ü"/>
			<glyph d="M21 463H65L235 40L386 463H428L207 -135Q186 -191 148 -215T52 -240L43 -204Q96 -203 126 -184T174 -118L215 -6ZM301 708H351L233 564H199Z" horiz-adv-x="450" unicode="ý"/>
			<glyph d="M98 756H137V353H139Q168 413 220 445T335 477Q403 477 456 445T539 357T569 231Q569 162 539 106T455 18T335 -13Q273 -13 219 19T139 109H137V-240H98ZM332 443Q275 443 229 414T159 337T134 231Q134 174 159 125T230 48T332 20Q391 20 435 48T504 125T529 231Q529 289 504 337T435 414T332 443Z" horiz-adv-x="629" unicode="þ"/>
			<glyph d="M21 463H65L235 40L386 463H428L207 -135Q186 -191 148 -215T52 -240L43 -204Q96 -203 126 -184T174 -118L215 -6ZM146 689Q160 689 169 679T179 655Q179 640 169 630T146 621Q132 621 122 630T113 655Q113 669 122 679T146 689ZM313 689Q327 689 336 679T346 655Q346 640 336 630T313 621Q299 621 289 630T280 655Q280 669 289 679T313 689Z" horiz-adv-x="450" unicode="ÿ"/>
			<glyph d="M321 708H365L663 0H618L503 279H176L60 0H15ZM342 670L191 315H488ZM220 846H466V815H220Z" horiz-adv-x="678" unicode="Ā"/>
			<glyph d="M255 477Q336 477 382 434T429 307V104Q429 35 436 0H401Q398 18 396 46T394 98H391Q369 44 319 15T211 -13Q149 -13 105 21T62 123Q62 212 138 244T327 276H392V305Q392 374 355 409T252 444Q212 444 171 427T102 384L88 418Q119 446 163 461T255 477ZM337 245Q236 245 168 220T101 124Q101 70 135 44T216 19Q273 19 313 45T372 112T392 194V245ZM143 646H389V615H143Z" horiz-adv-x="520" unicode="ā"/>
			<glyph d="M321 708H365L663 0H618L503 279H176L60 0H15ZM342 670L191 315H488ZM210 901H237Q246 855 274 830T342 805Q428 805 448 901H476Q468 840 432 806T342 773Q287 773 251 806T210 901Z" horiz-adv-x="678" unicode="Ă"/>
			<glyph d="M255 477Q336 477 382 434T429 307V104Q429 35 436 0H401Q398 18 396 46T394 98H391Q369 44 319 15T211 -13Q149 -13 105 21T62 123Q62 212 138 244T327 276H392V305Q392 374 355 409T252 444Q212 444 171 427T102 384L88 418Q119 446 163 461T255 477ZM337 245Q236 245 168 220T101 124Q101 70 135 44T216 19Q273 19 313 45T372 112T392 194V245ZM134 701H161Q170 655 198 630T266 605Q352 605 372 701H400Q392 640 356 606T266 573Q211 573 175 606T134 701Z" horiz-adv-x="520" unicode="ă"/>
			<glyph d="M321 708H365L663 0H651Q603 -47 583 -76T563 -135Q563 -161 579 -177T622 -193Q640 -193 657 -185T685 -166L699 -190Q682 -205 659 -214T614 -223Q577 -223 552 -200T527 -141Q527 -105 551 -72T619 0H618L503 279H176L60 0H15ZM342 670L191 315H488Z" horiz-adv-x="678" unicode="Ą"/>
			<glyph d="M255 477Q336 477 382 434T429 307V104Q429 35 436 0H435Q387 -47 367 -76T347 -135Q347 -161 363 -177T406 -193Q424 -193 441 -185T469 -166L483 -190Q466 -205 443 -214T398 -223Q361 -223 336 -200T311 -141Q311 -105 335 -72T403 0H401Q398 18 396 46T394 98H391Q369 44 319 15T211 -13Q149 -13 105 21T62 123Q62 212 138 244T327 276H392V305Q392 374 355 409T252 444Q212 444 171 427T102 384L88 418Q119 446 163 461T255 477ZM337 245Q236 245 168 220T101 124Q101 70 135 44T216 19Q273 19 313 45T372 112T392 194V245Z" horiz-adv-x="520" unicode="ą"/>
			<glyph d="M431 727Q503 727 571 702T679 639L665 598Q627 638 564 664T431 690Q336 690 263 645T149 524T109 354Q109 261 149 184T262 63T431 18Q501 18 563 45T669 115L681 79Q646 40 575 10T431 -19Q326 -19 243 29T113 162T66 354Q66 461 113 546T243 679T431 727ZM486 908H535L418 764H384Z" horiz-adv-x="722" unicode="Ć"/>
			<glyph d="M299 477Q345 477 387 461T456 420L438 389Q414 414 376 428T299 443Q240 443 195 414T125 337T100 231Q100 173 125 125T195 49T300 21Q346 21 382 35T449 78L456 44Q429 19 387 3T299 -13Q230 -13 175 18T90 105T60 231Q60 301 90 357T175 445T299 477ZM345 708H395L277 564H243Z" horiz-adv-x="486" unicode="ć"/>
			<glyph d="M431 727Q503 727 571 702T679 639L665 598Q627 638 564 664T431 690Q336 690 263 645T149 524T109 354Q109 261 149 184T262 63T431 18Q501 18 563 45T669 115L681 79Q646 40 575 10T431 -19Q326 -19 243 29T113 162T66 354Q66 461 113 546T243 679T431 727ZM407 908H453L558 764H520L430 888L339 764H301Z" horiz-adv-x="722" unicode="Ĉ"/>
			<glyph d="M299 477Q345 477 387 461T456 420L438 389Q414 414 376 428T299 443Q240 443 195 414T125 337T100 231Q100 173 125 125T195 49T300 21Q346 21 382 35T449 78L456 44Q429 19 387 3T299 -13Q230 -13 175 18T90 105T60 231Q60 301 90 357T175 445T299 477ZM256 708H302L407 564H369L279 688L188 564H150Z" horiz-adv-x="486" unicode="ĉ"/>
			<glyph d="M431 727Q503 727 571 702T679 639L665 598Q627 638 564 664T431 690Q336 690 263 645T149 524T109 354Q109 261 149 184T262 63T431 18Q501 18 563 45T669 115L681 79Q646 40 575 10T431 -19Q326 -19 243 29T113 162T66 354Q66 461 113 546T243 679T431 727ZM427 889Q439 889 449 879T459 856Q459 841 449 831T427 822Q414 822 404 831T394 856Q394 869 404 879T427 889Z" horiz-adv-x="722" unicode="Ċ"/>
			<glyph d="M299 477Q345 477 387 461T456 420L438 389Q414 414 376 428T299 443Q240 443 195 414T125 337T100 231Q100 173 125 125T195 49T300 21Q346 21 382 35T449 78L456 44Q429 19 387 3T299 -13Q230 -13 175 18T90 105T60 231Q60 301 90 357T175 445T299 477ZM286 689Q298 689 308 679T318 656Q318 641 308 631T286 622Q273 622 263 631T253 656Q253 670 263 679T286 689Z" horiz-adv-x="486" unicode="ċ"/>
			<glyph d="M431 727Q503 727 571 702T679 639L665 598Q627 638 564 664T431 690Q336 690 263 645T149 524T109 354Q109 261 149 184T262 63T431 18Q501 18 563 45T669 115L681 79Q646 40 575 10T431 -19Q326 -19 243 29T113 162T66 354Q66 461 113 546T243 679T431 727ZM301 908H339L430 784L520 908H558L453 764H407Z" horiz-adv-x="722" unicode="Č"/>
			<glyph d="M299 477Q345 477 387 461T456 420L438 389Q414 414 376 428T299 443Q240 443 195 414T125 337T100 231Q100 173 125 125T195 49T300 21Q346 21 382 35T449 78L456 44Q429 19 387 3T299 -13Q230 -13 175 18T90 105T60 231Q60 301 90 357T175 445T299 477ZM157 708H195L286 584L376 708H414L309 564H263Z" horiz-adv-x="486" unicode="č"/>
			<glyph d="M101 708H314Q421 708 508 669T648 551T700 354Q700 238 648 158T509 39T315 0H101ZM142 671V37H304Q409 37 489 73T613 181T658 354Q658 455 613 526T489 634T304 671ZM224 908H262L353 784L443 908H481L376 764H330Z" horiz-adv-x="766" unicode="Ď"/>
			<glyph d="M531 766V119Q531 67 536 0H498Q493 62 493 109H491Q462 51 408 19T294 -13Q226 -13 172 19T89 106T60 231Q60 300 89 356T172 444T294 477Q356 477 409 444T491 353H493V756ZM296 443Q237 443 192 414T124 337T100 231Q100 173 124 125T192 48T296 20Q352 20 397 48T468 125T494 231Q494 289 468 337T397 414T296 443ZM646 708H688L623 523H592Z" horiz-adv-x="663" unicode="ď"/>
			<glyph d="M99 708H312Q419 708 506 669T645 550T697 354Q697 238 645 158T506 39T312 0H99V354H22V386H99ZM140 671V386H403V354H140V37H301Q407 37 486 73T610 181T654 354Q654 455 610 526T486 634T302 671Z" horiz-adv-x="766" unicode="Đ"/>
			<glyph d="M493 756H531V599H597V570H531V105Q531 70 535 0H497Q493 49 493 109H491Q462 51 408 19T294 -13Q226 -13 172 19T89 106T60 231Q60 300 89 356T172 444T294 477Q356 477 409 444T491 353H493V570H299V599H493ZM296 443Q237 443 192 414T124 337T100 231Q100 173 124 125T192 48T296 20Q353 20 398 48T470 125T496 231Q496 289 470 337T398 414T296 443Z" horiz-adv-x="630" unicode="đ"/>
			<glyph d="M101 708H466L456 671H141V385H442L432 350H141V37H481L470 0H101ZM159 847H405V816H159Z" horiz-adv-x="539" unicode="Ē"/>
			<glyph d="M285 477Q354 477 403 446T477 364T502 253Q502 238 501 230H97Q98 173 123 125T192 48T294 20Q346 20 392 39T468 85L475 47Q400 -13 293 -13Q225 -13 172 19T89 107T60 235Q60 304 89 359T170 446T285 477ZM285 444Q228 444 186 415T122 343T99 262H464Q462 344 413 394T285 444ZM167 646H413V615H167Z" horiz-adv-x="562" unicode="ē"/>
			<glyph d="M101 708H466L456 671H141V385H442L432 350H141V37H481L470 0H101ZM152 887H179Q188 841 216 816T284 791Q370 791 390 887H418Q410 826 374 792T284 759Q229 759 193 792T152 887Z" horiz-adv-x="539" unicode="Ĕ"/>
			<glyph d="M285 477Q354 477 403 446T477 364T502 253Q502 238 501 230H97Q98 173 123 125T192 48T294 20Q346 20 392 39T468 85L475 47Q400 -13 293 -13Q225 -13 172 19T89 107T60 235Q60 304 89 359T170 446T285 477ZM285 444Q228 444 186 415T122 343T99 262H464Q462 344 413 394T285 444ZM158 701H185Q194 655 222 630T290 605Q376 605 396 701H424Q416 640 380 606T290 573Q235 573 199 606T158 701Z" horiz-adv-x="562" unicode="ĕ"/>
			<glyph d="M101 708H466L456 671H141V385H442L432 350H141V37H481L470 0H101ZM281 867Q293 867 303 857T313 834Q313 819 303 809T281 800Q268 800 258 809T248 834Q248 847 258 857T281 867Z" horiz-adv-x="539" unicode="Ė"/>
			<glyph d="M285 477Q354 477 403 446T477 364T502 253Q502 238 501 230H97Q98 173 123 125T192 48T294 20Q346 20 392 39T468 85L475 47Q400 -13 293 -13Q225 -13 172 19T89 107T60 235Q60 304 89 359T170 446T285 477ZM285 444Q228 444 186 415T122 343T99 262H464Q462 344 413 394T285 444ZM290 689Q302 689 312 679T322 656Q322 641 312 631T290 622Q277 622 267 631T257 656Q257 670 267 679T290 689Z" horiz-adv-x="562" unicode="ė"/>
			<glyph d="M101 708H466L456 671H141V385H442L432 350H141V37H481L470 0H400Q352 -47 332 -76T312 -135Q312 -161 328 -177T371 -193Q389 -193 406 -185T434 -166L448 -190Q431 -205 408 -214T363 -223Q326 -223 301 -200T276 -141Q276 -105 300 -72T368 0H101Z" horiz-adv-x="539" unicode="Ę"/>
			<glyph d="M285 477Q354 477 403 446T477 364T502 253Q502 238 501 230H97Q98 173 123 125T192 48T294 20Q346 20 392 39T468 85L475 47Q419 2 348 -9Q305 -52 287 -79T269 -135Q269 -161 286 -177T329 -193Q347 -193 363 -185T391 -166L405 -190Q389 -205 366 -214T320 -223Q284 -223 259 -200T234 -141Q234 -108 254 -77T311 -13H293Q225 -13 172 19T89 107T60 235Q60 304 89 359T170 446T285 477ZM285 444Q228 444 186 415T122 343T99 262H464Q462 344 413 394T285 444Z" horiz-adv-x="562" unicode="ę"/>
			<glyph d="M101 708H466L456 671H141V385H442L432 350H141V37H481L470 0H101ZM158 907H196L287 783L377 907H415L310 763H264Z" horiz-adv-x="539" unicode="Ě"/>
			<glyph d="M285 477Q354 477 403 446T477 364T502 253Q502 238 501 230H97Q98 173 123 125T192 48T294 20Q346 20 392 39T468 85L475 47Q400 -13 293 -13Q225 -13 172 19T89 107T60 235Q60 304 89 359T170 446T285 477ZM285 444Q228 444 186 415T122 343T99 262H464Q462 344 413 394T285 444ZM160 708H198L289 584L379 708H417L312 564H266Z" horiz-adv-x="562" unicode="ě"/>
			<glyph d="M436 727Q506 727 572 706T682 653L670 616Q625 650 563 670T436 691Q339 691 264 646T149 524T109 355Q109 262 149 185T264 62T441 17Q563 17 656 65V323H479L490 357H696V44Q646 15 580 -2T439 -19Q330 -19 245 30T113 164T66 355Q66 461 113 546T245 679T436 727ZM411 908H457L562 764H524L434 888L343 764H305Z" horiz-adv-x="790" unicode="Ĝ"/>
			<glyph d="M294 477Q355 477 408 444T491 353H493Q493 401 498 463H534Q531 412 531 361V0Q531 -110 473 -178T289 -247Q231 -247 180 -232T89 -191L98 -152Q137 -179 186 -196T287 -213Q395 -213 444 -155T493 2V113H491Q465 55 410 22T294 -10Q226 -10 172 21T89 108T60 232Q60 300 89 356T172 444T294 477ZM296 443Q237 443 192 414T124 337T100 232Q100 176 124 128T192 51T296 23Q352 23 397 51T468 127T494 233Q494 290 468 338T397 414T296 443ZM285 708H331L436 564H398L308 688L217 564H179Z" horiz-adv-x="629" unicode="ĝ"/>
			<glyph d="M436 727Q506 727 572 706T682 653L670 616Q625 650 563 670T436 691Q339 691 264 646T149 524T109 355Q109 262 149 185T264 62T441 17Q563 17 656 65V323H479L490 357H696V44Q646 15 580 -2T439 -19Q330 -19 245 30T113 164T66 355Q66 461 113 546T245 679T436 727ZM301 901H328Q337 855 365 830T433 805Q519 805 539 901H567Q559 840 523 806T433 773Q378 773 342 806T301 901Z" horiz-adv-x="790" unicode="Ğ"/>
			<glyph d="M294 477Q355 477 408 444T491 353H493Q493 401 498 463H534Q531 412 531 361V0Q531 -110 473 -178T289 -247Q231 -247 180 -232T89 -191L98 -152Q137 -179 186 -196T287 -213Q395 -213 444 -155T493 2V113H491Q465 55 410 22T294 -10Q226 -10 172 21T89 108T60 232Q60 300 89 356T172 444T294 477ZM296 443Q237 443 192 414T124 337T100 232Q100 176 124 128T192 51T296 23Q352 23 397 51T468 127T494 233Q494 290 468 338T397 414T296 443ZM175 701H202Q211 655 239 630T307 605Q393 605 413 701H441Q433 640 397 606T307 573Q252 573 216 606T175 701Z" horiz-adv-x="629" unicode="ğ"/>
			<glyph d="M436 727Q506 727 572 706T682 653L670 616Q625 650 563 670T436 691Q339 691 264 646T149 524T109 355Q109 262 149 185T264 62T441 17Q563 17 656 65V323H479L490 357H696V44Q646 15 580 -2T439 -19Q330 -19 245 30T113 164T66 355Q66 461 113 546T245 679T436 727ZM431 889Q443 889 453 879T463 856Q463 841 453 831T431 822Q418 822 408 831T398 856Q398 869 408 879T431 889Z" horiz-adv-x="790" unicode="Ġ"/>
			<glyph d="M294 477Q355 477 408 444T491 353H493Q493 401 498 463H534Q531 412 531 361V0Q531 -110 473 -178T289 -247Q231 -247 180 -232T89 -191L98 -152Q137 -179 186 -196T287 -213Q395 -213 444 -155T493 2V113H491Q465 55 410 22T294 -10Q226 -10 172 21T89 108T60 232Q60 300 89 356T172 444T294 477ZM296 443Q237 443 192 414T124 337T100 232Q100 176 124 128T192 51T296 23Q352 23 397 51T468 127T494 233Q494 290 468 338T397 414T296 443ZM306 689Q318 689 328 679T338 656Q338 641 328 631T306 622Q293 622 283 631T273 656Q273 670 283 679T306 689Z" horiz-adv-x="629" unicode="ġ"/>
			<glyph d="M436 727Q506 727 572 706T682 653L670 616Q625 650 563 670T436 691Q339 691 264 646T149 524T109 355Q109 262 149 185T264 62T441 17Q563 17 656 65V323H479L490 357H696V44Q646 15 580 -2T439 -19Q330 -19 245 30T113 164T66 355Q66 461 113 546T245 679T436 727ZM426 -43H468L403 -228H372Z" horiz-adv-x="790" unicode="Ģ"/>
			<glyph d="M294 477Q355 477 408 444T491 353H493Q493 401 498 463H534Q531 412 531 361V0Q531 -110 473 -178T289 -247Q231 -247 180 -232T89 -191L98 -152Q137 -179 186 -196T287 -213Q395 -213 444 -155T493 2V113H491Q465 55 410 22T294 -10Q226 -10 172 21T89 108T60 232Q60 300 89 356T172 444T294 477ZM296 443Q237 443 192 414T124 337T100 232Q100 176 124 128T192 51T296 23Q352 23 397 51T468 127T494 233Q494 290 468 338T397 414T296 443ZM341 749H373L318 564H277Z" horiz-adv-x="629" unicode="ģ"/>
			<glyph d="M101 708H142V385H607V708H647V0H607V349H142V0H101ZM342 908H388L493 764H455L365 888L274 764H236Z" horiz-adv-x="747" unicode="Ĥ"/>
			<glyph d="M137 760V357H139Q159 412 207 444T312 477Q400 477 441 422T482 282V0H443V271Q443 344 411 393T305 443Q258 443 220 417T159 341T137 220V0H98V753ZM260 935H306L411 791H373L283 915L192 791H154Z" horiz-adv-x="574" unicode="ĥ"/>
			<glyph d="M101 708H142V529H607V708H647V0H607V349H142V0H101ZM142 500V385H607V500Z" horiz-adv-x="748" unicode="Ħ"/>
			<glyph d="M98 756H137V599H331V570H137V357H139Q159 412 207 444T312 477Q400 477 441 422T482 282V0H443V271Q443 344 411 393T305 443Q259 443 220 418T159 346T137 234V0H98V570H32V599H98Z" horiz-adv-x="574" unicode="ħ"/>
			<glyph d="M101 708H142V0H101ZM230 870H256Q251 832 233 811T187 790Q172 790 157 795T121 813Q98 827 85 832T59 837Q26 837 16 787H-10Q-5 824 13 846T58 869Q74 869 89 863T126 845Q150 831 162 826T187 821Q206 821 216 833T230 870Z" horiz-adv-x="244" unicode="Ĩ"/>
			<glyph d="M98 463H137V0H98ZM226 670H252Q247 632 229 611T183 590Q167 590 152 595T117 614Q94 628 81 633T55 638Q22 638 12 587H-14Q-9 624 9 646T54 669Q70 669 85 663T122 645Q146 631 158 626T183 621Q202 621 212 633T226 670Z" horiz-adv-x="234" unicode="ĩ"/>
			<glyph d="M101 708H142V0H101ZM0 846H246V815H0Z" horiz-adv-x="244" unicode="Ī"/>
			<glyph d="M98 463H137V0H98ZM-4 646H242V615H-4Z" horiz-adv-x="234" unicode="ī"/>
			<glyph d="M101 708H142V0H101ZM-11 901H16Q25 855 53 830T121 805Q207 805 227 901H255Q247 840 211 806T121 773Q66 773 30 806T-11 901Z" horiz-adv-x="244" unicode="Ĭ"/>
			<glyph d="M98 463H137V0H98ZM-15 701H12Q21 655 49 630T117 605Q203 605 223 701H251Q243 640 207 606T117 573Q62 573 26 606T-15 701Z" horiz-adv-x="234" unicode="ĭ"/>
			<glyph d="M101 708H142V0Q94 -47 74 -76T54 -135Q54 -161 71 -177T114 -193Q131 -193 148 -185T176 -166L190 -190Q174 -205 151 -214T105 -223Q68 -223 43 -200T18 -141Q18 -105 42 -72T110 0H101Z" horiz-adv-x="244" unicode="Į"/>
			<glyph d="M118 689Q130 689 139 679T149 656Q149 641 140 631T118 622Q105 622 95 631T85 656Q85 670 95 679T118 689ZM98 463H137V0Q89 -47 69 -76T49 -135Q49 -161 65 -177T108 -193Q126 -193 143 -185T171 -166L185 -190Q168 -205 145 -214T100 -223Q63 -223 38 -200T13 -141Q13 -105 37 -72T105 0H98Z" horiz-adv-x="234" unicode="į"/>
			<glyph d="M101 708H142V0H101ZM123 889Q135 889 145 879T155 856Q155 841 145 831T123 822Q110 822 100 831T90 856Q90 869 100 879T123 889Z" horiz-adv-x="244" unicode="İ"/>
			<glyph d="M98 463H137V0H98Z" horiz-adv-x="234" unicode="ı"/>
			<glyph d="M101 708H142V0H101ZM471 708H511V197Q511 101 465 41T326 -18Q294 -18 267 -12L260 27Q289 18 323 18Q400 18 435 68T471 201Z" horiz-adv-x="608" unicode="Ĳ"/>
			<glyph d="M118 689Q130 689 139 679T149 656Q149 641 140 631T118 622Q105 622 95 631T85 656Q85 670 95 679T118 689ZM98 463H137V0H98ZM353 689Q366 689 375 679T385 656Q385 641 375 631T353 622Q340 622 330 631T320 656Q320 670 330 679T353 689ZM333 463H372V-94Q372 -164 348 -201T261 -241L250 -208Q283 -208 300 -197T325 -162T333 -92Z" horiz-adv-x="471" unicode="ĳ"/>
			<glyph d="M238 708H278V197Q278 101 232 41T93 -18Q61 -18 34 -12L27 27Q56 18 90 18Q167 18 202 68T238 201ZM225 908H271L376 764H338L248 888L157 764H119Z" horiz-adv-x="375" unicode="Ĵ"/>
			<glyph d="M98 463H137V-94Q137 -167 111 -204T17 -241Q-2 -241 -20 -236L-14 -203Q3 -208 16 -208Q67 -208 82 -178T98 -92ZM94 708H140L245 564H207L117 688L26 564H-12Z" horiz-adv-x="235" unicode="ĵ"/>
			<glyph d="M101 708H142V364L491 708H549L191 362L567 0H509L142 358V0H101ZM304 -45H346L281 -230H250Z" horiz-adv-x="587" unicode="Ķ"/>
			<glyph d="M137 760V252H139L369 463H424L184 250L449 0H393L139 244H137V0H98V752ZM246 -45H288L223 -230H192Z" horiz-adv-x="468" unicode="ķ"/>
			<glyph d="M98 463H137V252H139L369 463H424L184 250L449 0H393L139 244H137V0H98Z" horiz-adv-x="468" unicode="ĸ"/>
			<glyph d="M101 708H142V37H468L458 0H101ZM206 871H255L138 727H104Z" horiz-adv-x="503" unicode="Ĺ"/>
			<glyph d="M137 759V95Q137 64 146 50T178 27L164 -9Q135 -2 116 22T98 84V750ZM204 919H253L136 775H102Z" horiz-adv-x="236" unicode="ĺ"/>
			<glyph d="M101 708H142V37H468L458 0H101ZM276 -45H318L253 -230H222Z" horiz-adv-x="503" unicode="Ļ"/>
			<glyph d="M137 759V95Q137 64 146 50T178 27L164 -9Q135 -2 116 22T98 84V750ZM120 -45H162L97 -230H66Z" horiz-adv-x="236" unicode="ļ"/>
			<glyph d="M101 708H142V37H468L458 0H101ZM311 709H353L288 524H257Z" horiz-adv-x="503" unicode="Ľ"/>
			<glyph d="M137 759V95Q137 64 146 50T178 27L164 -9Q135 -2 116 22T98 84V750ZM248 708H288L224 523H193Z" horiz-adv-x="264" unicode="ľ"/>
			<glyph d="M101 708H142V37H468L458 0H101ZM300 338Q312 338 322 328T332 305Q332 290 322 280T300 271Q287 271 277 280T267 305Q267 319 277 328T300 338Z" horiz-adv-x="503" unicode="Ŀ"/>
			<glyph d="M137 759V95Q137 64 146 50T178 27L164 -9Q135 -2 116 22T98 84V750ZM222 381Q234 381 244 371T254 348Q254 333 244 323T222 314Q209 314 199 323T189 348Q189 362 199 371T222 381Z" horiz-adv-x="268" unicode="ŀ"/>
			<glyph d="M101 708H142V324L352 509V468L142 281V37H486L476 0H101V251L31 188V231L101 294Z" horiz-adv-x="503" unicode="Ł"/>
			<glyph d="M137 759V423L215 494V452L137 380V95Q137 64 146 50T178 27L164 -9Q135 -2 116 22T98 84V347L31 283V328L98 391V750Z" horiz-adv-x="236" unicode="ł"/>
			<glyph d="M101 708H155L629 56H631V708H672V0H619L144 654H142V0H101ZM461 908H510L393 764H359Z" horiz-adv-x="773" unicode="Ń"/>
			<glyph d="M311 477Q399 477 441 421T484 282V0H445V271Q445 344 413 393T307 443Q261 443 222 418T161 346T139 234V0H99V351Q99 427 95 463H132Q137 401 137 356H139Q159 411 206 444T311 477ZM361 708H411L293 564H259Z" horiz-adv-x="576" unicode="ń"/>
			<glyph d="M101 708H155L629 56H631V708H672V0H619L144 654H142V0H101ZM369 -45H411L346 -230H315Z" horiz-adv-x="773" unicode="Ņ"/>
			<glyph d="M311 477Q399 477 441 421T484 282V0H445V271Q445 344 413 393T307 443Q261 443 222 418T161 346T139 234V0H99V351Q99 427 95 463H132Q137 401 137 356H139Q159 411 206 444T311 477ZM282 -46H324L259 -231H228Z" horiz-adv-x="576" unicode="ņ"/>
			<glyph d="M101 708H155L629 56H631V708H672V0H619L144 654H142V0H101ZM259 908H297L388 784L478 908H516L411 764H365Z" horiz-adv-x="773" unicode="Ň"/>
			<glyph d="M311 477Q399 477 441 421T484 282V0H445V271Q445 344 413 393T307 443Q261 443 222 418T161 346T139 234V0H99V351Q99 427 95 463H132Q137 401 137 356H139Q159 411 206 444T311 477ZM165 708H203L294 584L384 708H422L317 564H271Z" horiz-adv-x="576" unicode="ň"/>
			<glyph d="M313 477Q401 477 443 421T486 282V0H447V271Q447 344 415 393T309 443Q263 443 224 418T163 346T141 234V0H101V351Q101 427 97 463H134Q139 401 139 356H141Q161 411 208 444T313 477ZM87 723H127L63 538H31Z" horiz-adv-x="578" unicode="ŉ"/>
			<glyph d="M101 708H155L629 65H631V708H672V-94Q672 -167 646 -204T551 -241Q533 -241 513 -236L520 -203Q538 -208 551 -208Q602 -208 617 -178T632 -92V-10L144 654H142V0H101Z" horiz-adv-x="773" unicode="Ŋ"/>
			<glyph d="M313 477Q401 477 442 422T484 282V-94Q484 -167 457 -204T363 -241Q343 -241 326 -236L332 -203Q349 -208 362 -208Q413 -208 429 -177T445 -92V271Q445 344 413 393T307 443Q261 443 222 418T161 346T139 234V0H99V352Q99 427 95 463H132Q137 401 137 356H139Q159 411 207 444T313 477Z" horiz-adv-x="576" unicode="ŋ"/>
			<glyph d="M433 727Q537 727 620 679T750 546T798 354Q798 247 750 162T619 29T433 -19Q329 -19 245 29T114 162T66 354Q66 461 113 546T245 679T433 727ZM433 691Q338 691 264 646T150 524T109 354Q109 261 149 184T263 63T433 18Q528 18 601 63T715 184T756 354Q756 447 715 524T600 646T433 691ZM312 846H558V815H312Z" horiz-adv-x="865" unicode="Ō"/>
			<glyph d="M303 477Q374 477 429 445T516 358T548 232Q548 162 516 106T429 18T303 -13Q233 -13 177 18T91 106T60 232Q60 303 91 358T177 445T303 477ZM303 443Q242 443 195 415T124 339T100 232Q100 174 125 125T196 48T303 20Q364 20 410 48T482 125T507 232Q507 291 482 339T410 415T303 443ZM181 646H427V615H181Z" horiz-adv-x="608" unicode="ō"/>
			<glyph d="M433 727Q537 727 620 679T750 546T798 354Q798 247 750 162T619 29T433 -19Q329 -19 245 29T114 162T66 354Q66 461 113 546T245 679T433 727ZM433 691Q338 691 264 646T150 524T109 354Q109 261 149 184T263 63T433 18Q528 18 601 63T715 184T756 354Q756 447 715 524T600 646T433 691ZM300 901H327Q336 855 364 830T432 805Q518 805 538 901H566Q558 840 522 806T432 773Q377 773 341 806T300 901Z" horiz-adv-x="865" unicode="Ŏ"/>
			<glyph d="M303 477Q374 477 429 445T516 358T548 232Q548 162 516 106T429 18T303 -13Q233 -13 177 18T91 106T60 232Q60 303 91 358T177 445T303 477ZM303 443Q242 443 195 415T124 339T100 232Q100 174 125 125T196 48T303 20Q364 20 410 48T482 125T507 232Q507 291 482 339T410 415T303 443ZM172 701H199Q208 655 236 630T304 605Q390 605 410 701H438Q430 640 394 606T304 573Q249 573 213 606T172 701Z" horiz-adv-x="608" unicode="ŏ"/>
			<glyph d="M433 727Q537 727 620 679T750 546T798 354Q798 247 750 162T619 29T433 -19Q329 -19 245 29T114 162T66 354Q66 461 113 546T245 679T433 727ZM433 691Q338 691 264 646T150 524T109 354Q109 261 149 184T263 63T433 18Q528 18 601 63T715 184T756 354Q756 447 715 524T600 646T433 691ZM454 908H504L385 763H351ZM579 908H629L511 763H477Z" horiz-adv-x="865" unicode="Ő"/>
			<glyph d="M303 477Q374 477 429 445T516 358T548 232Q548 162 516 106T429 18T303 -13Q233 -13 177 18T91 106T60 232Q60 303 91 358T177 445T303 477ZM303 443Q242 443 195 415T124 339T100 232Q100 174 125 125T196 48T303 20Q364 20 410 48T482 125T507 232Q507 291 482 339T410 415T303 443ZM325 708H375L256 563H222ZM450 708H500L382 563H348Z" horiz-adv-x="608" unicode="ő"/>
			<glyph d="M457 708H925L915 671H570V385H893L883 350H570V37H940L930 0H457Q350 0 262 39T123 157T71 354Q71 470 123 550T262 669T457 708ZM466 671Q361 671 281 634T158 526T114 354Q114 253 158 181T281 73T466 37H530V671Z" horiz-adv-x="998" unicode="Œ"/>
			<glyph d="M303 477Q381 477 439 438T524 333Q550 399 604 438T729 477Q799 477 848 446T921 363T946 252V228H544Q544 174 567 126T634 49T738 20Q791 20 835 36T913 80L921 44Q846 -13 737 -13Q662 -13 606 26T525 132Q499 64 440 25T303 -13Q233 -13 177 18T91 106T60 232Q60 303 91 358T177 445T303 477ZM728 444Q671 444 629 414T567 342T545 260H907Q905 343 856 393T728 444ZM303 443Q242 443 195 415T124 339T99 232Q99 174 124 125T195 48T303 20Q364 20 410 48T482 125T507 232Q507 291 482 339T410 415T303 443Z" horiz-adv-x="1005" unicode="œ"/>
			<glyph d="M101 708H287Q387 708 451 667T516 528Q516 445 465 394T346 329L546 0H499L307 322H142V0H101ZM142 674V357H286Q372 357 424 404T476 528Q476 607 421 640T276 674ZM329 910H378L261 766H227Z" horiz-adv-x="598" unicode="Ŕ"/>
			<glyph d="M279 477Q305 477 329 469L319 433Q312 436 299 438T277 441Q236 441 204 413T156 336T139 229V0H99V351Q99 427 95 463H132Q137 420 137 356H139Q157 414 197 445T279 477ZM224 708H274L156 564H122Z" horiz-adv-x="331" unicode="ŕ"/>
			<glyph d="M101 708H287Q387 708 451 667T516 528Q516 445 465 394T346 329L546 0H499L307 322H142V0H101ZM142 674V357H286Q372 357 424 404T476 528Q476 607 421 640T276 674ZM283 -45H325L260 -230H229Z" horiz-adv-x="598" unicode="Ŗ"/>
			<glyph d="M279 477Q305 477 329 469L319 433Q312 436 299 438T277 441Q236 441 204 413T156 336T139 229V0H99V351Q99 427 95 463H132Q137 420 137 356H139Q157 414 197 445T279 477ZM114 -45H156L91 -230H60Z" horiz-adv-x="331" unicode="ŗ"/>
			<glyph d="M101 708H287Q387 708 451 667T516 528Q516 445 465 394T346 329L546 0H499L307 322H142V0H101ZM142 674V357H286Q372 357 424 404T476 528Q476 607 421 640T276 674ZM153 904H191L282 780L372 904H410L305 760H259Z" horiz-adv-x="598" unicode="Ř"/>
			<glyph d="M279 477Q305 477 329 469L319 433Q312 436 299 438T277 441Q236 441 204 413T156 336T139 229V0H99V351Q99 427 95 463H132Q137 420 137 356H139Q157 414 197 445T279 477ZM73 708H111L202 584L292 708H330L225 564H179Z" horiz-adv-x="331" unicode="ř"/>
			<glyph d="M300 727Q351 727 401 710T487 667L475 627Q444 654 397 673T300 692Q254 692 212 674T145 622T119 539Q119 491 142 460T201 411T296 373Q365 349 405 329T473 272T501 176Q501 114 470 70T389 3T280 -19Q222 -19 162 2T69 56L79 96Q116 59 170 38T280 17Q328 17 369 35T435 89T460 174Q460 222 436 252T378 298T282 337Q216 360 175 381T107 440T79 538Q79 598 110 640T191 705T300 727ZM358 908H407L290 764H256Z" horiz-adv-x="569" unicode="Ś"/>
			<glyph d="M216 477Q257 477 295 462T357 429L338 397Q314 417 282 430T215 444Q168 444 137 422T106 357Q106 319 134 298T230 253Q305 228 338 197T372 117Q372 77 350 48T295 3T222 -12Q172 -12 129 2T59 40L68 78Q130 21 224 21Q268 21 301 46T334 117Q334 155 302 178T200 225Q131 248 99 276T68 356Q68 413 112 445T216 477ZM284 708H334L216 564H182Z" horiz-adv-x="425" unicode="ś"/>
			<glyph d="M300 727Q351 727 401 710T487 667L475 627Q444 654 397 673T300 692Q254 692 212 674T145 622T119 539Q119 491 142 460T201 411T296 373Q365 349 405 329T473 272T501 176Q501 114 470 70T389 3T280 -19Q222 -19 162 2T69 56L79 96Q116 59 170 38T280 17Q328 17 369 35T435 89T460 174Q460 222 436 252T378 298T282 337Q216 360 175 381T107 440T79 538Q79 598 110 640T191 705T300 727ZM277 908H323L428 764H390L300 888L209 764H171Z" horiz-adv-x="569" unicode="Ŝ"/>
			<glyph d="M216 477Q257 477 295 462T357 429L338 397Q314 417 282 430T215 444Q168 444 137 422T106 357Q106 319 134 298T230 253Q305 228 338 197T372 117Q372 77 350 48T295 3T222 -12Q172 -12 129 2T59 40L68 78Q130 21 224 21Q268 21 301 46T334 117Q334 155 302 178T200 225Q131 248 99 276T68 356Q68 413 112 445T216 477ZM194 708H240L345 564H307L217 688L126 564H88Z" horiz-adv-x="425" unicode="ŝ"/>
			<glyph d="M300 727Q351 727 401 710T487 667L475 627Q444 654 397 673T300 692Q254 692 212 674T145 622T119 539Q119 491 142 460T201 411T296 373Q365 349 405 329T473 272T501 176Q501 117 473 74T400 8T298 -18L255 -82Q279 -76 302 -76Q337 -76 362 -93T388 -145Q388 -189 352 -208T273 -227Q253 -227 227 -221T181 -207L190 -183Q208 -191 230 -195T272 -200Q304 -200 328 -187T353 -145Q353 -120 334 -109T288 -98Q274 -98 256 -101T227 -111L214 -100L268 -19Q213 -17 157 4T69 56L79 96Q116 59 170 38T280 17Q328 17 369 35T435 89T460 174Q460 222 436 252T378 298T282 337Q216 360 175 381T107 440T79 538Q79 598 110 640T191 705T300 727Z" horiz-adv-x="569" unicode="Ş"/>
			<glyph d="M216 477Q257 477 295 462T357 429L338 397Q314 417 282 430T215 444Q168 444 137 422T106 357Q106 319 134 298T230 253Q305 228 338 197T372 117Q372 78 351 48T296 4T225 -12L179 -82Q202 -76 226 -76Q261 -76 286 -93T311 -145Q311 -189 276 -208T197 -227Q177 -227 151 -221T105 -207L113 -183Q131 -191 153 -195T195 -200Q227 -200 252 -187T277 -145Q277 -120 258 -109T211 -98Q197 -98 179 -101T151 -111L137 -100L197 -11Q155 -7 119 6T59 40L68 78Q130 21 224 21Q268 21 301 46T334 117Q334 155 302 178T200 225Q131 248 99 276T68 356Q68 413 112 445T216 477Z" horiz-adv-x="425" unicode="ş"/>
			<glyph d="M300 727Q351 727 401 710T487 667L475 627Q444 654 397 673T300 692Q254 692 212 674T145 622T119 539Q119 491 142 460T201 411T296 373Q365 349 405 329T473 272T501 176Q501 114 470 70T389 3T280 -19Q222 -19 162 2T69 56L79 96Q116 59 170 38T280 17Q328 17 369 35T435 89T460 174Q460 222 436 252T378 298T282 337Q216 360 175 381T107 440T79 538Q79 598 110 640T191 705T300 727ZM167 908H205L296 784L386 908H424L319 764H273Z" horiz-adv-x="569" unicode="Š"/>
			<glyph d="M216 477Q257 477 295 462T357 429L338 397Q314 417 282 430T215 444Q168 444 137 422T106 357Q106 319 134 298T230 253Q305 228 338 197T372 117Q372 77 350 48T295 3T222 -12Q172 -12 129 2T59 40L68 78Q130 21 224 21Q268 21 301 46T334 117Q334 155 302 178T200 225Q131 248 99 276T68 356Q68 413 112 445T216 477ZM88 708H126L217 584L307 708H345L240 564H194Z" horiz-adv-x="425" unicode="š"/>
			<glyph d="M16 708H505L495 671H275V0H235V671H6ZM248 -45H290L225 -230H194Z" horiz-adv-x="511" unicode="Ţ"/>
			<glyph d="M133 598V463H266L256 431H133V110Q133 65 152 44T203 24Q238 24 280 47L286 15Q267 4 242 -3T194 -10Q150 -10 122 19T95 103V431H5L15 463H94V577ZM185 -45H227L162 -230H131Z" horiz-adv-x="301" unicode="ţ"/>
			<glyph d="M16 708H505L495 671H275V0H235V671H6ZM147 908H185L276 784L366 908H404L299 764H253Z" horiz-adv-x="511" unicode="Ť"/>
			<glyph d="M133 598V463H266L256 431H133V110Q133 65 152 44T203 24Q238 24 280 47L286 15Q267 4 242 -3T194 -10Q150 -10 122 19T95 103V431H5L15 463H94V577ZM283 731H325L260 546H229Z" horiz-adv-x="321" unicode="ť"/>
			<glyph d="M16 708H505L495 671H275V542H444V513H275V0H235V513H64V542H235V671H6Z" horiz-adv-x="511" unicode="Ŧ"/>
			<glyph d="M142 598V463H275L265 431H142V288L263 286L261 260H142V110Q142 65 161 44T212 24Q247 24 289 47L295 15Q276 4 251 -3T203 -10Q159 -10 131 19T104 103V260L33 262L38 288H104V431H14L24 463H103V577Z" horiz-adv-x="310" unicode="ŧ"/>
			<glyph d="M93 708H134V272Q134 167 184 92T363 17Q490 17 541 92T592 272V708H632V267Q632 142 568 61T363 -19Q221 -19 157 62T93 267ZM471 870H497Q492 832 474 811T428 790Q413 790 398 795T362 813Q339 827 326 832T300 837Q267 837 257 787H231Q236 824 254 846T299 869Q315 869 330 863T367 845Q391 831 403 826T428 821Q447 821 457 833T471 870Z" horiz-adv-x="725" unicode="Ũ"/>
			<glyph d="M91 463H130V193Q130 119 161 69T267 19Q314 19 352 44T413 119T436 236V463H475V112Q475 89 477 54T484 0L445 -1Q441 18 435 107Q415 52 366 19T261 -13Q173 -13 132 42T91 182ZM392 670H418Q413 632 395 611T349 590Q333 590 318 595T283 614Q260 628 247 633T221 638Q188 638 178 587H152Q157 624 175 646T220 669Q236 669 251 663T288 645Q312 631 324 626T349 621Q368 621 378 633T392 670Z" horiz-adv-x="576" unicode="ũ"/>
			<glyph d="M93 708H134V272Q134 167 184 92T363 17Q490 17 541 92T592 272V708H632V267Q632 142 568 61T363 -19Q221 -19 157 62T93 267ZM242 846H488V815H242Z" horiz-adv-x="725" unicode="Ū"/>
			<glyph d="M91 463H130V193Q130 119 161 69T267 19Q314 19 352 44T413 119T436 236V463H475V112Q475 89 477 54T484 0L445 -1Q441 18 435 107Q415 52 366 19T261 -13Q173 -13 132 42T91 182ZM159 646H405V615H159Z" horiz-adv-x="576" unicode="ū"/>
			<glyph d="M93 708H134V272Q134 167 184 92T363 17Q490 17 541 92T592 272V708H632V267Q632 142 568 61T363 -19Q221 -19 157 62T93 267ZM230 901H257Q266 855 294 830T362 805Q448 805 468 901H496Q488 840 452 806T362 773Q307 773 271 806T230 901Z" horiz-adv-x="725" unicode="Ŭ"/>
			<glyph d="M91 463H130V193Q130 119 161 69T267 19Q314 19 352 44T413 119T436 236V463H475V112Q475 89 477 54T484 0L445 -1Q441 18 435 107Q415 52 366 19T261 -13Q173 -13 132 42T91 182ZM149 701H176Q185 655 213 630T281 605Q367 605 387 701H415Q407 640 371 606T281 573Q226 573 190 606T149 701Z" horiz-adv-x="576" unicode="ŭ"/>
			<glyph d="M93 708H134V272Q134 167 184 92T363 17Q490 17 541 92T592 272V708H632V267Q632 142 568 61T363 -19Q221 -19 157 62T93 267ZM366 945Q405 945 433 917T462 850Q462 810 433 782T366 755Q326 755 297 782T269 850Q269 890 297 917T366 945ZM366 922Q336 922 315 901T294 850Q294 820 315 799T366 778Q396 778 416 799T437 850Q437 880 416 901T366 922Z" horiz-adv-x="725" unicode="Ů"/>
			<glyph d="M91 463H130V193Q130 119 161 69T267 19Q314 19 352 44T413 119T436 236V463H475V112Q475 89 477 54T484 0L445 -1Q441 18 435 107Q415 52 366 19T261 -13Q173 -13 132 42T91 182ZM283 746Q322 746 350 718T379 650Q379 610 350 582T283 555Q243 555 214 582T186 650Q186 690 214 718T283 746ZM283 722Q253 722 232 701T211 650Q211 620 232 599T283 579Q313 579 333 599T354 650Q354 680 333 701T283 722Z" horiz-adv-x="576" unicode="ů"/>
			<glyph d="M93 708H134V272Q134 167 184 92T363 17Q490 17 541 92T592 272V708H632V267Q632 142 568 61T363 -19Q221 -19 157 62T93 267ZM381 908H431L312 763H278ZM506 908H556L438 763H404Z" horiz-adv-x="725" unicode="Ű"/>
			<glyph d="M91 463H130V193Q130 119 161 69T267 19Q314 19 352 44T413 119T436 236V463H475V112Q475 89 477 54T484 0L445 -1Q441 18 435 107Q415 52 366 19T261 -13Q173 -13 132 42T91 182ZM279 708H329L210 563H176ZM404 708H454L336 563H302Z" horiz-adv-x="576" unicode="ű"/>
			<glyph d="M93 708H134V272Q134 167 184 92T363 17Q490 17 541 92T592 272V708H632V267Q632 153 577 74T403 -17Q365 -55 348 -81T332 -135Q332 -161 349 -177T392 -193Q410 -193 426 -185T454 -166L468 -190Q452 -205 429 -214T383 -223Q347 -223 322 -200T297 -141Q297 -110 316 -81T368 -19H363Q221 -19 157 62T93 267Z" horiz-adv-x="725" unicode="Ų"/>
			<glyph d="M91 463H130V193Q130 119 161 69T267 19Q314 19 352 44T413 119T436 236V463H475V112Q475 89 477 54T484 0H480Q432 -47 412 -76T392 -135Q392 -161 408 -177T451 -193Q469 -193 486 -185T514 -166L528 -190Q511 -205 488 -214T443 -223Q406 -223 381 -200T356 -141Q356 -105 379 -73T447 -1H445Q441 18 435 107Q415 52 366 19T261 -13Q173 -13 132 42T91 182Z" horiz-adv-x="576" unicode="ų"/>
			<glyph d="M23 708H66L259 48H262L453 708H506L702 48H704L897 708H939L728 0H676L481 659H479L286 0H234ZM457 908H503L608 764H570L480 888L389 764H351Z" horiz-adv-x="962" unicode="Ŵ"/>
			<glyph d="M31 463H72L194 45H196L335 463H380L521 45H523L644 463H685L546 0H500L358 416H356L216 0H170ZM335 708H381L486 564H448L358 688L267 564H229Z" horiz-adv-x="717" unicode="ŵ"/>
			<glyph d="M9 708H59L281 344L504 708H550L301 308V0H260V308ZM259 908H305L410 764H372L282 888L191 764H153Z" horiz-adv-x="561" unicode="Ŷ"/>
			<glyph d="M21 463H65L235 40L386 463H428L207 -135Q186 -191 148 -215T52 -240L43 -204Q96 -203 126 -184T174 -118L215 -6ZM208 708H254L359 564H321L231 688L140 564H102Z" horiz-adv-x="450" unicode="ŷ"/>
			<glyph d="M9 708H59L281 344L504 708H550L301 308V0H260V308ZM199 889Q213 889 222 879T232 855Q232 840 222 830T199 821Q185 821 175 830T166 855Q166 869 176 879T199 889ZM366 889Q380 889 389 879T399 855Q399 840 389 830T366 821Q352 821 342 830T333 855Q333 869 343 879T366 889Z" horiz-adv-x="561" unicode="Ÿ"/>
			<glyph d="M69 708H529V667L92 37H560L550 0H47V40L486 671H69ZM369 908H418L301 764H267Z" horiz-adv-x="588" unicode="Ź"/>
			<glyph d="M59 463H385V431L90 33H404L396 0H43V31L340 431H49ZM278 708H328L210 564H176Z" horiz-adv-x="441" unicode="ź"/>
			<glyph d="M69 708H529V667L92 37H560L550 0H47V40L486 671H69ZM300 889Q312 889 322 879T332 856Q332 841 322 831T300 822Q287 822 277 831T267 856Q267 869 277 879T300 889Z" horiz-adv-x="588" unicode="Ż"/>
			<glyph d="M59 463H385V431L90 33H404L396 0H43V31L340 431H49ZM224 689Q236 689 246 679T256 656Q256 641 246 631T224 622Q211 622 201 631T191 656Q191 670 201 679T224 689Z" horiz-adv-x="441" unicode="ż"/>
			<glyph d="M69 708H529V667L92 37H560L550 0H47V40L486 671H69ZM170 908H208L299 784L389 908H427L322 764H276Z" horiz-adv-x="588" unicode="Ž"/>
			<glyph d="M59 463H385V431L90 33H404L396 0H43V31L340 431H49ZM92 708H130L221 584L311 708H349L244 564H198Z" horiz-adv-x="441" unicode="ž"/>
			<glyph d="M426 720Q474 720 502 698L483 669Q458 686 428 686Q348 686 328 573L299 412H425L414 381H293L221 -9Q209 -72 179 -107T90 -142Q49 -142 24 -128L40 -96Q64 -108 90 -108Q136 -108 156 -76T188 14L253 381H143L153 412H260L288 574Q300 640 331 680T426 720Z" horiz-adv-x="568" unicode="ƒ"/>
			<glyph d="M475 708H867L857 671H540V385H833L823 350H540V37H882L872 0H500V278H244L63 0H17ZM495 671L265 313H500V671ZM684 908H733L616 764H582Z" horiz-adv-x="940" unicode="Ǽ"/>
			<glyph d="M258 477Q327 477 368 443T419 354Q446 411 493 444T603 477Q664 477 710 448T781 369T807 252V228H429Q429 175 449 127T510 50T609 21Q655 21 698 37T774 80L781 44Q750 20 705 3T608 -13Q539 -13 488 24T414 128Q400 64 350 25T224 -13Q158 -13 110 19T62 117Q62 199 140 230T332 261H392V297Q392 369 356 406T255 444Q170 444 103 384L90 418Q121 446 166 461T258 477ZM603 444Q548 444 509 414T450 342T430 261H769Q767 343 721 393T603 444ZM345 229Q235 229 168 206T102 117Q102 65 139 42T229 19Q312 19 352 67T392 188V229ZM510 708H560L442 564H408Z" horiz-adv-x="867" unicode="ǽ"/>
			<glyph d="M727 728L749 707L680 628Q733 578 761 507T790 354Q790 247 742 162T611 29T424 -19Q354 -19 292 3T183 66L113 -14L91 7L161 87Q112 136 85 204T58 354Q58 461 105 546T236 679T424 727Q490 727 549 706T657 648ZM424 691Q329 691 255 646T140 524T100 354Q100 285 122 223T188 117L631 619Q590 653 537 672T424 691ZM653 597L210 95Q298 17 424 17Q519 17 593 62T707 184T747 354Q747 426 723 488T653 597ZM487 908H536L419 764H385Z" horiz-adv-x="865" unicode="Ǿ"/>
			<glyph d="M526 482L547 462L485 400Q515 369 531 326T548 232Q548 162 517 106T430 18T303 -13Q253 -13 210 3T137 50L70 -18L49 2L117 69Q60 136 60 232Q60 303 91 358T177 445T303 477Q396 477 465 421ZM303 445Q241 445 195 416T124 339T99 233Q99 152 142 95L440 395Q415 419 379 432T303 445ZM459 374L161 74Q216 19 302 19Q364 19 410 47T482 124T508 232Q508 274 495 311T459 374ZM370 708H420L302 564H268Z" horiz-adv-x="608" unicode="ǿ"/>
			<glyph d="M300 727Q351 727 401 710T487 667L475 627Q444 654 397 673T300 692Q254 692 212 674T145 622T119 539Q119 491 142 460T201 411T296 373Q365 349 405 329T473 272T501 176Q501 114 470 70T389 3T280 -19Q222 -19 162 2T69 56L79 96Q116 59 170 38T280 17Q328 17 369 35T435 89T460 174Q460 222 436 252T378 298T282 337Q216 360 175 381T107 440T79 538Q79 598 110 640T191 705T300 727ZM281 -45H323L258 -230H227Z" horiz-adv-x="569" unicode="Ș"/>
			<glyph d="M216 477Q257 477 295 462T357 429L338 397Q314 417 282 430T215 444Q168 444 137 422T106 357Q106 319 134 298T230 253Q305 228 338 197T372 117Q372 77 350 48T295 3T222 -12Q172 -12 129 2T59 40L68 78Q130 21 224 21Q268 21 301 46T334 117Q334 155 302 178T200 225Q131 248 99 276T68 356Q68 413 112 445T216 477ZM203 -45H245L180 -230H149Z" horiz-adv-x="425" unicode="ș"/>
			<glyph d="M16 708H505L495 671H275V0H235V671H6ZM245 -45H287L222 -230H191Z" horiz-adv-x="511" unicode="Ț"/>
			<glyph d="M133 598V463H266L256 431H133V110Q133 65 152 44T203 24Q238 24 280 47L286 15Q267 4 242 -3T194 -10Q150 -10 122 19T95 103V431H5L15 463H94V577ZM185 -45H227L162 -230H131Z" horiz-adv-x="310" unicode="ț"/>
			<glyph d="M98 463H137V-94Q137 -167 111 -204T17 -241Q-2 -241 -20 -236L-14 -203Q3 -208 16 -208Q67 -208 82 -178T98 -92Z" horiz-adv-x="235" unicode="ȷ"/>
			<glyph d="M98 708H144L249 564H211L121 688L30 564H-8Z" horiz-adv-x="241" unicode="ˆ"/>
			<glyph d="M-8 708H30L121 584L211 708H249L144 564H98Z" horiz-adv-x="241" unicode="ˇ"/>
			<glyph d="M-2 846H244V815H-2Z" horiz-adv-x="241" unicode="ˉ"/>
			<glyph d="M-12 701H15Q24 655 52 630T120 605Q206 605 226 701H254Q246 640 210 606T120 573Q65 573 29 606T-12 701Z" horiz-adv-x="241" unicode="˘"/>
			<glyph d="M121 689Q133 689 143 679T153 656Q153 641 143 631T121 622Q108 622 98 631T88 656Q88 670 98 679T121 689Z" horiz-adv-x="241" unicode="˙"/>
			<glyph d="M121 746Q160 746 188 718T217 650Q217 610 188 582T121 555Q81 555 52 582T24 650Q24 690 52 718T121 746ZM121 722Q91 722 70 701T49 650Q49 620 70 599T121 579Q151 579 171 599T192 650Q192 680 171 701T121 722Z" horiz-adv-x="241" unicode="˚"/>
			<glyph d="M128 0H160Q112 -47 92 -76T72 -135Q72 -161 89 -177T132 -193Q149 -193 166 -185T194 -166L208 -190Q192 -205 169 -214T123 -223Q86 -223 61 -200T36 -141Q36 -105 60 -72T128 0Z" horiz-adv-x="241" unicode="˛"/>
			<glyph d="M228 670H254Q249 632 231 611T185 590Q169 590 154 595T119 614Q96 628 83 633T57 638Q24 638 14 587H-12Q-7 624 11 646T56 669Q72 669 87 663T124 645Q148 631 160 626T185 621Q204 621 214 633T228 670Z" horiz-adv-x="241" unicode="˜"/>
			<glyph d="M116 708H166L47 563H13ZM241 708H291L173 563H139Z" horiz-adv-x="241" unicode="˝"/>
			<glyph d="M-121 -45H-79L-144 -230H-175Z" horiz-adv-x="0" unicode="̦"/>
			<glyph d="M136 728H183L109 544H80Z" horiz-adv-x="214" unicode="ʹ"/>
			<glyph d="M155 20H183L128 -164H80Z" horiz-adv-x="214" unicode="͵"/>
			<glyph d="M269 714H299L564 14V0H4V15ZM284 670L272 636Q258 594 245 562L46 32H522L325 556Q314 584 284 670Z" horiz-adv-x="603" unicode="Δ"/>
			<glyph d="M384 725Q480 725 552 685T665 568T705 386Q705 257 653 173T505 34H730V0H458V33Q562 93 613 175T665 385Q665 480 629 548T530 653T384 689Q304 689 240 651T141 545T106 385Q106 258 158 178T312 33V0H41V34H267Q171 93 118 176T66 386Q66 485 106 562T219 682T384 725Z" horiz-adv-x="739" unicode="Ω"/>
			<glyph d="M89 463H124V186Q124 108 165 67T283 27Q375 27 416 78T457 229V463H492V0H460L457 94H455Q407 -10 283 -10Q224 -10 184 11T126 70H124V-20V-240H89Z" horiz-adv-x="582" unicode="μ"/>
			<glyph d="M98 463H563V432H452V105Q452 63 467 41T516 20Q540 20 557 27V-3Q538 -10 510 -10Q467 -10 442 17T417 94V432H156V0H119V432H12V460Z" horiz-adv-x="589" unicode="π"/>
			<glyph d="M23 708H66L259 48H262L453 708H506L702 48H704L897 708H939L728 0H676L481 659H479L286 0H234ZM347 908H397L499 764H465Z" horiz-adv-x="962" unicode="Ẁ"/>
			<glyph d="M31 463H72L194 45H196L335 463H380L521 45H523L644 463H685L546 0H500L358 416H356L216 0H170ZM221 708H271L373 564H339Z" horiz-adv-x="717" unicode="ẁ"/>
			<glyph d="M23 708H66L259 48H262L453 708H506L702 48H704L897 708H939L728 0H676L481 659H479L286 0H234ZM564 908H613L496 764H462Z" horiz-adv-x="962" unicode="Ẃ"/>
			<glyph d="M31 463H72L194 45H196L335 463H380L521 45H523L644 463H685L546 0H500L358 416H356L216 0H170ZM446 708H496L378 564H344Z" horiz-adv-x="717" unicode="ẃ"/>
			<glyph d="M23 708H66L259 48H262L453 708H506L702 48H704L897 708H939L728 0H676L481 659H479L286 0H234ZM397 889Q411 889 420 879T430 855Q430 840 420 830T397 821Q383 821 373 830T364 855Q364 869 374 879T397 889ZM564 889Q578 889 587 879T597 855Q597 840 587 830T564 821Q550 821 540 830T531 855Q531 869 541 879T564 889Z" horiz-adv-x="962" unicode="Ẅ"/>
			<glyph d="M31 463H72L194 45H196L335 463H380L521 45H523L644 463H685L546 0H500L358 416H356L216 0H170ZM274 689Q288 689 297 679T307 655Q307 640 297 630T274 621Q260 621 250 630T241 655Q241 669 250 679T274 689ZM441 689Q455 689 464 679T474 655Q474 640 464 630T441 621Q427 621 417 630T408 655Q408 669 417 679T441 689Z" horiz-adv-x="717" unicode="ẅ"/>
			<glyph d="M9 708H59L281 344L504 708H550L301 308V0H260V308ZM158 908H208L310 764H276Z" horiz-adv-x="561" unicode="Ỳ"/>
			<glyph d="M21 463H65L235 40L386 463H428L207 -135Q186 -191 148 -215T52 -240L43 -204Q96 -203 126 -184T174 -118L215 -6ZM106 708H156L258 564H224Z" horiz-adv-x="450" unicode="ỳ"/>
			<glyph d="M56 267H251V234H56Z" horiz-adv-x="306" unicode="‐"/>
			<glyph d="M30 267H370V234H30Z" horiz-adv-x="400" unicode="–"/>
			<glyph d="M30 267H570V234H30Z" horiz-adv-x="600" unicode="—"/>
			<glyph d="M30 267H570V234H30Z" horiz-adv-x="600" unicode="―"/>
			<glyph d="M141 708L158 698Q137 676 119 643T99 576H101Q115 576 124 566T134 541Q134 526 124 515T101 505Q86 505 76 517T66 552Q66 627 141 708Z" horiz-adv-x="247" unicode="‘"/>
			<glyph d="M124 708Q139 708 148 696T158 662Q158 619 138 580T84 505L66 515Q87 539 104 571T125 637H124Q110 637 100 647T90 673Q90 687 100 697T124 708Z" horiz-adv-x="247" unicode="’"/>
			<glyph d="M124 94Q138 94 148 82T158 48Q158 5 138 -33T84 -108L66 -99Q87 -75 104 -43T125 23H124Q110 23 100 33T90 59Q90 73 100 83T124 94Z" horiz-adv-x="247" unicode="‚"/>
			<glyph d="M140 708L158 698Q137 676 119 643T99 576H100Q114 576 124 566T134 541Q134 526 124 515T100 505Q86 505 76 517T66 552Q66 594 86 632T140 708ZM291 708L309 698Q288 675 270 642T250 576H251Q265 576 275 566T285 541Q285 526 275 515T251 505Q236 505 226 517T216 552Q216 594 236 632T291 708Z" horiz-adv-x="398" unicode="“"/>
			<glyph d="M124 708Q139 708 148 696T158 662Q158 619 138 580T84 505L66 515Q87 539 104 571T125 637H124Q110 637 100 647T90 673Q90 687 100 697T124 708ZM274 708Q289 708 299 696T309 662Q309 619 288 580T234 505L217 515Q238 539 255 571T276 637H274Q260 637 250 647T241 673Q241 687 250 697T274 708Z" horiz-adv-x="398" unicode="”"/>
			<glyph d="M124 94Q138 94 148 82T158 48Q158 5 138 -33T84 -108L66 -99Q87 -75 104 -43T125 23H124Q110 23 100 33T90 59Q90 73 100 83T124 94ZM274 94Q289 94 299 82T309 48Q309 5 288 -32T234 -108L216 -99Q237 -76 254 -43T275 23H274Q260 23 250 33T241 59Q241 73 250 83T274 94Z" horiz-adv-x="398" unicode="„"/>
			<glyph d="M248 708H286V502H483V468H286V-126H248V468H50V502H248Z" horiz-adv-x="533" unicode="†"/>
			<glyph d="M248 708H286V507H480V471H286V110H480V75H286V-126H248V75H53V110H248V471H53V507H248Z" horiz-adv-x="533" unicode="‡"/>
			<glyph d="M250 531Q298 531 338 507T403 442T427 354Q427 306 403 265T338 201T250 177Q202 177 161 201T97 265T73 354Q73 402 97 442T161 507T250 531Z" horiz-adv-x="500" unicode="•"/>
			<glyph d="M166 66Q180 66 190 55T201 30Q201 15 190 4T166 -6Q152 -6 141 4T131 30Q131 44 141 55T166 66ZM501 66Q515 66 525 55T535 30Q535 15 525 4T501 -6Q486 -6 476 4T466 30Q466 45 476 55T501 66ZM834 66Q849 66 859 55T869 30Q869 15 858 4T834 -6Q820 -6 810 4T800 30Q800 44 810 55T834 66Z" horiz-adv-x="1000" unicode="…"/>
			<glyph d="M529 737L557 721L116 -28L87 -12ZM186 718Q226 718 260 698T314 643T334 567Q334 526 314 492T260 438T186 419Q145 419 111 438T57 492T37 567Q37 609 57 643T111 698T186 718ZM186 686Q138 686 105 652T72 567Q72 518 105 484T186 450Q234 450 267 484T301 567Q301 618 267 652T186 686ZM479 292Q519 292 553 272T608 217T628 142Q628 101 608 66T553 12T479 -7Q439 -7 405 12T351 66T331 142Q331 183 351 217T405 272T479 292ZM825 292Q865 292 899 272T953 217T974 142Q974 101 954 67T899 13T825 -7Q784 -7 750 12T696 66T676 142Q676 183 696 217T750 272T825 292ZM479 261Q431 261 398 226T365 142Q365 92 398 58T479 25Q527 25 561 58T595 142Q595 192 561 226T479 261ZM825 261Q777 261 744 226T711 142Q711 92 744 58T825 25Q873 25 906 58T940 142Q940 192 906 226T825 261Z" horiz-adv-x="1006" unicode="‰"/>
			<glyph d="M202 439L229 420L115 238L230 57L203 37L74 238Z" horiz-adv-x="315" unicode="‹"/>
			<glyph d="M112 440L241 238L113 38L86 57L200 238L85 420Z" horiz-adv-x="315" unicode="›"/>
			<glyph d="M235 724Q315 724 368 679T421 556Q421 518 408 488T378 437T325 382Q292 350 276 327T254 281T249 222V199H210V551H247L246 348Q268 376 286 394Q321 428 338 448T368 496T380 557Q380 617 338 652T233 688Q176 688 131 665T60 609L41 642Q72 677 120 700T235 724ZM234 66Q247 66 257 55T267 29Q267 15 257 4T234 -6Q219 -6 209 4T199 29Q199 45 209 55T234 66Z" horiz-adv-x="477" unicode="‽"/>
			<glyph d="M245 737L273 721L-169 -28L-197 -12Z" horiz-adv-x="100" unicode="⁄"/>
			<glyph d="M179 883Q254 883 284 819T315 663Q315 572 284 507T179 443Q103 443 73 507T43 663Q43 756 73 819T179 883ZM179 853Q120 853 99 794T78 663Q78 591 99 532T179 473Q237 473 258 532T280 663Q280 735 258 794T179 853Z" unicode="⁰"/>
			<glyph d="M214 873H258V587H323L313 556H258V453H225V556H33V589ZM222 830L68 587H225V830Z" unicode="⁴"/>
			<glyph d="M83 873H290L280 843H113L110 706Q143 717 173 717Q234 717 271 679T308 582Q308 518 268 480T172 443Q84 443 45 492L53 526Q96 473 172 473Q214 473 244 502T274 581Q274 629 244 658T165 688Q124 688 79 662Z" unicode="⁵"/>
			<glyph d="M223 871Q264 871 288 858L280 832Q250 844 223 844Q156 844 118 790T77 639H79Q97 667 123 682T184 698Q239 698 275 662T312 570Q312 514 277 478T184 443Q122 443 83 488T45 619Q45 739 91 805T223 871ZM184 669Q139 669 110 644T82 582Q82 555 94 529T130 488T185 472Q228 472 253 499T278 570Q278 613 251 641T184 669Z" unicode="⁶"/>
			<glyph d="M62 873H303V845L133 453H95L267 843H52Z" unicode="⁷"/>
			<glyph d="M180 883Q229 883 262 852T296 774Q296 744 279 718T233 678V677Q270 664 290 633T311 566Q311 511 273 477T180 443Q123 443 85 477T47 566Q47 603 68 633T126 677V678Q95 692 78 718T62 774Q62 822 96 852T180 883ZM180 853Q145 853 121 830T97 774Q97 739 120 715T180 692Q214 692 238 716T262 774Q262 808 238 830T180 853ZM180 662Q138 662 109 635T81 567Q81 527 108 500T180 473Q223 473 250 500T278 567Q278 608 249 635T180 662Z" unicode="⁸"/>
			<glyph d="M173 871Q234 871 273 826T312 695Q312 575 265 509T134 443Q92 443 68 456L76 482Q106 470 134 470Q201 470 238 524T280 675H278Q242 617 172 617Q118 617 81 653T45 744Q45 800 80 835T173 871ZM172 842Q129 842 104 814T79 744Q79 701 105 673T173 645Q217 645 246 670T275 732Q275 759 262 784T226 826T172 842Z" unicode="⁹"/>
			<glyph d="M169 651H189V518H320V497H189V364H169V497H37V518H169Z" unicode="⁺"/>
			<glyph d="M37 517H320V498H37Z" unicode="⁻"/>
			<glyph d="M37 566H320V546H37ZM37 469H320V449H37Z" horiz-adv-x="358" unicode="⁼"/>
			<glyph d="M146 829L177 811Q134 750 107 664T81 498Q81 418 107 333T177 186L146 169Q98 235 71 322T44 498Q44 588 71 675T146 829Z" horiz-adv-x="251" unicode="⁽"/>
			<glyph d="M86 846Q132 778 159 690T186 515Q186 427 159 339T86 185L55 203Q98 263 124 348T150 515Q150 596 124 682T55 828Z" horiz-adv-x="248" unicode="⁾"/>
			<glyph d="M179 293Q254 293 284 229T315 73Q315 -18 284 -82T179 -147Q103 -147 73 -83T43 73Q43 166 73 229T179 293ZM179 263Q120 263 99 204T78 73Q78 1 99 -58T179 -117Q237 -117 258 -58T280 73Q280 145 258 204T179 263Z" unicode="₀"/>
			<glyph d="M178 284H211V-137H175V243L81 175L68 207Z" unicode="₁"/>
			<glyph d="M173 293Q228 293 260 262T293 184Q293 146 274 114T213 38L78 -107H305L294 -137H40V-105L194 64Q229 102 243 128T257 181Q257 219 233 241T172 263Q112 263 66 206L49 235Q96 293 173 293Z" unicode="₂"/>
			<glyph d="M167 293Q221 293 252 264T283 185Q283 148 261 121T202 85Q246 78 271 48T296 -24Q296 -82 259 -114T167 -147Q127 -147 95 -134T47 -100L59 -70Q74 -90 105 -103T166 -117Q211 -117 237 -92T263 -24Q263 20 229 44T150 68H130V98H149Q196 98 222 123T249 186Q249 223 225 243T166 264Q137 264 110 251T68 221L55 247Q75 268 104 280T167 293Z" unicode="₃"/>
			<glyph d="M214 283H258V-3H323L313 -34H258V-137H225V-34H33V-1ZM222 240L68 -3H225V240Z" unicode="₄"/>
			<glyph d="M83 283H290L280 253H113L110 116Q143 127 173 127Q234 127 271 89T308 -8Q308 -72 268 -109T172 -147Q84 -147 45 -98L53 -64Q96 -117 172 -117Q214 -117 244 -88T274 -9Q274 39 244 68T165 98Q124 98 79 72Z" unicode="₅"/>
			<glyph d="M223 281Q264 281 288 268L280 242Q250 254 223 254Q156 254 118 200T77 49H79Q97 77 123 92T184 108Q239 108 275 72T312 -20Q312 -76 277 -111T184 -147Q122 -147 83 -102T45 29Q45 149 91 215T223 281ZM184 79Q139 79 110 54T82 -8Q82 -35 94 -60T130 -102T185 -118Q228 -118 253 -90T278 -20Q278 23 251 51T184 79Z" unicode="₆"/>
			<glyph d="M62 283H303V255L133 -137H95L267 253H52Z" unicode="₇"/>
			<glyph d="M180 293Q229 293 262 262T296 184Q296 154 279 128T233 88V87Q270 74 290 43T311 -24Q311 -79 273 -113T180 -147Q123 -147 85 -113T47 -24Q47 13 68 43T126 87V88Q95 102 78 128T62 184Q62 232 96 262T180 293ZM180 263Q145 263 121 240T97 184Q97 149 120 125T180 102Q214 102 238 126T262 184Q262 218 238 240T180 263ZM180 72Q138 72 109 45T81 -23Q81 -63 108 -90T180 -117Q223 -117 250 -90T278 -23Q278 18 249 45T180 72Z" unicode="₈"/>
			<glyph d="M173 281Q234 281 273 236T312 105Q312 -15 265 -81T134 -147Q92 -147 68 -134L76 -108Q106 -120 134 -120Q201 -120 238 -66T280 85H278Q242 27 172 27Q118 27 81 63T45 154Q45 210 80 245T173 281ZM172 252Q129 252 104 224T79 154Q79 111 105 83T173 55Q217 55 246 80T275 142Q275 169 262 194T226 236T172 252Z" unicode="₉"/>
			<glyph d="M169 364H189V231H320V210H189V77H169V210H37V231H169Z" unicode="₊"/>
			<glyph d="M37 230H320V211H37Z" unicode="₋"/>
			<glyph d="M38 280H321V260H38ZM38 183H321V163H38Z" horiz-adv-x="358" unicode="₌"/>
			<glyph d="M146 532L177 514Q134 453 107 367T81 201Q81 121 107 36T177 -111L146 -128Q98 -62 71 25T44 201Q44 291 71 378T146 532Z" horiz-adv-x="251" unicode="₍"/>
			<glyph d="M86 552Q132 484 159 396T186 221Q186 133 159 45T86 -109L55 -91Q98 -31 124 54T150 221Q150 302 124 388T55 534Z" horiz-adv-x="248" unicode="₎"/>
			<glyph d="M380 727Q420 727 458 718T525 695L510 660Q454 692 378 692Q285 692 219 629T132 453H457L447 421H127Q122 388 122 348Q122 313 125 287H406L396 255H128Q139 183 174 129T261 45T375 16Q461 16 520 60L537 28Q473 -19 367 -19Q292 -19 232 17T136 116T88 255H18L31 287H83Q80 311 80 348Q80 394 84 421H20L31 453H90Q117 585 194 656T380 727Z" horiz-adv-x="568" unicode="€"/>
			<glyph d="M610 737L639 720L196 -28L167 -12ZM201 721Q237 721 268 711T322 682L307 651Q262 689 201 689Q146 689 113 651T81 556Q81 500 115 462T205 424Q261 424 305 461L319 432Q297 413 268 402T205 392Q134 392 89 438T44 556Q44 628 87 674T201 721ZM605 316Q677 316 721 270T766 153Q766 80 721 34T605 -12Q534 -12 489 34T445 153Q445 225 489 270T605 316ZM605 285Q549 285 515 247T481 153Q481 95 515 57T605 19Q663 19 696 57T730 153Q730 210 696 247T605 285Z" horiz-adv-x="811" unicode="℅"/>
			<glyph d="M281 721Q323 721 348 689T373 602Q373 531 331 449T211 279V111Q211 59 235 37T293 16Q315 16 338 25T381 55H383L398 35Q348 -14 286 -14Q238 -14 207 15T176 106V252L116 183H114L98 204L175 287V555Q175 635 205 678T281 721ZM281 692Q252 692 231 659T211 560V315Q273 388 307 463T342 599Q342 641 324 666T281 692Z" horiz-adv-x="500" unicode="ℓ"/>
			<glyph d="M401 730Q504 730 591 679T729 542T780 353Q780 250 729 164T591 28T401 -22Q298 -22 210 28T71 164T20 353Q20 456 71 542T210 679T401 730ZM401 696Q307 696 227 650T101 525T55 353Q55 260 101 181T227 57T401 12Q495 12 574 57T699 181T745 353Q745 447 699 525T574 650T401 696ZM291 567H440Q507 567 550 534T593 436Q593 374 552 336T445 299H328V128H291ZM328 535V333H445Q494 333 524 360T555 436Q555 484 523 509T442 535Z" horiz-adv-x="800" unicode="℗"/>
			<glyph d="M95 708H398L388 677H259V296H223V677H85ZM492 708H548L697 352L847 708H903V296H868V670H866L708 296H686L529 670H527V296H492Z" horiz-adv-x="1000" unicode="™"/>
			<glyph d="M384 725Q480 725 552 685T665 568T705 386Q705 257 653 173T505 34H730V0H458V33Q562 93 613 175T665 385Q665 480 629 548T530 653T384 689Q304 689 240 651T141 545T106 385Q106 258 158 178T312 33V0H41V34H267Q171 93 118 176T66 386Q66 485 106 562T219 682T384 725Z" horiz-adv-x="739" unicode="Ω"/>
			<glyph d="M302 535Q378 535 436 500T528 402T561 259H157V78Q216 19 302 19Q365 19 411 47T495 139L530 118Q484 46 432 14T302 -17Q225 -17 166 19T76 119T44 259Q44 336 76 399T166 498T302 535ZM301 500Q217 500 157 440V295H448V440Q385 500 301 500Z" horiz-adv-x="603" unicode="℮"/>
			<glyph d="M602 737L631 721L189 -28L161 -12ZM173 708H206V287H170V667L76 599L63 630ZM611 430Q665 430 695 401T726 322Q726 285 704 258T646 222Q690 215 715 185T740 113Q740 55 703 22T611 -10Q571 -10 539 3T491 37L503 67Q518 47 549 33T610 20Q655 20 681 45T707 113Q707 157 673 181T594 205H574V235H593Q640 235 666 260T693 323Q693 360 669 380T610 401Q581 401 554 388T512 358L499 384Q519 405 548 417T611 430Z" horiz-adv-x="815" unicode="⅓"/>
			<glyph d="M602 737L631 721L189 -28L161 -12ZM173 717Q228 717 260 686T293 608Q293 570 274 538T213 462L78 317H304L294 287H40V319L194 488Q229 526 243 552T257 604Q257 643 233 665T172 687Q112 687 66 630L49 659Q96 717 173 717ZM611 430Q665 430 695 401T726 322Q726 285 704 258T646 222Q690 215 715 185T740 113Q740 55 703 22T611 -10Q571 -10 539 3T491 37L503 67Q518 47 549 33T610 20Q655 20 681 45T707 113Q707 157 673 181T594 205H574V235H593Q640 235 666 260T693 323Q693 360 669 380T610 401Q581 401 554 388T512 358L499 384Q519 405 548 417T611 430Z" horiz-adv-x="808" unicode="⅔"/>
			<glyph d="M602 737L631 721L189 -28L161 -12ZM173 708H206V287H170V667L76 599L63 630ZM622 430Q671 430 704 399T738 321Q738 291 721 265T675 225V224Q712 211 732 180T753 113Q753 58 715 24T622 -10Q565 -10 527 24T489 113Q489 150 510 180T568 224V225Q537 239 520 265T504 321Q504 369 538 399T622 430ZM622 400Q587 400 563 377T539 321Q539 286 562 262T622 239Q656 239 680 263T704 321Q704 355 680 377T622 400ZM622 209Q580 209 551 182T523 114Q523 74 550 47T622 20Q665 20 692 47T720 114Q720 155 691 182T622 209Z" horiz-adv-x="821" unicode="⅛"/>
			<glyph d="M601 737L630 721L188 -28L160 -12ZM167 718Q221 718 251 689T282 610Q282 573 260 546T202 510Q246 503 271 473T296 401Q296 343 259 310T167 278Q127 278 95 291T47 325L59 355Q74 335 105 321T166 308Q211 308 237 333T263 401Q263 445 229 469T150 493H130V523H149Q196 523 222 548T249 611Q249 648 225 668T166 689Q137 689 110 676T68 646L55 672Q75 693 104 705T167 718ZM620 430Q669 430 702 399T736 321Q736 291 719 265T673 225V224Q710 211 730 180T751 113Q751 58 713 24T620 -10Q563 -10 525 24T487 113Q487 150 508 180T566 224V225Q535 239 518 265T502 321Q502 369 536 399T620 430ZM620 400Q585 400 561 377T537 321Q537 286 560 262T620 239Q654 239 678 263T702 321Q702 355 678 377T620 400ZM620 209Q578 209 549 182T521 114Q521 74 548 47T620 20Q663 20 690 47T718 114Q718 155 689 182T620 209Z" horiz-adv-x="819" unicode="⅜"/>
			<glyph d="M601 737L630 721L188 -28L160 -12ZM83 708H290L280 678H113L110 541Q143 552 173 552Q234 552 271 514T308 417Q308 353 268 315T172 278Q84 278 45 327L53 361Q96 308 172 308Q214 308 244 337T274 416Q274 464 244 493T165 523Q124 523 79 497ZM620 430Q669 430 702 399T736 321Q736 291 719 265T673 225V224Q710 211 730 180T751 113Q751 58 713 24T620 -10Q563 -10 525 24T487 113Q487 150 508 180T566 224V225Q535 239 518 265T502 321Q502 369 536 399T620 430ZM620 400Q585 400 561 377T537 321Q537 286 560 262T620 239Q654 239 678 263T702 321Q702 355 678 377T620 400ZM620 209Q578 209 549 182T521 114Q521 74 548 47T620 20Q663 20 690 47T718 114Q718 155 689 182T620 209Z" horiz-adv-x="819" unicode="⅝"/>
			<glyph d="M562 737L590 721L148 -28L120 -12ZM62 708H303V680L133 288H95L267 678H52ZM620 430Q669 430 702 399T736 321Q736 291 719 265T673 225V224Q710 211 730 180T751 113Q751 58 713 24T620 -10Q563 -10 525 24T487 113Q487 150 508 180T566 224V225Q535 239 518 265T502 321Q502 369 536 399T620 430ZM620 400Q585 400 561 377T537 321Q537 286 560 262T620 239Q654 239 678 263T702 321Q702 355 678 377T620 400ZM620 209Q578 209 549 182T521 114Q521 74 548 47T620 20Q663 20 690 47T718 114Q718 155 689 182T620 209Z" horiz-adv-x="819" unicode="⅞"/>
			<glyph d="M206 724Q325 724 381 623T437 365Q437 175 380 80T224 -15Q170 -15 127 15T61 95T38 207Q38 272 61 319T126 392T221 418Q275 418 322 389T399 314Q401 364 401 386Q401 474 378 543T311 651T208 690Q176 690 150 680T97 648L77 674Q107 700 138 712T206 724ZM225 384Q178 384 144 359T94 293T77 206Q77 161 94 117T144 46T225 18Q310 18 349 98T395 277Q363 325 319 354T225 384Z" horiz-adv-x="485" unicode="∂"/>
			<glyph d="M269 714H299L564 14V0H4V15ZM284 670L272 636Q258 594 245 562L46 32H522L325 556Q314 584 284 670Z" horiz-adv-x="603" unicode="∆"/>
			<glyph d="M85 786H623V-214H584V751H123V-214H85Z" horiz-adv-x="707" unicode="∏"/>
			<glyph d="M53 786H548V751H100L422 289L86 -179H559V-214H39V-180L374 289L53 751Z" horiz-adv-x="598" unicode="∑"/>
			<glyph d="M92 322H574V289H92Z" horiz-adv-x="666" unicode="−"/>
			<glyph d="M245 737L273 721L-169 -28L-197 -12Z" horiz-adv-x="100" unicode="∕"/>
			<glyph d="M124 309Q138 309 148 298T158 273Q158 259 148 248T124 238Q110 238 100 248T90 273Q90 288 100 298T124 309Z" horiz-adv-x="247" unicode="∙"/>
			<glyph d="M445 786H482L273 -215H229L63 144L6 116L-8 147L81 189L246 -170Z" horiz-adv-x="483" unicode="√"/>
			<glyph d="M189 388Q233 388 278 354T371 270Q419 322 463 355T552 388Q608 388 644 349T680 249Q680 188 644 149T553 110Q509 110 463 143T371 226Q322 174 278 142T190 110Q134 110 98 149T63 248Q63 309 98 348T189 388ZM553 356Q519 356 482 330T392 247Q448 191 483 166T554 142Q597 142 622 172T647 247Q647 293 622 324T553 356ZM189 355Q146 355 121 324T97 247Q97 203 121 172T190 142Q224 142 262 168T350 247Q298 303 261 329T189 355Z" horiz-adv-x="730" unicode="∞"/>
			<glyph d="M334 778Q356 778 372 768T388 741Q388 729 380 722T362 715Q353 715 348 719T337 733Q332 741 327 745T316 750Q291 750 279 698T268 573V64Q268 -30 262 -85T233 -173T163 -207Q141 -207 126 -198T112 -171Q112 -160 119 -153T137 -146Q149 -146 161 -164Q168 -173 171 -176T182 -180Q205 -180 217 -130T230 -11V463V531Q230 607 236 658T266 744T334 778Z" horiz-adv-x="539" unicode="∫"/>
			<glyph d="M542 413H569Q564 362 534 328T446 294Q417 294 386 302T300 330Q253 347 225 355T174 363Q90 363 77 279H49Q55 330 84 364T169 399Q199 399 232 390T318 362Q365 345 394 337T448 329Q493 329 514 352T542 413ZM542 230H569Q563 179 533 144T446 110Q416 110 381 120T299 148Q254 165 225 173T174 181Q91 181 77 95H49Q55 147 84 181T169 216Q200 216 235 206T319 178Q366 161 395 153T448 145Q526 145 542 230Z" horiz-adv-x="666" unicode="≈"/>
			<glyph d="M435 538L466 523L400 391H572V357H382L309 214H572V179H291L209 17L179 33L255 179H93V214H272L344 357H93V391H361Z" horiz-adv-x="666" unicode="≠"/>
			<glyph d="M572 545V509L131 313L572 118V82L94 295V332ZM94 36H572V2H94Z" horiz-adv-x="666" unicode="≤"/>
			<glyph d="M94 545L572 332V295L94 82V118L535 313L94 509ZM94 36H572V2H94Z" horiz-adv-x="666" unicode="≥"/>
			<glyph d="M276 747H314L481 356L314 -35H276L113 356ZM295 714L150 356L295 -2L441 356Z" horiz-adv-x="593" unicode="◊"/>
			<glyph d="M0 718H512V0H0ZM50 667V50H462V667ZM259 609Q313 609 348 573T383 478Q383 445 370 418T320 358Q294 334 284 320T273 292T271 234H225L223 251Q223 289 228 311T245 349T282 391Q313 422 322 438T332 474Q332 510 309 534T256 559Q223 559 201 536T174 464L124 472Q131 541 167 575T259 609ZM222 184H278V117H222Z" horiz-adv-x="512" unicode=""/>
			<glyph d="M251 768Q273 768 296 764T333 757L327 724Q289 735 251 735Q200 735 178 700T157 613V463H404V614Q404 693 441 730T538 768Q560 768 583 764T620 757L614 724Q576 735 538 735Q487 735 465 700T444 613V463H564L552 431H444V0H405V431H157V0H118V431H21L31 463H117V614Q117 693 154 730T251 768Z" horiz-adv-x="575" unicode="ﬀ"/>
			<glyph d="M250 768Q272 768 295 764T333 757L326 724Q287 735 251 735Q200 735 178 700T157 613V463H277L264 431H157V0H118V431H21L31 463H117V614Q117 693 154 730T250 768ZM396 689Q408 689 417 679T427 656Q427 641 418 631T396 622Q383 622 373 631T363 656Q363 670 373 679T396 689ZM376 463H415V0H376Z" horiz-adv-x="513" unicode="ﬁ"/>
			<glyph d="M281 768Q331 768 382 751L416 759V95Q416 64 425 50T457 27L443 -9Q414 -2 395 22T377 84V717Q328 735 281 735Q218 735 187 696T157 593V463H277L264 431H157V0H118V431H21L31 463H117V594Q117 683 163 725T281 768Z" horiz-adv-x="515" unicode="ﬂ"/>
			<glyph d="M251 768Q273 768 296 764T333 757L327 724Q289 735 251 735Q200 735 178 700T157 613V463H404V614Q404 693 441 730T537 768Q559 768 582 764T620 757L613 724Q574 735 538 735Q487 735 465 700T444 613V463H564L552 431H444V0H405V431H157V0H118V431H21L31 463H117V614Q117 693 154 730T251 768ZM684 689Q696 689 705 679T715 656Q715 641 706 631T684 622Q671 622 661 631T651 656Q651 670 661 679T684 689ZM664 463H703V0H664Z" horiz-adv-x="800" unicode="ﬃ"/>
			<glyph d="M251 768Q273 768 296 764T333 757L327 724Q289 735 251 735Q200 735 178 700T157 613V463H374V594Q374 683 420 725T537 768Q586 768 639 751L673 759V95Q673 64 682 50T714 27L700 -9Q671 -2 652 22T634 84V717Q585 735 538 735Q475 735 444 696T413 593V463H533L521 431H413V0H375V431H157V0H118V431H21L31 463H117V614Q117 693 154 730T251 768Z" horiz-adv-x="771" unicode="ﬄ"/>
		</font>
</defs>
</svg>
