<?xml version="1.0" encoding="UTF-8"?>
<svg height="100%" width="100%" xmlns="http://www.w3.org/2000/svg">
	<defs>
		<font horiz-adv-x="577" id="web">
			<font-face alphabetic="0" ascent="968" descent="-253" font-family="" panose-1="2 0 5 7 0 0 0 0 0 4"/>
			<missing-glyph d="M0 718H512V0H0ZM50 667V50H462V667ZM259 609Q313 609 348 573T383 478Q383 445 370 418T320 358Q294 334 284 320T273 292T271 234H225L223 251Q223 289 228 311T245 349T282 391Q313 422 322 438T332 474Q332 510 309 534T256 559Q223 559 201 536T174 464L124 472Q131 541 167 575T259 609ZM222 184H278V117H222Z" horiz-adv-x="512"/>
			<glyph d="" horiz-adv-x="250" unicode=" "/>
			<glyph d="M194 708H254L164 201H104ZM114 83Q132 83 143 72T154 42Q154 22 141 8T109 -6Q91 -6 79 5T68 35Q68 55 81 69T114 83Z" horiz-adv-x="290" unicode="!"/>
			<glyph d="M216 708H266L224 471H174ZM301 708H352L309 471H259Z" horiz-adv-x="418" unicode="&quot;"/>
			<glyph d="M281 708H326L257 483H403L472 708H518L448 483H549L542 441H434L380 269H484L476 227H368L298 0H253L322 227H176L107 0H62L131 227H27L34 269H144L198 441H92L100 483H211ZM243 441L190 269H335L389 441Z" horiz-adv-x="561" unicode="#"/>
			<glyph d="M357 792H392L381 726Q430 724 476 707T551 667L526 613Q502 637 459 655T372 676L321 386Q408 356 453 314T498 199Q498 136 467 87T381 10T250 -19L239 -84H205L216 -18Q161 -13 110 7T33 55L55 111Q84 79 129 58T225 33L279 342L273 344Q190 371 151 410T112 518Q112 579 143 625T228 697T346 726ZM337 675Q270 668 222 628T174 523Q174 473 202 446T289 397ZM311 331L259 33Q338 36 387 80T436 193Q436 245 404 276T311 331Z" horiz-adv-x="580" unicode="$"/>
			<glyph d="M701 738L735 716L165 -29L132 -8ZM278 717Q346 717 385 677T425 577Q425 525 401 481T336 411T240 385Q173 385 133 424T94 524Q94 576 117 620T183 690T278 717ZM274 675Q236 675 205 655T158 601T141 528Q141 484 167 455T243 427Q282 427 312 447T360 500T377 572Q377 616 350 645T274 675ZM638 323Q706 323 745 284T784 184Q784 132 761 87T696 17T601 -9Q533 -9 493 30T454 130Q454 182 477 226T542 297T638 323ZM634 282Q595 282 565 261T518 207T502 136Q502 91 528 62T604 34Q643 34 673 54T720 107T737 180Q737 224 710 253T634 282Z" horiz-adv-x="839" unicode="%"/>
			<glyph d="M371 726Q439 726 482 687T526 585Q526 518 479 469T331 379L476 191L603 374H672L510 153L632 0H558L473 110Q419 46 364 15T243 -16Q159 -16 102 29T46 162Q46 246 102 302T253 396Q190 477 190 547Q190 599 213 640T278 703T371 726ZM371 681Q339 681 310 665T263 620T245 551Q245 517 260 483T304 414Q388 448 429 486T470 581Q470 625 442 653T371 681ZM281 358Q106 291 106 166Q106 104 146 68T247 33Q303 33 350 62T441 149Z" horiz-adv-x="717" unicode="&amp;"/>
			<glyph d="M182 708H232L190 471H140Z" horiz-adv-x="265" unicode="'"/>
			<glyph d="M275 735L315 710Q222 607 160 459T99 154Q99 73 116 -3T164 -138L120 -158Q86 -96 67 -14T48 153Q48 307 107 460T275 735Z" horiz-adv-x="307" unicode="("/>
			<glyph d="M195 735Q229 672 248 591T267 424Q267 270 208 116T40 -158L1 -134Q94 -31 155 117T216 422Q216 503 199 579T151 714Z" horiz-adv-x="307" unicode=")"/>
			<glyph d="M239 708H283V550L435 599L449 560L295 512L391 380L357 355L261 489L165 356L131 381L228 512L73 560L87 600L239 551Z" horiz-adv-x="451" unicode="*"/>
			<glyph d="M309 553H359V328H580V280H359V55H309V280H87V328H309Z" horiz-adv-x="666" unicode="+"/>
			<glyph d="M102 107Q119 107 131 96T143 66V65Q142 17 108 -32T28 -118L6 -103Q33 -81 57 -48T91 19Q76 21 66 31T56 58Q56 78 69 92T102 107Z" horiz-adv-x="255" unicode=","/>
			<glyph d="M55 276H259L251 228H46Z" horiz-adv-x="309" unicode="-"/>
			<glyph d="M88 83Q106 83 118 71T130 42Q130 22 116 8T84 -6Q66 -6 54 5T43 35Q43 55 56 69T88 83Z" horiz-adv-x="255" unicode="."/>
			<glyph d="M403 734L444 718L7 -22L-34 -7Z" horiz-adv-x="377" unicode="/"/>
			<glyph d="M363 723Q461 723 505 656T550 485Q550 370 518 254T419 62T252 -15Q153 -15 108 51T63 222Q63 338 95 453T194 645T363 723ZM359 672Q288 672 234 608T152 442T123 232Q123 147 153 92T254 37Q324 37 377 100T460 265T489 476Q489 562 459 617T359 672Z" horiz-adv-x="569" unicode="0"/>
			<glyph d="M370 708H426L301 0H242L355 639L202 533L177 577Z" horiz-adv-x="569" unicode="1"/>
			<glyph d="M349 723Q430 723 483 679T537 561Q537 510 518 469T466 391T370 298L102 53H474L453 0H17L28 58L339 341Q414 410 444 457T476 556Q476 609 439 640T346 672Q295 672 250 647T175 583L147 630Q181 673 232 698T349 723Z" horiz-adv-x="569" unicode="2"/>
			<glyph d="M350 723Q427 723 477 679T528 562Q528 490 485 438T364 372V370Q423 358 458 314T493 212Q493 150 461 98T373 15T242 -15Q170 -15 111 9T23 68L47 122Q74 87 129 62T243 37Q298 37 341 60T409 123T433 208Q433 276 386 311T269 347H240L249 395H278Q368 395 418 440T469 559Q469 609 432 641T342 673Q293 673 244 649T157 587L137 634Q180 676 234 699T350 723Z" horiz-adv-x="569" unicode="3"/>
			<glyph d="M434 708H515L429 223H547L526 173H421L390 0H334L364 173H33L44 231ZM444 645L100 223H373L447 645Z" horiz-adv-x="569" unicode="4"/>
			<glyph d="M206 708H554L533 656H250L203 423Q248 442 301 442Q360 442 406 418T479 350T505 251Q505 177 472 116T380 20T243 -15Q172 -15 120 7T40 65L62 118Q90 83 139 60T246 37Q306 37 351 64T420 139T444 243Q444 311 400 353T283 396Q247 396 208 386T137 359Z" horiz-adv-x="569" unicode="5"/>
			<glyph d="M443 715Q519 715 563 695L543 646Q499 665 439 665Q372 665 308 623T195 506T124 330Q195 426 321 426Q406 426 459 374T512 238Q512 168 480 110T391 19T257 -15Q165 -15 108 45T52 212Q52 341 105 457T248 644T443 715ZM308 381Q253 381 207 354T136 284T111 192Q111 123 152 79T260 35Q317 35 360 62T428 134T452 234Q452 297 412 339T308 381Z" horiz-adv-x="569" unicode="6"/>
			<glyph d="M160 708H568L558 653L146 0H75L495 656H139Z" horiz-adv-x="569" unicode="7"/>
			<glyph d="M354 723Q434 723 485 680T536 557Q536 487 493 439T387 376V374Q437 359 470 317T504 219Q504 144 469 91T376 12T253 -15Q200 -15 154 4T80 64T52 163Q52 246 103 304T235 380V382Q188 399 164 436T140 519Q140 579 169 625T248 697T354 723ZM349 673Q305 673 270 651T215 594T195 518Q195 467 228 433T316 400Q363 400 400 421T458 477T479 549Q479 608 443 640T349 673ZM304 352Q251 352 206 328T136 262T111 169Q111 109 151 72T254 36Q311 36 354 59T422 124T446 218Q446 255 427 285T376 334T304 352Z" horiz-adv-x="569" unicode="8"/>
			<glyph d="M352 721Q445 721 502 660T559 492Q559 364 506 248T363 62T168 -8Q92 -8 48 12L68 61Q108 42 172 42Q239 42 303 83T416 201T487 376Q415 281 290 281Q234 281 190 304T123 371T99 470Q99 539 130 596T219 687T352 721ZM351 672Q294 672 250 645T183 572T159 473Q159 410 198 368T303 326Q358 326 403 352T474 421T500 514Q500 583 459 627T351 672Z" horiz-adv-x="569" unicode="9"/>
			<glyph d="M172 470Q190 470 201 459T213 431Q213 412 199 397T168 383Q150 383 138 394T127 424Q127 443 140 456T172 470ZM110 83Q128 83 139 72T150 42Q150 22 137 8T105 -6Q87 -6 75 5T64 35Q64 55 77 69T110 83Z" horiz-adv-x="294" unicode=":"/>
			<glyph d="M172 470Q190 470 201 459T213 431Q213 412 199 397T168 383Q150 383 138 394T127 424Q127 443 140 456T172 470ZM102 107Q119 107 131 96T143 66V65Q142 17 108 -32T28 -118L6 -103Q33 -81 57 -48T91 19Q76 21 66 31T56 58Q56 78 69 92T102 107Z" horiz-adv-x="294" unicode=";"/>
			<glyph d="M575 551V500L154 303L575 106V55L91 282V324Z" horiz-adv-x="666" unicode="&lt;"/>
			<glyph d="M89 412H577V364H89ZM89 243H577V196H89Z" horiz-adv-x="666" unicode="="/>
			<glyph d="M91 551L575 324V282L91 55V106L512 303L91 500Z" horiz-adv-x="666" unicode="&gt;"/>
			<glyph d="M317 725Q392 725 442 684T492 567Q492 507 460 464T369 381Q315 343 294 316T266 242L260 203H204L213 255Q220 304 244 335T328 412Q383 454 407 486T432 562Q432 615 399 643T315 672Q265 672 220 648T146 586L118 632Q154 675 204 700T317 725ZM216 83Q234 83 245 71T257 42Q257 22 244 8T212 -6Q194 -6 182 5T171 35Q171 55 184 69T216 83Z" horiz-adv-x="487" unicode="?"/>
			<glyph d="M483 727Q572 727 642 693T753 599T794 457Q794 375 763 307T679 199T559 160Q525 160 502 177T480 223Q480 232 483 244H481Q462 213 424 186T341 160Q285 160 257 191T230 273Q230 330 260 395T345 506T469 552Q509 552 534 531T562 475H565L591 535H637L546 324Q538 305 530 281T523 242Q523 203 572 203Q618 203 658 235T723 325T748 453Q748 521 714 574T619 656T482 685Q375 685 288 631T151 489T102 299Q102 217 139 154T242 57T396 23Q477 23 547 52T673 135L699 104Q637 46 559 13T391 -19Q290 -19 213 20T94 131T52 294Q52 412 109 511T265 669T483 727ZM459 489Q409 489 368 449T309 361T290 279Q290 250 304 237T340 225Q392 225 438 263T503 347T521 428Q521 463 506 476T459 489Z" horiz-adv-x="800" unicode="@"/>
			<glyph d="M406 708H471L604 0H542L494 261H184L21 0H-48ZM427 647L213 311H486Z" horiz-adv-x="662" unicode="A"/>
			<glyph d="M176 708H380Q462 708 521 670T580 555Q580 483 536 436T414 373V371Q471 363 512 321T553 214Q553 109 475 54T274 0H51ZM225 658L178 393H326Q409 393 464 431T520 542Q520 599 475 628T363 658ZM170 347L118 50H271Q373 50 433 92T494 215Q494 277 448 312T335 347Z" horiz-adv-x="619" unicode="B"/>
			<glyph d="M491 727Q563 727 627 702T725 642L698 584Q666 623 611 648T489 674Q390 674 309 620T182 479T136 295Q136 221 165 162T252 69T396 35Q459 35 519 61T626 131L630 75Q591 36 524 8T391 -19Q291 -19 219 19T110 127T73 287Q73 409 129 510T282 669T491 727Z" horiz-adv-x="716" unicode="C"/>
			<glyph d="M176 708H383Q475 708 551 674T672 574T718 412Q718 280 659 187T499 47T271 0H51ZM227 656L120 52H273Q385 52 472 94T607 216T656 407Q656 483 621 539T521 625T370 656Z" horiz-adv-x="769" unicode="D"/>
			<glyph d="M176 708H546L525 656H224L178 392H474L453 341H169L119 52H460L439 0H51Z" horiz-adv-x="536" unicode="E"/>
			<glyph d="M176 708H546L525 656H226L178 389H467L447 338H170L110 0H51Z" horiz-adv-x="513" unicode="F"/>
			<glyph d="M489 727Q560 727 623 706T728 652L703 600Q664 633 607 653T487 674Q389 674 308 621T182 480T136 295Q136 220 164 161T251 68T396 34Q453 34 504 46T592 79L634 316H454L475 367H700L642 44Q593 14 527 -2T391 -19Q291 -19 219 19T110 127T73 287Q73 404 128 505T278 667T489 727Z" horiz-adv-x="766" unicode="G"/>
			<glyph d="M176 708H236L179 393H620L676 708H736L611 0H551L611 341H171L111 0H51Z" horiz-adv-x="755" unicode="H"/>
			<glyph d="M176 708H236L111 0H51Z" horiz-adv-x="255" unicode="I"/>
			<glyph d="M298 708H358L269 203Q251 105 196 43T44 -18Q17 -18 -2 -13L-13 42Q19 35 46 35Q117 35 157 81T210 207Z" horiz-adv-x="373" unicode="J"/>
			<glyph d="M176 708H235L179 391L546 708H628L241 379L536 0H460L175 373L110 0H51Z" horiz-adv-x="569" unicode="K"/>
			<glyph d="M176 708H236L120 53H445L425 0H51Z" horiz-adv-x="498" unicode="L"/>
			<glyph d="M176 708H264L421 93L793 708H887L762 0H703L815 637L425 0H385L220 642L109 0H51Z" horiz-adv-x="906" unicode="M"/>
			<glyph d="M176 708H248L563 82H565L675 708H734L609 0H537L223 629H221L110 0H51Z" horiz-adv-x="756" unicode="N"/>
			<glyph d="M483 727Q584 727 656 687T766 576T804 415Q804 298 752 198T607 40T396 -19Q295 -19 222 20T111 130T73 293Q73 409 125 509T271 668T483 727ZM480 674Q380 674 301 621T179 481T136 297Q136 222 165 163T254 69T398 35Q499 35 577 87T699 225T742 411Q742 486 712 545T624 639T480 674Z" horiz-adv-x="855" unicode="O"/>
			<glyph d="M176 708H367Q460 708 518 666T576 541Q576 444 508 386T315 329H168L110 0H51ZM226 658L177 378H320Q413 378 465 420T517 536Q517 599 474 628T365 658Z" horiz-adv-x="578" unicode="P"/>
			<glyph d="M481 727Q580 727 653 687T764 578T802 419Q802 337 772 262T688 132T561 52V50H795L774 0H396Q296 0 223 36T112 139T74 298Q74 412 126 510T271 668T481 727ZM479 674Q379 674 300 621T178 484T135 304Q135 189 203 120T399 52Q496 52 574 101T696 233T740 411Q740 485 710 544T622 639T479 674Z" horiz-adv-x="862" unicode="Q"/>
			<glyph d="M176 708H361Q454 708 515 668T576 546Q576 446 515 398T367 344L525 0H459L308 338H169L110 0H51ZM226 658L177 385H314Q408 385 461 421T515 539Q515 601 469 629T348 658Z" horiz-adv-x="606" unicode="R"/>
			<glyph d="M359 727Q413 727 464 710T547 667L522 613Q496 638 450 657T356 676Q311 676 267 658T196 605T169 523Q169 469 201 441T306 390Q398 358 445 316T493 199Q493 135 461 85T372 8T237 -19Q177 -19 118 2T28 55L50 111Q83 75 135 53T242 32Q297 32 340 52T407 109T431 193Q431 253 390 285T268 344Q185 371 146 410T107 518Q107 582 141 629T233 702T359 727Z" horiz-adv-x="571" unicode="S"/>
			<glyph d="M89 708H608L587 656H363L247 0H188L302 656H68Z" horiz-adv-x="530" unicode="T"/>
			<glyph d="M168 708H227L151 276Q146 241 146 214Q146 134 191 84T331 34Q450 34 501 100T572 273L649 708H708L630 266Q607 136 538 58T329 -19Q210 -19 147 40T85 204Q85 241 92 276Z" horiz-adv-x="718" unicode="U"/>
			<glyph d="M88 708H151L249 71H251L624 708H692L272 0H203Z" horiz-adv-x="606" unicode="V"/>
			<glyph d="M100 708H163L213 78H216L528 708H599L654 78H657L969 708H1033L677 0H607L552 631H550L233 0H163Z" horiz-adv-x="960" unicode="W"/>
			<glyph d="M118 708H186L325 414L575 708H649L355 369L538 0H468L313 326L36 0H-41L283 372Z" horiz-adv-x="603" unicode="X"/>
			<glyph d="M71 708H138L278 359L560 708H633L300 307L246 0H186L240 307Z" horiz-adv-x="542" unicode="Y"/>
			<glyph d="M138 708H625L615 652L78 53H530L509 0H-4L6 56L542 656H129Z" horiz-adv-x="593" unicode="Z"/>
			<glyph d="M151 732H310L303 690H196L53 -114H161L153 -156H-6Z" horiz-adv-x="307" unicode="["/>
			<glyph d="M60 734L366 -7L321 -22L14 718Z" horiz-adv-x="378" unicode="\"/>
			<glyph d="M162 732H320L163 -156H5L13 -114H120L262 690H155Z" horiz-adv-x="307" unicode="]"/>
			<glyph d="M312 708H359L581 268H528L335 656L142 268H89Z" horiz-adv-x="670" unicode="^"/>
			<glyph d="M0 -86H500V-125H0Z" horiz-adv-x="500" unicode="_"/>
			<glyph d="M59 709H125L230 565H183Z" horiz-adv-x="250" unicode="`"/>
			<glyph d="M285 482Q361 482 406 446T451 341Q451 327 446 289L412 103Q402 45 402 0H350Q350 43 360 91H357Q296 -12 180 -12Q123 -12 78 17T33 109Q33 209 129 245T389 282Q396 314 396 334Q396 385 365 410T280 436Q241 436 198 419T128 378L112 425Q146 452 191 467T285 482ZM361 241Q237 241 163 214T89 118Q89 71 120 51T196 31Q269 31 316 82T377 208L384 241Z" horiz-adv-x="526" unicode="a"/>
			<glyph d="M238 759L169 370H172Q198 419 250 450T364 482Q462 482 516 425T570 276Q570 198 536 131T442 26T305 -13Q240 -13 190 19T123 106H120L103 0H47L179 748ZM349 434Q292 434 244 400T168 312T140 196Q140 151 160 114T216 55T298 34Q361 34 409 66T485 153T512 271Q512 342 469 388T349 434Z" horiz-adv-x="631" unicode="b"/>
			<glyph d="M325 482Q370 482 413 466T484 426L458 382Q434 406 397 420T324 434Q262 434 211 401T132 313T104 195Q104 125 146 79T266 34Q307 34 348 49T418 90L427 41Q400 16 354 0T260 -16Q159 -16 102 41T46 189Q46 266 82 333T181 441T325 482Z" horiz-adv-x="482" unicode="c"/>
			<glyph d="M617 759L484 0H429L448 99H445Q419 49 367 18T253 -13Q155 -13 100 44T46 193Q46 271 79 337T174 442T313 482Q377 482 424 450T490 365H492L559 748ZM317 434Q254 434 205 401T130 315T103 198Q103 127 145 81T265 35Q322 35 370 68T446 156T474 273Q474 343 431 388T317 434Z" horiz-adv-x="625" unicode="d"/>
			<glyph d="M317 482Q409 482 458 430T508 296Q508 265 500 225H103Q101 205 101 198Q101 122 147 78T271 34Q321 34 366 51T443 95L451 44Q375 -13 263 -13Q163 -13 104 44T46 197Q46 273 81 338T178 443T317 482ZM314 437Q258 437 214 411T144 347T109 266H452Q454 290 454 302Q454 363 417 400T314 437Z" horiz-adv-x="562" unicode="e"/>
			<glyph d="M346 769Q369 769 393 765T430 757L413 709Q377 720 340 720Q293 720 266 687T229 603L205 468H328L309 423H199L123 0H67L142 423H45L65 468H148L172 604Q186 689 232 729T346 769Z" horiz-adv-x="299" unicode="f"/>
			<glyph d="M317 482Q381 482 428 449T493 363H496L515 468H570L492 24Q469 -100 408 -173T220 -246Q156 -246 103 -227T17 -176L34 -121Q68 -156 116 -176T220 -197Q320 -197 368 -138T435 22L450 102H448Q420 51 369 21T257 -9Q159 -9 104 48T50 196Q50 273 83 338T178 443T317 482ZM321 434Q258 434 209 402T133 317T107 201Q107 130 149 84T270 38Q328 38 375 71T450 158T478 274Q478 319 458 355T403 413T321 434Z" horiz-adv-x="626" unicode="g"/>
			<glyph d="M236 759L170 373H172Q200 424 245 453T345 482Q418 482 456 439T495 326Q495 302 490 270L442 0H384L432 269Q436 289 436 315Q436 367 409 400T326 434Q262 434 211 379T144 223L104 0H46L177 748Z" unicode="h"/>
			<glyph d="M188 697Q205 697 215 686T226 659Q226 640 214 627T184 614Q167 614 156 624T145 652Q145 671 158 684T188 697ZM129 468H187L104 0H47Z" horiz-adv-x="244" unicode="i"/>
			<glyph d="M189 697Q205 697 216 686T227 659Q227 640 214 627T185 614Q168 614 157 624T146 652Q146 671 158 684T189 697ZM130 468H188L91 -83Q78 -157 44 -199T-62 -242Q-81 -242 -105 -236L-95 -188Q-75 -192 -64 -192Q-16 -192 4 -163T34 -81Z" horiz-adv-x="245" unicode="j"/>
			<glyph d="M237 759L150 259H152L402 468H480L210 249L426 0H360L150 245H148L105 0H47L179 748Z" horiz-adv-x="473" unicode="k"/>
			<glyph d="M240 762L126 117Q123 101 123 88Q122 69 129 57T154 36L120 -11Q93 -1 77 21T62 75Q62 92 65 104L179 751Z" horiz-adv-x="245" unicode="l"/>
			<glyph d="M338 482Q398 482 435 448T479 361Q507 419 554 450T657 482Q731 482 769 438T808 324Q808 304 803 272L755 0H697L745 269Q749 289 749 314Q749 366 723 400T641 434Q575 434 530 381T470 242L427 0H370L419 277Q423 303 423 318Q423 368 397 401T318 434Q256 434 207 376T140 208L104 0H46L110 358Q118 399 125 468H180Q176 424 166 367Q196 422 240 452T338 482Z" horiz-adv-x="891" unicode="m"/>
			<glyph d="M345 482Q418 482 456 439T495 326Q495 302 490 270L442 0H384L432 269Q436 289 436 316Q436 368 409 401T326 434Q262 434 211 379T144 224L104 0H46L110 358Q118 399 125 468H180Q176 424 166 367H168Q196 422 243 452T345 482Z" unicode="n"/>
			<glyph d="M321 482Q389 482 439 455T515 382T542 275Q542 197 507 131T410 26T266 -13Q198 -13 148 13T72 86T46 194Q46 271 80 337T177 442T321 482ZM318 433Q255 433 206 401T130 315T104 199Q104 127 146 81T269 35Q332 35 381 67T457 154T484 270Q484 341 440 387T318 433Z" horiz-adv-x="602" unicode="o"/>
			<glyph d="M363 482Q461 482 515 425T570 276Q570 198 536 131T442 26T304 -13Q240 -13 191 19T125 104H122L62 -240H5L130 468H185L167 370H170Q197 419 249 450T363 482ZM349 434Q292 434 244 400T168 312T141 195Q141 126 184 80T298 34Q361 34 409 66T484 153T511 271Q511 342 469 388T349 434Z" horiz-adv-x="631" unicode="p"/>
			<glyph d="M312 482Q375 482 423 449T491 363H493L511 468H567L468 -99Q465 -114 465 -125Q465 -152 478 -167T520 -193L487 -241Q409 -216 409 -138Q409 -124 412 -107L446 98H444Q418 48 366 17T253 -13Q155 -13 100 44T45 193Q45 271 78 337T173 442T312 482ZM316 434Q254 434 205 401T130 315T103 198Q103 127 145 81T265 35Q322 35 370 68T446 157T474 274Q474 343 430 388T316 434Z" horiz-adv-x="624" unicode="q"/>
			<glyph d="M333 482Q349 482 361 480L341 428Q327 430 314 430Q246 430 202 373T144 226L104 0H46L110 358Q118 399 125 468H180Q176 422 166 366H168Q197 423 240 452T333 482Z" horiz-adv-x="331" unicode="r"/>
			<glyph d="M245 482Q288 482 327 467T389 432L360 393Q339 411 308 424T243 437Q193 437 158 413T124 345Q124 312 146 295T216 265Q286 246 318 214T350 134Q350 67 299 27T173 -13Q122 -13 81 1T16 39L35 86Q58 62 94 47T173 33Q225 33 259 60T294 130Q294 165 269 186T185 223Q127 240 98 267T69 340Q69 385 93 417T158 465T245 482Z" horiz-adv-x="423" unicode="s"/>
			<glyph d="M213 605L189 468H327L308 422H181L129 128Q125 106 125 92Q125 37 188 37Q220 37 266 59L270 14Q222 -10 169 -10Q122 -10 95 13T68 80Q68 100 72 122L125 422H46L65 468H132L152 581Z" horiz-adv-x="318" unicode="t"/>
			<glyph d="M117 468H174L126 199Q122 167 122 153Q122 101 148 68T232 35Q298 35 348 89T416 246L454 468H512L449 110Q437 46 434 0H378Q379 15 388 77Q389 82 392 102H390Q361 47 314 17T213 -13Q140 -13 102 29T64 142Q64 173 69 195Z" unicode="u"/>
			<glyph d="M49 468H109L181 60H183L419 468H482L204 0H139Z" horiz-adv-x="463" unicode="v"/>
			<glyph d="M62 468H122L153 66H155L370 468H432L484 66H486L685 468H747L505 0H442L389 400H387L171 0H109Z" horiz-adv-x="731" unicode="w"/>
			<glyph d="M70 468H134L232 283L399 468H470L260 244L399 0H333L219 208L29 0H-42L192 248Z" horiz-adv-x="467" unicode="x"/>
			<glyph d="M56 468H117L196 56L422 468H485L152 -119Q118 -182 74 -210T-34 -240L-45 -188Q9 -186 43 -167T103 -102L156 -7Z" horiz-adv-x="464" unicode="y"/>
			<glyph d="M92 468H432L424 423L72 47H379L359 0H-7L0 46L352 422H73Z" horiz-adv-x="447" unicode="z"/>
			<glyph d="M272 732H330L322 689H275Q238 689 216 664T188 597L155 411Q146 352 117 323T56 289V287Q81 283 98 262T115 201Q115 193 113 173L79 -29Q77 -39 77 -56Q77 -113 133 -113H181L173 -156H115Q73 -156 48 -134T24 -66Q24 -47 26 -36L60 168Q62 180 62 201Q62 266 2 266L10 310Q87 310 105 416L137 603Q148 669 184 700T272 732Z" horiz-adv-x="307" unicode="{"/>
			<glyph d="M86 750H137V-250H87Z" horiz-adv-x="225" unicode="|"/>
			<glyph d="M143 732H201Q244 732 268 710T293 642Q293 634 291 612L257 408Q254 390 254 377Q254 310 314 310L306 266Q270 266 246 241T212 160L180 -27Q169 -93 132 -124T44 -156H-13L-5 -113H43Q113 -113 129 -21L162 165Q171 224 199 252T261 287V289Q236 293 219 313T202 375Q202 383 204 403L239 605Q241 623 241 630Q241 689 184 689H137Z" horiz-adv-x="307" unicode="}"/>
			<glyph d="M224 367Q253 367 277 359T330 331Q398 286 442 286Q475 286 500 307T548 365L579 328Q520 235 445 235Q415 235 392 243T340 271Q300 297 277 306T228 316Q194 316 168 295T122 236L91 273Q146 367 224 367Z" horiz-adv-x="666" unicode="~"/>
			<glyph d="" horiz-adv-x="250" unicode=" "/>
			<glyph d="M168 495Q186 495 198 483T210 453Q210 434 196 420T164 406Q146 406 134 417T123 447Q123 466 136 480T168 495ZM114 287H174L84 -220H25Z" horiz-adv-x="290" unicode="¡"/>
			<glyph d="M353 546H391L379 481Q422 478 458 461T515 416L475 380Q460 403 431 417T370 434L301 33Q339 34 374 49T436 89L465 54Q431 22 386 3T292 -16L281 -73H244L254 -14Q169 -4 122 51T76 189Q76 264 110 330T204 437T341 482ZM334 434Q277 430 230 396T158 308T132 195Q132 131 166 87T264 36Z" horiz-adv-x="580" unicode="¢"/>
			<glyph d="M457 726Q495 726 531 714T591 685L560 638Q540 654 511 664T450 674Q374 674 331 624T275 497L256 390H435L414 343H248L218 172Q210 126 187 95T130 51H455L434 0H23L32 51H44Q91 51 120 85T157 166L188 343H79L99 390H197L216 502Q234 602 295 664T457 726Z" horiz-adv-x="580" unicode="£"/>
			<glyph d="M166 594L257 503Q325 560 422 560Q520 560 585 504L675 594L711 560L621 470Q673 404 673 310Q673 213 617 144L711 50L676 15L581 110Q514 56 422 56Q330 56 262 112L165 15Q149 34 130 50L226 146Q172 213 172 310Q172 403 223 468L130 560ZM422 508Q365 508 321 481T253 410T229 310Q229 254 253 208T321 136T422 109Q479 109 523 136T591 208T615 310Q615 365 591 410T523 481T422 508Z" horiz-adv-x="842" unicode="¤"/>
			<glyph d="M110 708H175L315 397L566 708H636L360 383H531L512 341H331L311 227H503L485 186H305L271 0H216L248 186H57L75 227H255L275 341H83L103 383H268Z" horiz-adv-x="580" unicode="¥"/>
			<glyph d="M89 675H136V334H89ZM89 166H136V-175H89Z" horiz-adv-x="225" unicode="¦"/>
			<glyph d="M362 726Q418 726 460 707T526 655L481 622Q462 649 430 663T360 677Q324 677 293 661T243 619T225 558Q225 516 249 493T330 448T417 405T464 358T479 291Q479 232 438 195T340 145Q408 106 408 34Q408 -51 349 -94T206 -137Q149 -137 100 -114T22 -52L69 -18Q92 -52 129 -69T208 -87Q267 -87 308 -59T349 25Q349 69 323 94T238 141Q156 173 123 205T91 292Q91 353 131 391T233 444Q200 463 183 488T166 553Q166 603 192 642T264 704T362 726ZM275 417Q227 411 187 380T148 301Q148 258 171 236T244 195L299 172Q348 178 385 207T423 284Q423 326 398 351T327 395Z" horiz-adv-x="575" unicode="§"/>
			<glyph d="M109 697Q125 697 135 686T145 659Q145 641 133 627T104 614Q88 614 77 624T67 653Q67 671 79 684T109 697ZM282 697Q298 697 309 686T320 659Q320 641 307 627T278 614Q262 614 251 624T241 653Q241 671 253 684T282 697Z" horiz-adv-x="250" unicode="¨"/>
			<glyph d="M401 730Q504 730 591 679T729 542T780 353Q780 250 729 164T591 28T401 -22Q298 -22 210 28T71 164T20 353Q20 456 71 542T210 679T401 730ZM401 693Q308 693 229 647T105 524T59 353Q59 261 105 183T229 60T401 15Q493 15 571 60T695 183T741 353Q741 446 695 524T572 647T401 693ZM416 579Q456 579 497 565T563 530L547 486Q523 508 488 521T416 535Q365 535 326 510T266 444T245 353Q245 304 266 262T326 196T417 172Q455 172 490 185T548 220L554 175Q532 153 495 140T416 127Q353 127 302 155T222 235T194 353Q194 418 222 469T302 550T416 579Z" horiz-adv-x="800" unicode="©"/>
			<glyph d="M250 721Q296 721 324 699T352 637Q352 631 349 604L329 494Q323 450 323 431H288Q288 456 293 486H291Q276 457 248 440T187 424Q152 424 124 443T97 499Q97 559 153 581T309 603Q313 616 313 631Q313 659 294 673T245 687Q202 687 161 656L144 683Q166 701 194 711T250 721ZM292 575Q224 575 180 559T137 504Q137 478 155 467T200 456Q241 456 267 483T301 551L305 575Z" horiz-adv-x="355" unicode="ª"/>
			<glyph d="M232 447L265 421L117 238L201 60L160 36L62 242ZM413 446L446 420L299 237L382 60L341 36L243 241Z" horiz-adv-x="496" unicode="«"/>
			<glyph d="M82 411H583V135H532V363H82Z" horiz-adv-x="666" unicode="¬"/>
			<glyph d="M55 276H259L251 228H46Z" horiz-adv-x="309" unicode="­"/>
			<glyph d="M341 720Q403 720 455 690T537 608T568 494Q568 432 537 380T455 299T341 269Q279 269 226 299T143 380T112 494Q112 556 143 608T226 690T341 720ZM341 693Q286 693 240 666T167 593T140 494Q140 440 167 394T240 320T341 293Q395 293 440 320T513 394T540 494Q540 548 513 593T440 666T341 693ZM255 624H346Q387 624 412 605T438 549Q438 520 420 502T376 480L448 368H402L337 476H294V368H255ZM294 591V505H335Q398 505 398 550Q398 572 383 581T345 591Z" horiz-adv-x="600" unicode="®"/>
			<glyph d="M63 652H323L316 613H57Z" horiz-adv-x="250" unicode="¯"/>
			<glyph d="M253 718Q294 718 328 698T383 644T403 569Q403 528 383 493T328 439T253 419Q212 419 177 439T123 493T103 569Q103 610 123 644T177 698T253 718ZM253 682Q207 682 174 649T141 569Q141 522 174 489T253 456Q300 456 333 489T366 569Q366 616 333 649T253 682Z" horiz-adv-x="403" unicode="°"/>
			<glyph d="M307 565H358V390H585V342H358V170H308V342H84V390H307ZM87 94H582V45H87Z" horiz-adv-x="666" unicode="±"/>
			<glyph d="M264 884Q312 884 344 856T376 785Q376 738 354 706T272 623L123 493H342L329 452H59L66 494L250 655Q296 696 313 722T331 779Q331 809 312 826T260 844Q227 844 198 825T152 774L124 803Q146 842 181 863T264 884Z" horiz-adv-x="336" unicode="²"/>
			<glyph d="M247 884Q296 884 326 857T357 783Q357 736 328 707T259 672Q294 663 315 636T337 572Q337 511 296 476T193 442Q147 442 112 462T61 515L94 539Q106 512 134 497T193 482Q239 482 265 506T292 572Q292 613 265 633T196 654H176L182 691H203Q254 691 283 714T313 777Q313 811 293 828T243 845Q195 845 156 801L131 830Q176 884 247 884Z" horiz-adv-x="332" unicode="³"/>
			<glyph d="M246 709H313L166 565H119Z" horiz-adv-x="250" unicode="´"/>
			<glyph d="M86 468H143V195Q143 121 181 82T290 43Q376 43 414 93T452 240V468H509V0H462L455 91H452Q408 -10 289 -10Q235 -10 198 9T144 64H142L143 -30V-240H86Z" horiz-adv-x="596" unicode="µ"/>
			<glyph d="M354 708H573L426 -127H377L517 668H382L242 -127H193L273 333Q189 334 139 376T90 483Q90 547 121 598T213 678T354 708Z" horiz-adv-x="603" unicode="¶"/>
			<glyph d="M136 321Q154 321 165 309T177 280Q177 260 164 246T132 232Q114 232 102 243T90 273Q90 293 103 307T136 321Z" horiz-adv-x="255" unicode="·"/>
			<glyph d="M71 0H108L40 -79Q61 -73 80 -73Q112 -73 136 -88T160 -138Q160 -184 124 -206T35 -229Q11 -229 -17 -223T-64 -208L-49 -179Q-33 -187 -10 -191T33 -196Q72 -196 93 -181T115 -142Q115 -121 99 -110T61 -100Q48 -100 29 -103T0 -112L-14 -98Z" horiz-adv-x="250" unicode="¸"/>
			<glyph d="M227 875H270L195 452H148L212 821L118 760L97 794Z" horiz-adv-x="217" unicode="¹"/>
			<glyph d="M245 722Q306 722 342 687T378 597Q378 550 357 510T298 446T211 423Q150 423 114 458T79 548Q79 595 100 635T159 698T245 722ZM242 686Q189 686 155 646T122 552Q122 512 145 485T214 459Q267 459 301 498T335 593Q335 633 311 659T242 686Z" horiz-adv-x="355" unicode="º"/>
			<glyph d="M148 447L246 242L77 37L43 63L190 245L108 424ZM329 447L427 241L257 36L224 63L372 245L288 424Z" horiz-adv-x="496" unicode="»"/>
			<glyph d="M634 738L666 716L99 -29L68 -8ZM208 709H251L176 285H128L193 654L98 594L78 628ZM608 423H665L615 141H686L674 101H609L591 1H547L566 101H370L378 143ZM609 369L424 141H572L612 369Z" horiz-adv-x="740" unicode="¼"/>
			<glyph d="M633 738L665 716L98 -29L67 -8ZM219 709H262L187 285H139L204 654L109 594L89 628ZM617 430Q665 430 697 402T729 331Q729 285 707 253T625 170L476 39H695L682 -2H412L419 41L603 202Q649 242 666 268T684 325Q684 355 665 372T613 390Q579 390 551 371T505 320L477 349Q499 388 534 409T617 430Z" horiz-adv-x="793" unicode="½"/>
			<glyph d="M728 738L760 716L193 -29L162 -8ZM252 717Q301 717 331 690T362 616Q362 568 334 540T264 505Q299 496 320 469T342 405Q342 344 301 309T198 275Q160 275 128 286T76 317L91 363Q133 315 202 315Q245 315 271 339T297 405Q297 446 270 466T201 487H181L187 524H208Q259 524 288 547T318 610Q318 644 298 661T248 678Q201 678 156 639L143 677Q190 717 252 717ZM667 423H724L674 141H745L733 101H668L650 1H606L625 101H429L437 143ZM668 369L483 141H631L671 369Z" horiz-adv-x="833" unicode="¾"/>
			<glyph d="M267 496Q285 496 296 484T308 454Q308 434 295 420T263 406Q246 406 234 418T222 448Q222 468 235 482T267 496ZM219 287H275L266 234Q259 185 234 153T151 77Q96 35 71 3T47 -73Q47 -126 79 -154T164 -183Q213 -183 258 -159T333 -97L361 -143Q326 -186 275 -210T162 -235Q86 -235 36 -195T-13 -77Q-13 -18 19 24T110 108Q164 145 184 172T213 247Z" horiz-adv-x="487" unicode="¿"/>
			<glyph d="M406 708H471L604 0H542L494 261H184L21 0H-48ZM427 647L213 311H486ZM299 908H365L470 764H423Z" horiz-adv-x="662" unicode="À"/>
			<glyph d="M406 708H471L604 0H542L494 261H184L21 0H-48ZM427 647L213 311H486ZM539 908H606L459 764H412Z" horiz-adv-x="662" unicode="Á"/>
			<glyph d="M406 708H471L604 0H542L494 261H184L21 0H-48ZM427 647L213 311H486ZM441 908H503L583 764H533L469 882L360 764H306Z" horiz-adv-x="662" unicode="Â"/>
			<glyph d="M406 708H471L604 0H542L494 261H184L21 0H-48ZM427 647L213 311H486ZM572 874H605Q593 834 569 810T514 786Q489 786 453 809T391 833Q358 833 339 784H306Q319 825 343 849T398 873Q424 873 464 849T521 826Q555 826 572 874Z" horiz-adv-x="662" unicode="Ã"/>
			<glyph d="M406 708H471L604 0H542L494 261H184L21 0H-48ZM427 647L213 311H486ZM376 895Q392 895 402 885T412 858Q412 840 400 826T371 813Q355 813 344 823T334 851Q334 869 346 882T376 895ZM549 895Q565 895 576 885T587 858Q587 840 574 826T545 813Q529 813 518 823T508 851Q508 869 520 882T549 895Z" horiz-adv-x="662" unicode="Ä"/>
			<glyph d="M406 708H471L604 0H542L494 261H184L21 0H-48ZM427 647L213 311H486ZM472 948Q512 948 534 925T557 867Q557 820 527 787T451 754Q411 754 388 776T366 835Q366 881 395 914T472 948ZM471 923Q437 923 415 898T393 837Q393 812 408 795T452 779Q486 779 508 804T530 864Q530 889 514 906T471 923Z" horiz-adv-x="662" unicode="Å"/>
			<glyph d="M543 708H942L921 656H629L583 392H870L849 341H574L523 52H855L834 0H456L490 196H198L39 0H-32ZM566 656L235 246H499L571 656Z" horiz-adv-x="931" unicode="Æ"/>
			<glyph d="M491 727Q563 727 627 702T725 642L698 584Q666 623 611 648T489 674Q390 674 309 620T182 479T136 295Q136 221 165 162T252 69T396 35Q459 35 519 61T626 131L630 75Q591 36 524 8T391 -19H387L335 -79Q356 -73 376 -73Q408 -73 432 -88T456 -138Q456 -184 419 -206T330 -229Q306 -229 278 -223T232 -208L246 -179Q262 -187 285 -191T328 -196Q367 -196 388 -181T410 -142Q410 -121 394 -110T356 -100Q343 -100 325 -103T295 -112L282 -98L351 -17Q263 -10 200 30T105 137T73 287Q73 409 129 510T282 669T491 727Z" horiz-adv-x="716" unicode="Ç"/>
			<glyph d="M176 708H546L525 656H224L178 392H474L453 341H169L119 52H460L439 0H51ZM268 908H334L439 764H392Z" horiz-adv-x="536" unicode="È"/>
			<glyph d="M176 708H546L525 656H224L178 392H474L453 341H169L119 52H460L439 0H51ZM440 908H507L360 764H313Z" horiz-adv-x="536" unicode="É"/>
			<glyph d="M176 708H546L525 656H224L178 392H474L453 341H169L119 52H460L439 0H51ZM369 908H431L511 764H461L397 882L288 764H234Z" horiz-adv-x="536" unicode="Ê"/>
			<glyph d="M176 708H546L525 656H224L178 392H474L453 341H169L119 52H460L439 0H51ZM301 895Q317 895 327 885T337 858Q337 840 325 826T296 813Q280 813 269 823T259 851Q259 869 271 882T301 895ZM474 895Q490 895 501 885T512 858Q512 840 499 826T470 813Q454 813 443 823T433 851Q433 869 445 882T474 895Z" horiz-adv-x="536" unicode="Ë"/>
			<glyph d="M176 708H236L111 0H51ZM69 908H135L240 764H193Z" horiz-adv-x="255" unicode="Ì"/>
			<glyph d="M176 708H236L111 0H51ZM310 908H377L230 764H183Z" horiz-adv-x="255" unicode="Í"/>
			<glyph d="M176 708H236L111 0H51ZM207 908H269L349 764H299L235 882L126 764H72Z" horiz-adv-x="255" unicode="Î"/>
			<glyph d="M176 708H236L111 0H51ZM141 895Q157 895 167 885T177 858Q177 840 165 826T136 813Q120 813 109 823T99 851Q99 869 111 882T141 895ZM314 895Q330 895 341 885T352 858Q352 840 339 826T310 813Q294 813 283 823T273 851Q273 869 285 882T314 895Z" horiz-adv-x="255" unicode="Ï"/>
			<glyph d="M176 708H383Q475 708 551 675T672 575T718 414Q718 281 659 188T499 47T271 0H51L112 347H40L48 390H120ZM227 656L180 390H425L418 347H172L120 52H273Q385 52 472 94T607 216T656 407Q656 483 621 539T521 625T370 656Z" horiz-adv-x="769" unicode="Ð"/>
			<glyph d="M176 708H248L563 82H565L675 708H734L609 0H537L223 629H221L110 0H51ZM589 874H622Q610 834 586 810T531 786Q506 786 470 809T408 833Q375 833 356 784H323Q336 825 360 849T415 873Q441 873 481 849T538 826Q572 826 589 874Z" horiz-adv-x="756" unicode="Ñ"/>
			<glyph d="M483 727Q584 727 656 687T766 576T804 415Q804 298 752 198T607 40T396 -19Q295 -19 222 20T111 130T73 293Q73 409 125 509T271 668T483 727ZM480 674Q380 674 301 621T179 481T136 297Q136 222 165 163T254 69T398 35Q499 35 577 87T699 225T742 411Q742 486 712 545T624 639T480 674ZM382 908H448L553 764H506Z" horiz-adv-x="855" unicode="Ò"/>
			<glyph d="M483 727Q584 727 656 687T766 576T804 415Q804 298 752 198T607 40T396 -19Q295 -19 222 20T111 130T73 293Q73 409 125 509T271 668T483 727ZM480 674Q380 674 301 621T179 481T136 297Q136 222 165 163T254 69T398 35Q499 35 577 87T699 225T742 411Q742 486 712 545T624 639T480 674ZM585 908H652L505 764H458Z" horiz-adv-x="855" unicode="Ó"/>
			<glyph d="M483 727Q584 727 656 687T766 576T804 415Q804 298 752 198T607 40T396 -19Q295 -19 222 20T111 130T73 293Q73 409 125 509T271 668T483 727ZM480 674Q380 674 301 621T179 481T136 297Q136 222 165 163T254 69T398 35Q499 35 577 87T699 225T742 411Q742 486 712 545T624 639T480 674ZM509 908H571L651 764H601L537 882L428 764H374Z" horiz-adv-x="855" unicode="Ô"/>
			<glyph d="M483 727Q584 727 656 687T766 576T804 415Q804 298 752 198T607 40T396 -19Q295 -19 222 20T111 130T73 293Q73 409 125 509T271 668T483 727ZM480 674Q380 674 301 621T179 481T136 297Q136 222 165 163T254 69T398 35Q499 35 577 87T699 225T742 411Q742 486 712 545T624 639T480 674ZM636 874H669Q657 834 633 810T578 786Q553 786 517 809T455 833Q422 833 403 784H370Q383 825 407 849T462 873Q488 873 528 849T585 826Q619 826 636 874Z" horiz-adv-x="855" unicode="Õ"/>
			<glyph d="M483 727Q584 727 656 687T766 576T804 415Q804 298 752 198T607 40T396 -19Q295 -19 222 20T111 130T73 293Q73 409 125 509T271 668T483 727ZM480 674Q380 674 301 621T179 481T136 297Q136 222 165 163T254 69T398 35Q499 35 577 87T699 225T742 411Q742 486 712 545T624 639T480 674ZM439 895Q455 895 465 885T475 858Q475 840 463 826T434 813Q418 813 407 823T397 851Q397 869 409 882T439 895ZM612 895Q628 895 639 885T650 858Q650 840 637 826T608 813Q592 813 581 823T571 851Q571 869 583 882T612 895Z" horiz-adv-x="855" unicode="Ö"/>
			<glyph d="M159 513L334 340L507 513L541 480L368 306L542 132L507 98L334 270L160 98L125 132L300 305L125 479Z" horiz-adv-x="666" unicode="×"/>
			<glyph d="M799 729L823 702L738 622Q772 582 789 529T806 415Q806 298 754 198T608 40T396 -19Q319 -19 258 4T157 70L67 -16L43 10L133 97Q73 175 73 293Q73 409 125 509T272 668T485 727Q626 727 714 648ZM483 675Q382 675 302 621T178 481T134 296Q134 203 180 138L670 607Q600 675 483 675ZM692 579L201 110Q268 34 397 34Q499 34 578 86T700 225T744 411Q744 513 692 579Z" horiz-adv-x="855" unicode="Ø"/>
			<glyph d="M168 708H227L151 276Q146 241 146 214Q146 134 191 84T331 34Q450 34 501 100T572 273L649 708H708L630 266Q607 136 538 58T329 -19Q210 -19 147 40T85 204Q85 241 92 276ZM308 908H374L479 764H432Z" horiz-adv-x="718" unicode="Ù"/>
			<glyph d="M168 708H227L151 276Q146 241 146 214Q146 134 191 84T331 34Q450 34 501 100T572 273L649 708H708L630 266Q607 136 538 58T329 -19Q210 -19 147 40T85 204Q85 241 92 276ZM521 908H588L441 764H394Z" horiz-adv-x="718" unicode="Ú"/>
			<glyph d="M168 708H227L151 276Q146 241 146 214Q146 134 191 84T331 34Q450 34 501 100T572 273L649 708H708L630 266Q607 136 538 58T329 -19Q210 -19 147 40T85 204Q85 241 92 276ZM441 908H503L583 764H533L469 882L360 764H306Z" horiz-adv-x="718" unicode="Û"/>
			<glyph d="M168 708H227L151 276Q146 241 146 214Q146 134 191 84T331 34Q450 34 501 100T572 273L649 708H708L630 266Q607 136 538 58T329 -19Q210 -19 147 40T85 204Q85 241 92 276ZM375 895Q391 895 401 885T411 858Q411 840 399 826T370 813Q354 813 343 823T333 851Q333 869 345 882T375 895ZM548 895Q564 895 575 885T586 858Q586 840 573 826T544 813Q528 813 517 823T507 851Q507 869 519 882T548 895Z" horiz-adv-x="718" unicode="Ü"/>
			<glyph d="M71 708H138L278 359L560 708H633L300 307L246 0H186L240 307ZM446 908H513L366 764H319Z" horiz-adv-x="542" unicode="Ý"/>
			<glyph d="M176 708H235L209 558H341Q434 558 492 516T551 390Q551 294 482 236T289 178H142L110 0H51ZM200 508L151 227H295Q387 227 439 269T491 386Q491 449 448 478T338 508Z" horiz-adv-x="578" unicode="Þ"/>
			<glyph d="M370 768Q449 768 501 725T554 605Q554 532 509 486T398 427V425Q457 412 497 364T537 241Q537 170 504 113T411 22T267 -11Q237 -11 207 -6L215 42Q245 37 266 37Q327 37 375 62T451 133T478 239Q478 308 435 354T316 400H303L312 449H325Q369 449 408 465T471 515T496 597Q496 656 460 687T369 719Q288 719 249 665T196 531L102 0H45L139 535Q178 768 370 768Z" horiz-adv-x="596" unicode="ß"/>
			<glyph d="M285 482Q361 482 406 446T451 341Q451 327 446 289L412 103Q402 45 402 0H350Q350 43 360 91H357Q296 -12 180 -12Q123 -12 78 17T33 109Q33 209 129 245T389 282Q396 314 396 334Q396 385 365 410T280 436Q241 436 198 419T128 378L112 425Q146 452 191 467T285 482ZM361 241Q237 241 163 214T89 118Q89 71 120 51T196 31Q269 31 316 82T377 208L384 241ZM176 709H242L347 565H300Z" horiz-adv-x="526" unicode="à"/>
			<glyph d="M285 482Q361 482 406 446T451 341Q451 327 446 289L412 103Q402 45 402 0H350Q350 43 360 91H357Q296 -12 180 -12Q123 -12 78 17T33 109Q33 209 129 245T389 282Q396 314 396 334Q396 385 365 410T280 436Q241 436 198 419T128 378L112 425Q146 452 191 467T285 482ZM361 241Q237 241 163 214T89 118Q89 71 120 51T196 31Q269 31 316 82T377 208L384 241ZM394 709H461L314 565H267Z" horiz-adv-x="526" unicode="á"/>
			<glyph d="M285 482Q361 482 406 446T451 341Q451 327 446 289L412 103Q402 45 402 0H350Q350 43 360 91H357Q296 -12 180 -12Q123 -12 78 17T33 109Q33 209 129 245T389 282Q396 314 396 334Q396 385 365 410T280 436Q241 436 198 419T128 378L112 425Q146 452 191 467T285 482ZM361 241Q237 241 163 214T89 118Q89 71 120 51T196 31Q269 31 316 82T377 208L384 241ZM311 709H373L453 565H403L339 683L230 565H176Z" horiz-adv-x="526" unicode="â"/>
			<glyph d="M285 482Q361 482 406 446T451 341Q451 327 446 289L412 103Q402 45 402 0H350Q350 43 360 91H357Q296 -12 180 -12Q123 -12 78 17T33 109Q33 209 129 245T389 282Q396 314 396 334Q396 385 365 410T280 436Q241 436 198 419T128 378L112 425Q146 452 191 467T285 482ZM361 241Q237 241 163 214T89 118Q89 71 120 51T196 31Q269 31 316 82T377 208L384 241ZM438 676H471Q459 635 435 611T380 588Q367 588 350 594T310 613Q294 622 280 628T257 635Q223 635 205 585H172Q185 626 209 650T264 674Q280 674 293 669T328 651Q350 638 362 633T387 628Q422 628 438 676Z" horiz-adv-x="526" unicode="ã"/>
			<glyph d="M285 482Q361 482 406 446T451 341Q451 327 446 289L412 103Q402 45 402 0H350Q350 43 360 91H357Q296 -12 180 -12Q123 -12 78 17T33 109Q33 209 129 245T389 282Q396 314 396 334Q396 385 365 410T280 436Q241 436 198 419T128 378L112 425Q146 452 191 467T285 482ZM361 241Q237 241 163 214T89 118Q89 71 120 51T196 31Q269 31 316 82T377 208L384 241ZM241 697Q257 697 267 686T277 659Q277 641 265 627T236 614Q220 614 209 624T199 653Q199 671 211 684T241 697ZM414 697Q430 697 441 686T452 659Q452 641 439 627T410 614Q394 614 383 624T373 653Q373 671 385 684T414 697Z" horiz-adv-x="526" unicode="ä"/>
			<glyph d="M285 482Q361 482 406 446T451 341Q451 327 446 289L412 103Q402 45 402 0H350Q350 43 360 91H357Q296 -12 180 -12Q123 -12 78 17T33 109Q33 209 129 245T389 282Q396 314 396 334Q396 385 365 410T280 436Q241 436 198 419T128 378L112 425Q146 452 191 467T285 482ZM361 241Q237 241 163 214T89 118Q89 71 120 51T196 31Q269 31 316 82T377 208L384 241ZM337 749Q377 749 399 727T422 669Q422 621 392 588T316 555Q276 555 253 577T231 636Q231 683 260 716T337 749ZM336 725Q302 725 280 700T258 639Q258 614 273 597T317 581Q351 581 373 606T395 666Q395 691 379 708T336 725Z" horiz-adv-x="526" unicode="å"/>
			<glyph d="M286 482Q352 482 392 453T439 370Q470 420 522 451T637 482Q729 482 778 430T828 296Q828 258 820 225H433Q430 210 430 198Q430 123 473 78T591 33Q641 33 687 51T764 95L772 44Q738 19 691 3T586 -13Q508 -13 457 28T394 134Q370 72 318 30T188 -12Q127 -12 79 16T32 107Q32 201 126 233T386 266Q390 283 393 303T396 333Q396 385 366 410T280 436Q242 436 203 421T133 383L113 424Q150 452 195 467T286 482ZM634 437Q580 437 538 411T472 347T439 266H772Q774 290 774 302Q774 363 737 400T634 437ZM355 225Q230 225 159 200T88 115Q88 71 120 51T197 31Q270 31 316 81T376 202L380 225Z" horiz-adv-x="882" unicode="æ"/>
			<glyph d="M325 482Q375 482 418 465T484 415L445 380Q427 405 394 419T325 434Q262 434 211 401T132 313T104 195Q104 125 146 79T266 34Q307 34 343 49T405 91L436 55Q399 20 359 3T268 -15L214 -79Q234 -73 254 -73Q286 -73 310 -88T334 -138Q334 -184 298 -206T209 -229Q185 -229 156 -223T110 -208L125 -179Q141 -187 163 -191T206 -196Q245 -196 267 -181T289 -142Q289 -120 273 -110T234 -100Q221 -100 203 -103T174 -112L160 -98L232 -14Q143 -7 94 48T46 189Q46 266 82 333T181 441T325 482Z" horiz-adv-x="482" unicode="ç"/>
			<glyph d="M317 482Q409 482 458 430T508 296Q508 265 500 225H103Q101 205 101 198Q101 122 147 78T271 34Q321 34 366 51T443 95L451 44Q375 -13 263 -13Q163 -13 104 44T46 197Q46 273 81 338T178 443T317 482ZM314 437Q258 437 214 411T144 347T109 266H452Q454 290 454 302Q454 363 417 400T314 437ZM206 709H272L377 565H330Z" horiz-adv-x="562" unicode="è"/>
			<glyph d="M317 482Q409 482 458 430T508 296Q508 265 500 225H103Q101 205 101 198Q101 122 147 78T271 34Q321 34 366 51T443 95L451 44Q375 -13 263 -13Q163 -13 104 44T46 197Q46 273 81 338T178 443T317 482ZM314 437Q258 437 214 411T144 347T109 266H452Q454 290 454 302Q454 363 417 400T314 437ZM407 709H474L327 565H280Z" horiz-adv-x="562" unicode="é"/>
			<glyph d="M317 482Q409 482 458 430T508 296Q508 265 500 225H103Q101 205 101 198Q101 122 147 78T271 34Q321 34 366 51T443 95L451 44Q375 -13 263 -13Q163 -13 104 44T46 197Q46 273 81 338T178 443T317 482ZM314 437Q258 437 214 411T144 347T109 266H452Q454 290 454 302Q454 363 417 400T314 437ZM342 709H404L484 565H434L370 683L261 565H207Z" horiz-adv-x="562" unicode="ê"/>
			<glyph d="M317 482Q409 482 458 430T508 296Q508 265 500 225H103Q101 205 101 198Q101 122 147 78T271 34Q321 34 366 51T443 95L451 44Q375 -13 263 -13Q163 -13 104 44T46 197Q46 273 81 338T178 443T317 482ZM314 437Q258 437 214 411T144 347T109 266H452Q454 290 454 302Q454 363 417 400T314 437ZM271 697Q287 697 297 686T307 659Q307 641 295 627T266 614Q250 614 239 624T229 653Q229 671 241 684T271 697ZM444 697Q460 697 471 686T482 659Q482 641 469 627T440 614Q424 614 413 624T403 653Q403 671 415 684T444 697Z" horiz-adv-x="562" unicode="ë"/>
			<glyph d="M129 468H187L104 0H47ZM36 709H102L207 565H160Z" horiz-adv-x="244" unicode="ì"/>
			<glyph d="M129 468H187L104 0H47ZM265 709H332L185 565H138Z" horiz-adv-x="244" unicode="í"/>
			<glyph d="M129 468H187L104 0H47ZM173 709H235L315 565H265L201 683L92 565H38Z" horiz-adv-x="244" unicode="î"/>
			<glyph d="M129 468H187L104 0H47ZM102 697Q118 697 128 686T138 659Q138 641 126 627T97 614Q81 614 70 624T60 653Q60 671 72 684T102 697ZM275 697Q291 697 302 686T313 659Q313 641 300 627T271 614Q255 614 244 624T234 653Q234 671 246 684T275 697Z" horiz-adv-x="244" unicode="ï"/>
			<glyph d="M313 772Q356 739 395 692L510 749L541 720L422 662Q477 593 515 494T554 291Q554 211 522 141T427 29T277 -13Q209 -13 159 13T82 86T56 194Q56 271 90 337T186 442T330 482Q430 482 479 418L483 420Q468 480 436 541T370 640L248 582L223 611L344 669Q314 705 263 745ZM329 434Q266 434 217 401T141 315T114 199Q114 128 157 81T279 35Q342 35 391 67T468 154T495 270Q495 341 451 387T329 434Z" horiz-adv-x="602" unicode="ð"/>
			<glyph d="M345 482Q418 482 456 439T495 326Q495 302 490 270L442 0H384L432 269Q436 289 436 316Q436 368 409 401T326 434Q262 434 211 379T144 224L104 0H46L110 358Q118 399 125 468H180Q176 424 166 367H168Q196 422 243 452T345 482ZM464 676H497Q485 635 461 611T406 588Q393 588 376 594T336 613Q320 622 306 628T283 635Q249 635 231 585H198Q211 626 235 650T290 674Q306 674 319 669T354 651Q376 638 388 633T413 628Q448 628 464 676Z" unicode="ñ"/>
			<glyph d="M321 482Q389 482 439 455T515 382T542 275Q542 197 507 131T410 26T266 -13Q198 -13 148 13T72 86T46 194Q46 271 80 337T177 442T321 482ZM318 433Q255 433 206 401T130 315T104 199Q104 127 146 81T269 35Q332 35 381 67T457 154T484 270Q484 341 440 387T318 433ZM214 709H280L385 565H338Z" horiz-adv-x="602" unicode="ò"/>
			<glyph d="M321 482Q389 482 439 455T515 382T542 275Q542 197 507 131T410 26T266 -13Q198 -13 148 13T72 86T46 194Q46 271 80 337T177 442T321 482ZM318 433Q255 433 206 401T130 315T104 199Q104 127 146 81T269 35Q332 35 381 67T457 154T484 270Q484 341 440 387T318 433ZM425 709H492L345 565H298Z" horiz-adv-x="602" unicode="ó"/>
			<glyph d="M321 482Q389 482 439 455T515 382T542 275Q542 197 507 131T410 26T266 -13Q198 -13 148 13T72 86T46 194Q46 271 80 337T177 442T321 482ZM318 433Q255 433 206 401T130 315T104 199Q104 127 146 81T269 35Q332 35 381 67T457 154T484 270Q484 341 440 387T318 433ZM351 709H413L493 565H443L379 683L270 565H216Z" horiz-adv-x="602" unicode="ô"/>
			<glyph d="M321 482Q389 482 439 455T515 382T542 275Q542 197 507 131T410 26T266 -13Q198 -13 148 13T72 86T46 194Q46 271 80 337T177 442T321 482ZM318 433Q255 433 206 401T130 315T104 199Q104 127 146 81T269 35Q332 35 381 67T457 154T484 270Q484 341 440 387T318 433ZM475 676H508Q496 635 472 611T417 588Q404 588 387 594T347 613Q331 622 317 628T294 635Q260 635 242 585H209Q222 626 246 650T301 674Q317 674 330 669T365 651Q387 638 399 633T424 628Q459 628 475 676Z" horiz-adv-x="602" unicode="õ"/>
			<glyph d="M321 482Q389 482 439 455T515 382T542 275Q542 197 507 131T410 26T266 -13Q198 -13 148 13T72 86T46 194Q46 271 80 337T177 442T321 482ZM318 433Q255 433 206 401T130 315T104 199Q104 127 146 81T269 35Q332 35 381 67T457 154T484 270Q484 341 440 387T318 433ZM279 697Q295 697 305 686T315 659Q315 641 303 627T274 614Q258 614 247 624T237 653Q237 671 249 684T279 697ZM452 697Q468 697 479 686T490 659Q490 641 477 627T448 614Q432 614 421 624T411 653Q411 671 423 684T452 697Z" horiz-adv-x="602" unicode="ö"/>
			<glyph d="M333 522Q353 522 368 507T383 472Q383 451 368 436T333 422Q313 422 298 436T284 472Q284 492 298 507T333 522ZM87 327H579V279H87ZM333 184Q353 184 368 169T383 134Q383 114 368 99T333 84Q313 84 298 99T284 134Q284 155 298 169T333 184Z" horiz-adv-x="666" unicode="÷"/>
			<glyph d="M554 489L575 464L503 400Q542 351 542 275Q542 197 507 131T410 26T266 -13Q215 -13 173 2T103 47L28 -18L7 7L82 72Q46 122 46 195Q46 271 80 337T177 442T321 482Q421 482 480 425ZM318 435Q255 435 206 402T130 316T103 200Q103 147 126 111L439 388Q397 435 318 435ZM458 362L144 85Q165 61 196 47T269 34Q332 34 381 66T457 153T484 269Q484 324 458 362Z" horiz-adv-x="602" unicode="ø"/>
			<glyph d="M117 468H174L126 199Q122 167 122 153Q122 101 148 68T232 35Q298 35 348 89T416 246L454 468H512L449 110Q437 46 434 0H378Q379 15 388 77Q389 82 392 102H390Q361 47 314 17T213 -13Q140 -13 102 29T64 142Q64 173 69 195ZM183 709H249L354 565H307Z" unicode="ù"/>
			<glyph d="M117 468H174L126 199Q122 167 122 153Q122 101 148 68T232 35Q298 35 348 89T416 246L454 468H512L449 110Q437 46 434 0H378Q379 15 388 77Q389 82 392 102H390Q361 47 314 17T213 -13Q140 -13 102 29T64 142Q64 173 69 195ZM411 709H478L331 565H284Z" unicode="ú"/>
			<glyph d="M117 468H174L126 199Q122 167 122 153Q122 101 148 68T232 35Q298 35 348 89T416 246L454 468H512L449 110Q437 46 434 0H378Q379 15 388 77Q389 82 392 102H390Q361 47 314 17T213 -13Q140 -13 102 29T64 142Q64 173 69 195ZM328 709H390L470 565H420L356 683L247 565H193Z" unicode="û"/>
			<glyph d="M117 468H174L126 199Q122 167 122 153Q122 101 148 68T232 35Q298 35 348 89T416 246L454 468H512L449 110Q437 46 434 0H378Q379 15 388 77Q389 82 392 102H390Q361 47 314 17T213 -13Q140 -13 102 29T64 142Q64 173 69 195ZM258 697Q274 697 284 686T294 659Q294 641 282 627T253 614Q237 614 226 624T216 653Q216 671 228 684T258 697ZM431 697Q447 697 458 686T469 659Q469 641 456 627T427 614Q411 614 400 624T390 653Q390 671 402 684T431 697Z" unicode="ü"/>
			<glyph d="M56 468H117L196 56L422 468H485L152 -119Q118 -182 74 -210T-34 -240L-45 -188Q9 -186 43 -167T103 -102L156 -7ZM373 709H440L293 565H246Z" horiz-adv-x="464" unicode="ý"/>
			<glyph d="M238 758L169 370H172Q199 419 249 450T361 482Q459 482 514 425T570 276Q570 198 536 132T440 26T302 -13Q238 -13 190 19T125 104H122L62 -240H4L178 751ZM349 434Q291 434 242 400T166 312T138 195Q138 150 158 113T214 55T298 34Q361 34 409 66T484 153T511 271Q511 342 469 388T349 434Z" horiz-adv-x="631" unicode="þ"/>
			<glyph d="M56 468H117L196 56L422 468H485L152 -119Q118 -182 74 -210T-34 -240L-45 -188Q9 -186 43 -167T103 -102L156 -7ZM215 697Q231 697 241 686T251 659Q251 641 239 627T210 614Q194 614 183 624T173 653Q173 671 185 684T215 697ZM388 697Q404 697 415 686T426 659Q426 641 413 627T384 614Q368 614 357 624T347 653Q347 671 359 684T388 697Z" horiz-adv-x="464" unicode="ÿ"/>
			<glyph d="M406 708H471L604 0H542L494 261H184L21 0H-48ZM427 647L213 311H486ZM329 851H589L582 811H323Z" horiz-adv-x="662" unicode="Ā"/>
			<glyph d="M285 482Q361 482 406 446T451 341Q451 327 446 289L412 103Q402 45 402 0H350Q350 43 360 91H357Q296 -12 180 -12Q123 -12 78 17T33 109Q33 209 129 245T389 282Q396 314 396 334Q396 385 365 410T280 436Q241 436 198 419T128 378L112 425Q146 452 191 467T285 482ZM361 241Q237 241 163 214T89 118Q89 71 120 51T196 31Q269 31 316 82T377 208L384 241ZM193 652H453L446 613H187Z" horiz-adv-x="526" unicode="ā"/>
			<glyph d="M406 708H471L604 0H542L494 261H184L21 0H-48ZM427 647L213 311H486ZM320 902H356Q356 857 380 834T444 812Q539 812 564 902H598Q584 839 542 805T442 771Q385 771 352 804T320 902Z" horiz-adv-x="662" unicode="Ă"/>
			<glyph d="M285 482Q361 482 406 446T451 341Q451 327 446 289L412 103Q402 45 402 0H350Q350 43 360 91H357Q296 -12 180 -12Q123 -12 78 17T33 109Q33 209 129 245T389 282Q396 314 396 334Q396 385 365 410T280 436Q241 436 198 419T128 378L112 425Q146 452 191 467T285 482ZM361 241Q237 241 163 214T89 118Q89 71 120 51T196 31Q269 31 316 82T377 208L384 241ZM182 704H218Q218 659 242 636T306 614Q401 614 426 704H460Q446 641 404 607T304 573Q247 573 214 606T182 704Z" horiz-adv-x="526" unicode="ă"/>
			<glyph d="M406 708H471L604 0H582Q520 -53 494 -84T469 -145Q469 -165 482 -176T517 -187Q535 -187 552 -180T584 -161L595 -191Q551 -225 504 -225Q469 -225 445 -207T422 -157Q422 -117 451 -81T542 0L507 188H139L21 0H-48ZM427 647L169 239H499Z" horiz-adv-x="662" unicode="Ą"/>
			<glyph d="M285 482Q361 482 406 446T451 341Q451 327 446 289L412 103Q402 45 402 0H396Q334 -53 308 -84T283 -145Q283 -165 296 -176T331 -187Q348 -187 365 -180T397 -161L408 -191Q364 -225 316 -225Q281 -225 258 -207T236 -157Q236 -118 265 -82T355 0H350Q350 43 360 91H357Q296 -12 180 -12Q123 -12 78 17T33 109Q33 209 129 245T389 282Q396 314 396 334Q396 385 365 410T280 436Q241 436 198 419T128 378L112 425Q146 452 191 467T285 482ZM361 241Q237 241 163 214T89 118Q89 71 120 51T196 31Q269 31 316 82T377 208L384 241Z" horiz-adv-x="526" unicode="ą"/>
			<glyph d="M491 727Q563 727 627 702T725 642L698 584Q666 623 611 648T489 674Q390 674 309 620T182 479T136 295Q136 221 165 162T252 69T396 35Q459 35 519 61T626 131L630 75Q591 36 524 8T391 -19Q291 -19 219 19T110 127T73 287Q73 409 129 510T282 669T491 727ZM569 908H636L489 764H442Z" horiz-adv-x="716" unicode="Ć"/>
			<glyph d="M325 482Q370 482 413 466T484 426L458 382Q434 406 397 420T324 434Q262 434 211 401T132 313T104 195Q104 125 146 79T266 34Q307 34 348 49T418 90L427 41Q400 16 354 0T260 -16Q159 -16 102 41T46 189Q46 266 82 333T181 441T325 482ZM420 709H487L340 565H293Z" horiz-adv-x="482" unicode="ć"/>
			<glyph d="M491 727Q563 727 627 702T725 642L698 584Q666 623 611 648T489 674Q390 674 309 620T182 479T136 295Q136 221 165 162T252 69T396 35Q459 35 519 61T626 131L630 75Q591 36 524 8T391 -19Q291 -19 219 19T110 127T73 287Q73 409 129 510T282 669T491 727ZM498 908H560L640 764H590L526 882L417 764H363Z" horiz-adv-x="716" unicode="Ĉ"/>
			<glyph d="M325 482Q370 482 413 466T484 426L458 382Q434 406 397 420T324 434Q262 434 211 401T132 313T104 195Q104 125 146 79T266 34Q307 34 348 49T418 90L427 41Q400 16 354 0T260 -16Q159 -16 102 41T46 189Q46 266 82 333T181 441T325 482ZM344 709H406L486 565H436L372 683L263 565H209Z" horiz-adv-x="482" unicode="ĉ"/>
			<glyph d="M491 727Q563 727 627 702T725 642L698 584Q666 623 611 648T489 674Q390 674 309 620T182 479T136 295Q136 221 165 162T252 69T396 35Q459 35 519 61T626 131L630 75Q591 36 524 8T391 -19Q291 -19 219 19T110 127T73 287Q73 409 129 510T282 669T491 727ZM524 895Q541 895 551 885T561 858Q561 839 549 826T520 813Q504 813 493 823T482 851Q482 869 494 882T524 895Z" horiz-adv-x="716" unicode="Ċ"/>
			<glyph d="M325 482Q370 482 413 466T484 426L458 382Q434 406 397 420T324 434Q262 434 211 401T132 313T104 195Q104 125 146 79T266 34Q307 34 348 49T418 90L427 41Q400 16 354 0T260 -16Q159 -16 102 41T46 189Q46 266 82 333T181 441T325 482ZM362 696Q379 696 389 686T399 659Q399 641 387 627T358 614Q342 614 331 624T320 652Q320 670 332 683T362 696Z" horiz-adv-x="482" unicode="ċ"/>
			<glyph d="M491 727Q563 727 627 702T725 642L698 584Q666 623 611 648T489 674Q390 674 309 620T182 479T136 295Q136 221 165 162T252 69T396 35Q459 35 519 61T626 131L630 75Q591 36 524 8T391 -19Q291 -19 219 19T110 127T73 287Q73 409 129 510T282 669T491 727ZM388 908H438L502 790L612 908H665L531 764H468Z" horiz-adv-x="716" unicode="Č"/>
			<glyph d="M325 482Q370 482 413 466T484 426L458 382Q434 406 397 420T324 434Q262 434 211 401T132 313T104 195Q104 125 146 79T266 34Q307 34 348 49T418 90L427 41Q400 16 354 0T260 -16Q159 -16 102 41T46 189Q46 266 82 333T181 441T325 482ZM227 709H277L341 592L451 709H504L370 565H307Z" horiz-adv-x="482" unicode="č"/>
			<glyph d="M176 708H383Q475 708 551 674T672 574T718 412Q718 280 659 187T499 47T271 0H51ZM227 656L120 52H273Q385 52 472 94T607 216T656 407Q656 483 621 539T521 625T370 656ZM300 908H350L414 790L524 908H577L443 764H380Z" horiz-adv-x="769" unicode="Ď"/>
			<glyph d="M617 759L484 0H429L448 99H445Q419 49 367 18T253 -13Q155 -13 100 44T46 193Q46 271 79 337T174 442T313 482Q377 482 424 450T490 365H492L559 748ZM317 434Q254 434 205 401T130 315T103 198Q103 127 145 81T265 35Q322 35 370 68T446 156T474 273Q474 343 431 388T317 434ZM724 708H780L674 520H628Z" horiz-adv-x="679" unicode="ď"/>
			<glyph d="M176 708H383Q475 708 551 675T672 575T718 414Q718 281 659 188T499 47T271 0H51L112 347H40L48 390H120ZM227 656L180 390H425L418 347H172L120 52H273Q385 52 472 94T607 216T656 407Q656 483 621 539T521 625T370 656Z" horiz-adv-x="769" unicode="Đ"/>
			<glyph d="M617 758L591 609H651L644 570H584L484 0H429L448 99H445Q419 49 367 18T253 -13Q155 -13 100 44T46 193Q46 271 79 337T174 442T313 482Q377 482 424 450T490 365H492L528 570H335L343 609H535L560 751ZM317 434Q254 434 205 401T130 315T103 198Q103 127 145 81T265 35Q323 35 371 68T448 156T476 273Q476 343 432 388T317 434Z" horiz-adv-x="625" unicode="đ"/>
			<glyph d="M176 708H546L525 656H224L178 392H474L453 341H169L119 52H460L439 0H51ZM255 851H515L508 811H249Z" horiz-adv-x="536" unicode="Ē"/>
			<glyph d="M317 482Q409 482 458 430T508 296Q508 265 500 225H103Q101 205 101 198Q101 122 147 78T271 34Q321 34 366 51T443 95L451 44Q375 -13 263 -13Q163 -13 104 44T46 197Q46 273 81 338T178 443T317 482ZM314 437Q258 437 214 411T144 347T109 266H452Q454 290 454 302Q454 363 417 400T314 437ZM224 652H484L477 613H218Z" horiz-adv-x="562" unicode="ē"/>
			<glyph d="M176 708H546L525 656H224L178 392H474L453 341H169L119 52H460L439 0H51ZM259 902H295Q295 857 319 834T383 812Q478 812 503 902H537Q523 839 481 805T381 771Q324 771 291 804T259 902Z" horiz-adv-x="536" unicode="Ĕ"/>
			<glyph d="M317 482Q409 482 458 430T508 296Q508 265 500 225H103Q101 205 101 198Q101 122 147 78T271 34Q321 34 366 51T443 95L451 44Q375 -13 263 -13Q163 -13 104 44T46 197Q46 273 81 338T178 443T317 482ZM314 437Q258 437 214 411T144 347T109 266H452Q454 290 454 302Q454 363 417 400T314 437ZM217 704H253Q253 659 277 636T341 614Q436 614 461 704H495Q481 641 439 607T339 573Q282 573 249 606T217 704Z" horiz-adv-x="562" unicode="ĕ"/>
			<glyph d="M176 708H546L525 656H224L178 392H474L453 341H169L119 52H460L439 0H51ZM385 895Q402 895 412 885T422 858Q422 839 410 826T381 813Q365 813 354 823T343 851Q343 869 355 882T385 895Z" horiz-adv-x="536" unicode="Ė"/>
			<glyph d="M317 482Q409 482 458 430T508 296Q508 265 500 225H103Q101 205 101 198Q101 122 147 78T271 34Q321 34 366 51T443 95L451 44Q375 -13 263 -13Q163 -13 104 44T46 197Q46 273 81 338T178 443T317 482ZM314 437Q258 437 214 411T144 347T109 266H452Q454 290 454 302Q454 363 417 400T314 437ZM353 696Q370 696 380 686T390 659Q390 641 378 627T349 614Q333 614 322 624T311 652Q311 670 323 683T353 696Z" horiz-adv-x="562" unicode="ė"/>
			<glyph d="M176 708H547L538 656H224L178 392H477L457 341H169L119 52H461L451 0H430Q368 -52 343 -83T318 -145Q318 -165 331 -176T366 -187Q384 -187 401 -180T432 -161L443 -191Q399 -225 352 -225Q317 -225 294 -207T271 -157Q271 -118 300 -82T389 0H51Z" horiz-adv-x="563" unicode="Ę"/>
			<glyph d="M317 482Q409 482 458 430T508 296Q508 265 500 225H103Q101 205 101 198Q101 122 147 78T271 34Q321 34 366 51T443 95L451 44Q383 -7 289 -12Q236 -58 214 -87T192 -145Q192 -165 204 -176T239 -187Q276 -187 305 -161L317 -191Q273 -225 225 -225Q190 -225 167 -207T145 -157Q145 -121 170 -87T247 -13Q154 -8 100 48T46 197Q46 273 81 338T178 443T317 482ZM314 437Q258 437 214 411T144 347T109 266H452Q454 290 454 302Q454 363 417 400T314 437Z" horiz-adv-x="562" unicode="ę"/>
			<glyph d="M176 708H546L525 656H224L178 392H474L453 341H169L119 52H460L439 0H51ZM262 908H312L376 790L486 908H539L405 764H342Z" horiz-adv-x="536" unicode="Ě"/>
			<glyph d="M317 482Q409 482 458 430T508 296Q508 265 500 225H103Q101 205 101 198Q101 122 147 78T271 34Q321 34 366 51T443 95L451 44Q375 -13 263 -13Q163 -13 104 44T46 197Q46 273 81 338T178 443T317 482ZM314 437Q258 437 214 411T144 347T109 266H452Q454 290 454 302Q454 363 417 400T314 437ZM225 709H275L339 592L449 709H502L368 565H305Z" horiz-adv-x="562" unicode="ě"/>
			<glyph d="M489 727Q560 727 623 706T728 652L703 600Q664 633 607 653T487 674Q389 674 308 621T182 480T136 295Q136 220 164 161T251 68T396 34Q453 34 504 46T592 79L634 316H454L475 367H700L642 44Q593 14 527 -2T391 -19Q291 -19 219 19T110 127T73 287Q73 404 128 505T278 667T489 727ZM498 908H560L640 764H590L526 882L417 764H363Z" horiz-adv-x="766" unicode="Ĝ"/>
			<glyph d="M317 482Q381 482 428 449T493 363H496L515 468H570L492 24Q469 -100 408 -173T220 -246Q156 -246 103 -227T17 -176L34 -121Q68 -156 116 -176T220 -197Q320 -197 368 -138T435 22L450 102H448Q420 51 369 21T257 -9Q159 -9 104 48T50 196Q50 273 83 338T178 443T317 482ZM321 434Q258 434 209 402T133 317T107 201Q107 130 149 84T270 38Q328 38 375 71T450 158T478 274Q478 319 458 355T403 413T321 434ZM360 709H422L502 565H452L388 683L279 565H225Z" horiz-adv-x="626" unicode="ĝ"/>
			<glyph d="M489 727Q560 727 623 706T728 652L703 600Q664 633 607 653T487 674Q389 674 308 621T182 480T136 295Q136 220 164 161T251 68T396 34Q453 34 504 46T592 79L634 316H454L475 367H700L642 44Q593 14 527 -2T391 -19Q291 -19 219 19T110 127T73 287Q73 404 128 505T278 667T489 727ZM380 902H416Q416 857 440 834T504 812Q599 812 624 902H658Q644 839 602 805T502 771Q445 771 412 804T380 902Z" horiz-adv-x="766" unicode="Ğ"/>
			<glyph d="M317 482Q381 482 428 449T493 363H496L515 468H570L492 24Q469 -100 408 -173T220 -246Q156 -246 103 -227T17 -176L34 -121Q68 -156 116 -176T220 -197Q320 -197 368 -138T435 22L450 102H448Q420 51 369 21T257 -9Q159 -9 104 48T50 196Q50 273 83 338T178 443T317 482ZM321 434Q258 434 209 402T133 317T107 201Q107 130 149 84T270 38Q328 38 375 71T450 158T478 274Q478 319 458 355T403 413T321 434ZM237 704H273Q273 659 297 636T361 614Q456 614 481 704H515Q501 641 459 607T359 573Q302 573 269 606T237 704Z" horiz-adv-x="626" unicode="ğ"/>
			<glyph d="M489 727Q560 727 623 706T728 652L703 600Q664 633 607 653T487 674Q389 674 308 621T182 480T136 295Q136 220 164 161T251 68T396 34Q453 34 504 46T592 79L634 316H454L475 367H700L642 44Q593 14 527 -2T391 -19Q291 -19 219 19T110 127T73 287Q73 404 128 505T278 667T489 727ZM521 895Q538 895 548 885T558 858Q558 839 546 826T517 813Q501 813 490 823T479 851Q479 869 491 882T521 895Z" horiz-adv-x="766" unicode="Ġ"/>
			<glyph d="M317 482Q381 482 428 449T493 363H496L515 468H570L492 24Q469 -100 408 -173T220 -246Q156 -246 103 -227T17 -176L34 -121Q68 -156 116 -176T220 -197Q320 -197 368 -138T435 22L450 102H448Q420 51 369 21T257 -9Q159 -9 104 48T50 196Q50 273 83 338T178 443T317 482ZM321 434Q258 434 209 402T133 317T107 201Q107 130 149 84T270 38Q328 38 375 71T450 158T478 274Q478 319 458 355T403 413T321 434ZM373 696Q390 696 400 686T410 659Q410 641 398 627T369 614Q353 614 342 624T331 652Q331 670 343 683T373 696Z" horiz-adv-x="626" unicode="ġ"/>
			<glyph d="M489 727Q560 727 623 706T728 652L703 600Q664 633 607 653T487 674Q389 674 308 621T182 480T136 295Q136 220 164 161T251 68T396 34Q453 34 504 46T592 79L634 316H454L475 367H700L642 44Q593 14 527 -2T391 -19Q291 -19 219 19T110 127T73 287Q73 404 128 505T278 667T489 727ZM369 -43H425L319 -231H273Z" horiz-adv-x="766" unicode="Ģ"/>
			<glyph d="M317 482Q381 482 428 449T493 363H496L515 468H570L492 24Q469 -100 408 -173T220 -246Q156 -246 103 -227T17 -176L34 -121Q68 -156 116 -176T220 -197Q320 -197 368 -138T435 22L450 102H448Q420 51 369 21T257 -9Q159 -9 104 48T50 196Q50 273 83 338T178 443T317 482ZM321 434Q258 434 209 402T133 317T107 201Q107 130 149 84T270 38Q328 38 375 71T450 158T478 274Q478 319 458 355T403 413T321 434ZM419 754H464L369 565H312Z" horiz-adv-x="626" unicode="ģ"/>
			<glyph d="M176 708H236L179 393H620L676 708H736L611 0H551L611 341H171L111 0H51ZM444 908H506L586 764H536L472 882L363 764H309Z" horiz-adv-x="755" unicode="Ĥ"/>
			<glyph d="M236 759L170 373H172Q200 424 245 453T345 482Q418 482 456 439T495 326Q495 302 490 270L442 0H384L432 269Q436 289 436 315Q436 367 409 400T326 434Q262 434 211 379T144 223L104 0H46L177 748ZM367 940H429L509 796H459L395 914L286 796H232Z" unicode="ĥ"/>
			<glyph d="M176 708H236L205 539H646L676 708H736L611 0H551L611 341H171L111 0H51ZM199 500L179 393H620L639 500Z" horiz-adv-x="755" unicode="Ħ"/>
			<glyph d="M236 759L211 609H401L393 570H204L169 369H171Q199 422 244 452T345 482Q418 482 457 440T497 334Q497 315 492 282L442 0H384L432 269Q437 297 437 320Q437 370 410 402T326 434Q260 434 211 382T146 239L104 0H46L146 570H86L93 609H153L177 748Z" unicode="ħ"/>
			<glyph d="M176 708H236L111 0H51ZM341 874H374Q362 834 338 810T283 786Q258 786 222 809T160 833Q127 833 108 784H75Q88 825 112 849T167 873Q193 873 233 849T290 826Q324 826 341 874Z" horiz-adv-x="255" unicode="Ĩ"/>
			<glyph d="M129 468H187L104 0H47ZM300 676H333Q321 635 297 611T242 588Q229 588 212 594T172 613Q156 622 142 628T119 635Q85 635 67 585H34Q47 626 71 650T126 674Q142 674 155 669T190 651Q212 638 224 633T249 628Q284 628 300 676Z" horiz-adv-x="244" unicode="ĩ"/>
			<glyph d="M176 708H236L111 0H51ZM96 851H356L349 811H90Z" horiz-adv-x="255" unicode="Ī"/>
			<glyph d="M129 468H187L104 0H47ZM56 652H316L309 613H50Z" horiz-adv-x="244" unicode="ī"/>
			<glyph d="M176 708H236L111 0H51ZM100 902H136Q136 857 160 834T224 812Q319 812 344 902H378Q364 839 322 805T222 771Q165 771 132 804T100 902Z" horiz-adv-x="255" unicode="Ĭ"/>
			<glyph d="M129 468H187L104 0H47ZM59 704H95Q95 659 119 636T183 614Q278 614 303 704H337Q323 641 281 607T181 573Q124 573 91 606T59 704Z" horiz-adv-x="244" unicode="ĭ"/>
			<glyph d="M176 708H236L111 0H108Q46 -52 21 -83T-4 -145Q-4 -166 9 -176T44 -187Q61 -187 78 -180T110 -161L121 -191Q77 -225 29 -225Q-6 -225 -28 -207T-51 -157Q-51 -118 -22 -82T67 0H51Z" horiz-adv-x="255" unicode="Į"/>
			<glyph d="M188 697Q205 697 215 686T226 659Q226 640 214 627T184 614Q167 614 156 624T145 652Q145 671 158 684T188 697ZM129 468H187L103 0H101Q39 -52 14 -83T-11 -145Q-11 -165 2 -176T37 -187Q54 -187 71 -180T103 -161L114 -191Q70 -225 23 -225Q-12 -225 -35 -208T-58 -157Q-58 -118 -29 -82T60 0H47Z" horiz-adv-x="244" unicode="į"/>
			<glyph d="M176 708H236L111 0H51ZM229 895Q246 895 256 885T266 858Q266 839 254 826T225 813Q209 813 198 823T187 851Q187 869 199 882T229 895Z" horiz-adv-x="255" unicode="İ"/>
			<glyph d="M129 468H187L104 0H47Z" horiz-adv-x="244" unicode="ı"/>
			<glyph d="M176 708H236L111 0H51ZM553 708H613L524 203Q506 105 451 43T299 -18Q272 -18 253 -13L242 42Q274 35 301 35Q372 35 412 81T465 207Z" horiz-adv-x="627" unicode="Ĳ"/>
			<glyph d="M188 697Q205 697 215 686T226 659Q226 640 214 627T184 614Q167 614 156 624T145 652Q145 671 158 684T188 697ZM129 468H187L104 0H47ZM433 697Q449 697 460 686T471 659Q471 640 458 627T429 614Q412 614 401 624T390 652Q390 671 402 684T433 697ZM374 468H432L335 -83Q322 -157 288 -199T182 -242Q163 -242 139 -236L149 -188Q169 -192 180 -192Q228 -192 248 -163T278 -81Z" horiz-adv-x="489" unicode="ĳ"/>
			<glyph d="M298 708H358L269 203Q251 105 196 43T44 -18Q17 -18 -2 -13L-13 42Q19 35 46 35Q117 35 157 81T210 207ZM323 908H385L465 764H415L351 882L242 764H188Z" horiz-adv-x="373" unicode="Ĵ"/>
			<glyph d="M130 468H188L91 -83Q78 -157 44 -199T-62 -242Q-81 -242 -105 -236L-95 -188Q-75 -192 -64 -192Q-16 -192 4 -163T34 -81ZM167 709H229L309 565H259L195 683L86 565H32Z" horiz-adv-x="245" unicode="ĵ"/>
			<glyph d="M176 708H235L179 391L546 708H628L241 379L536 0H460L175 373L110 0H51ZM250 -45H306L200 -233H154Z" horiz-adv-x="569" unicode="Ķ"/>
			<glyph d="M237 759L150 259H152L402 468H480L210 249L426 0H360L150 245H148L105 0H47L179 748ZM201 -44H257L151 -232H105Z" horiz-adv-x="473" unicode="ķ"/>
			<glyph d="M130 468H187L150 259H152L402 468H480L210 249L426 0H360L150 245H148L105 0H47Z" horiz-adv-x="473" unicode="ĸ"/>
			<glyph d="M176 708H236L120 53H445L425 0H51ZM314 908H381L234 764H187Z" horiz-adv-x="498" unicode="Ĺ"/>
			<glyph d="M240 762L126 117Q123 101 123 88Q122 69 129 57T154 36L120 -11Q93 -1 77 21T62 75Q62 92 65 104L179 751ZM311 936H378L231 792H184Z" horiz-adv-x="245" unicode="ĺ"/>
			<glyph d="M176 708H236L120 53H445L425 0H51ZM226 -45H282L176 -233H130Z" horiz-adv-x="498" unicode="Ļ"/>
			<glyph d="M240 762L126 117Q123 101 123 88Q122 69 129 57T154 36L120 -11Q93 -1 77 21T62 75Q62 92 65 104L179 751ZM68 -46H124L18 -234H-28Z" horiz-adv-x="245" unicode="ļ"/>
			<glyph d="M176 708H236L120 53H445L425 0H51ZM396 708H452L346 520H300Z" horiz-adv-x="498" unicode="Ľ"/>
			<glyph d="M240 762L126 117Q123 101 123 88Q122 69 129 57T154 36L120 -11Q93 -1 77 21T62 75Q62 92 65 104L179 751ZM355 708H411L305 520H259Z" horiz-adv-x="291" unicode="ľ"/>
			<glyph d="M176 708H236L120 53H445L425 0H51ZM401 447Q418 447 428 437T438 410Q438 392 426 378T397 365Q381 365 370 375T359 403Q359 421 371 434T401 447Z" horiz-adv-x="498" unicode="Ŀ"/>
			<glyph d="M240 762L126 117Q123 101 123 88Q122 69 129 57T154 36L120 -11Q93 -1 77 21T62 75Q62 92 65 104L179 751ZM306 469Q323 469 333 459T343 432Q343 414 331 400T302 387Q286 387 275 397T264 425Q264 443 276 456T306 469Z" horiz-adv-x="302" unicode="ŀ"/>
			<glyph d="M176 708H236L172 343L411 525L401 469L161 284L121 54H446L428 0H51L93 240L13 178L24 236L104 298Z" horiz-adv-x="499" unicode="Ł"/>
			<glyph d="M240 762L183 443L269 510L259 452L173 385L126 117Q123 101 123 90Q122 70 129 58T154 36L120 -11Q94 -1 78 20T62 72Q62 91 65 104L105 331L29 272L40 332L115 390L179 751Z" horiz-adv-x="245" unicode="ł"/>
			<glyph d="M176 708H248L563 82H565L675 708H734L609 0H537L223 629H221L110 0H51ZM540 908H607L460 764H413Z" horiz-adv-x="756" unicode="Ń"/>
			<glyph d="M345 482Q418 482 456 439T495 326Q495 302 490 270L442 0H384L432 269Q436 289 436 316Q436 368 409 401T326 434Q262 434 211 379T144 224L104 0H46L110 358Q118 399 125 468H180Q176 424 166 367H168Q196 422 243 452T345 482ZM410 709H477L330 565H283Z" unicode="ń"/>
			<glyph d="M176 708H248L563 82H565L675 708H734L609 0H537L223 629H221L110 0H51ZM311 -45H367L261 -233H215Z" horiz-adv-x="756" unicode="Ņ"/>
			<glyph d="M345 482Q418 482 456 439T495 326Q495 302 490 270L442 0H384L432 269Q436 289 436 316Q436 368 409 401T326 434Q262 434 211 379T144 224L104 0H46L110 358Q118 399 125 468H180Q176 424 166 367H168Q196 422 243 452T345 482ZM231 -44H287L181 -232H135Z" unicode="ņ"/>
			<glyph d="M176 708H248L563 82H565L675 708H734L609 0H537L223 629H221L110 0H51ZM348 908H398L462 790L572 908H625L491 764H428Z" horiz-adv-x="756" unicode="Ň"/>
			<glyph d="M345 482Q418 482 456 439T495 326Q495 302 490 270L442 0H384L432 269Q436 289 436 316Q436 368 409 401T326 434Q262 434 211 379T144 224L104 0H46L110 358Q118 399 125 468H180Q176 424 166 367H168Q196 422 243 452T345 482ZM217 709H267L331 592L441 709H494L360 565H297Z" unicode="ň"/>
			<glyph d="M360 482Q433 482 471 439T510 326Q510 302 505 270L457 0H399L447 269Q451 289 451 316Q451 368 424 401T341 434Q277 434 226 379T159 224L119 0H61L125 358Q133 399 140 468H195Q191 424 181 367H183Q211 422 258 452T360 482ZM187 708H243L137 520H91Z" horiz-adv-x="592" unicode="ŉ"/>
			<glyph d="M176 708H249L566 92H568L675 708H734L595 -83Q582 -157 549 -199T443 -242Q422 -242 400 -236L409 -188Q431 -192 441 -192Q489 -192 508 -163T538 -81L551 -10L223 629H221L110 0H51Z" horiz-adv-x="756" unicode="Ŋ"/>
			<glyph d="M345 482Q418 482 457 440T497 334Q497 315 492 282L427 -83Q415 -156 381 -199T275 -242Q257 -242 231 -236L241 -188Q263 -192 272 -192Q320 -192 340 -163T370 -81L432 269Q437 297 437 320Q437 370 410 402T326 434Q260 434 211 382T146 239L104 0H46L110 358Q118 399 125 468H180Q176 424 166 367H168Q196 422 243 452T345 482Z" unicode="ŋ"/>
			<glyph d="M483 727Q584 727 656 687T766 576T804 415Q804 298 752 198T607 40T396 -19Q295 -19 222 20T111 130T73 293Q73 409 125 509T271 668T483 727ZM480 674Q380 674 301 621T179 481T136 297Q136 222 165 163T254 69T398 35Q499 35 577 87T699 225T742 411Q742 486 712 545T624 639T480 674ZM394 851H654L647 811H388Z" horiz-adv-x="855" unicode="Ō"/>
			<glyph d="M321 482Q389 482 439 455T515 382T542 275Q542 197 507 131T410 26T266 -13Q198 -13 148 13T72 86T46 194Q46 271 80 337T177 442T321 482ZM318 433Q255 433 206 401T130 315T104 199Q104 127 146 81T269 35Q332 35 381 67T457 154T484 270Q484 341 440 387T318 433ZM232 652H492L485 613H226Z" horiz-adv-x="602" unicode="ō"/>
			<glyph d="M483 727Q584 727 656 687T766 576T804 415Q804 298 752 198T607 40T396 -19Q295 -19 222 20T111 130T73 293Q73 409 125 509T271 668T483 727ZM480 674Q380 674 301 621T179 481T136 297Q136 222 165 163T254 69T398 35Q499 35 577 87T699 225T742 411Q742 486 712 545T624 639T480 674ZM384 902H420Q420 857 444 834T508 812Q603 812 628 902H662Q648 839 606 805T506 771Q449 771 416 804T384 902Z" horiz-adv-x="855" unicode="Ŏ"/>
			<glyph d="M321 482Q389 482 439 455T515 382T542 275Q542 197 507 131T410 26T266 -13Q198 -13 148 13T72 86T46 194Q46 271 80 337T177 442T321 482ZM318 433Q255 433 206 401T130 315T104 199Q104 127 146 81T269 35Q332 35 381 67T457 154T484 270Q484 341 440 387T318 433ZM220 704H256Q256 659 280 636T344 614Q439 614 464 704H498Q484 641 442 607T342 573Q285 573 252 606T220 704Z" horiz-adv-x="602" unicode="ŏ"/>
			<glyph d="M483 727Q584 727 656 687T766 576T804 415Q804 298 752 198T607 40T396 -19Q295 -19 222 20T111 130T73 293Q73 409 125 509T271 668T483 727ZM480 674Q380 674 301 621T179 481T136 297Q136 222 165 163T254 69T398 35Q499 35 577 87T699 225T742 411Q742 486 712 545T624 639T480 674ZM528 908H596L448 764H401ZM679 908H747L599 764H551Z" horiz-adv-x="855" unicode="Ő"/>
			<glyph d="M321 482Q389 482 439 455T515 382T542 275Q542 197 507 131T410 26T266 -13Q198 -13 148 13T72 86T46 194Q46 271 80 337T177 442T321 482ZM318 433Q255 433 206 401T130 315T104 199Q104 127 146 81T269 35Q332 35 381 67T457 154T484 270Q484 341 440 387T318 433ZM369 709H437L289 565H242ZM520 709H588L440 565H392Z" horiz-adv-x="602" unicode="ő"/>
			<glyph d="M521 708H942L921 656H637L591 392H870L850 341H583L532 52H855L834 0H409Q317 0 240 33T118 132T73 294Q73 427 132 520T292 660T521 708ZM519 656Q407 656 320 614T184 492T136 302Q136 226 170 169T269 82T421 52H474L580 656Z" horiz-adv-x="931" unicode="Œ"/>
			<glyph d="M321 482Q400 482 452 445T523 344Q554 406 613 444T748 482Q840 482 889 430T939 296Q939 257 930 225H535Q532 210 532 198Q532 122 579 77T701 33Q751 33 798 51T876 95L884 44Q806 -13 696 -13Q617 -13 564 24T494 123Q463 61 404 24T266 -13Q198 -13 148 13T72 86T46 194Q46 271 80 337T177 442T321 482ZM745 437Q689 437 645 411T575 346T541 266H883Q886 284 886 302Q886 363 848 400T745 437ZM318 434Q255 434 206 401T131 315T104 199Q104 127 146 81T269 35Q332 35 381 67T457 154T484 270Q484 341 440 387T318 434Z" horiz-adv-x="994" unicode="œ"/>
			<glyph d="M176 708H361Q454 708 515 668T576 546Q576 446 515 398T367 344L525 0H459L308 338H169L110 0H51ZM226 658L177 385H314Q408 385 461 421T515 539Q515 601 469 629T348 658ZM446 908H513L366 764H319Z" horiz-adv-x="606" unicode="Ŕ"/>
			<glyph d="M333 482Q349 482 361 480L341 428Q327 430 314 430Q246 430 202 373T144 226L104 0H46L110 358Q118 399 125 468H180Q176 422 166 366H168Q197 423 240 452T333 482ZM288 709H355L208 565H161Z" horiz-adv-x="331" unicode="ŕ"/>
			<glyph d="M176 708H361Q454 708 515 668T576 546Q576 446 515 398T367 344L525 0H459L308 338H169L110 0H51ZM226 658L177 385H314Q408 385 461 421T515 539Q515 601 469 629T348 658ZM240 -45H296L190 -233H144Z" horiz-adv-x="606" unicode="Ŗ"/>
			<glyph d="M333 482Q349 482 361 480L341 428Q327 430 314 430Q246 430 202 373T144 226L104 0H46L110 358Q118 399 125 468H180Q176 422 166 366H168Q197 423 240 452T333 482ZM61 -46H117L11 -234H-35Z" horiz-adv-x="331" unicode="ŗ"/>
			<glyph d="M176 708H361Q454 708 515 668T576 546Q576 446 515 398T367 344L525 0H459L308 338H169L110 0H51ZM226 658L177 385H314Q408 385 461 421T515 539Q515 601 469 629T348 658ZM253 908H303L367 790L477 908H530L396 764H333Z" horiz-adv-x="606" unicode="Ř"/>
			<glyph d="M333 482Q349 482 361 480L341 428Q327 430 314 430Q246 430 202 373T144 226L104 0H46L110 358Q118 399 125 468H180Q176 422 166 366H168Q197 423 240 452T333 482ZM134 709H184L248 592L358 709H411L277 565H214Z" horiz-adv-x="331" unicode="ř"/>
			<glyph d="M359 727Q413 727 464 710T547 667L522 613Q496 638 450 657T356 676Q311 676 267 658T196 605T169 523Q169 469 201 441T306 390Q398 358 445 316T493 199Q493 135 461 85T372 8T237 -19Q177 -19 118 2T28 55L50 111Q83 75 135 53T242 32Q297 32 340 52T407 109T431 193Q431 253 390 285T268 344Q185 371 146 410T107 518Q107 582 141 629T233 702T359 727ZM440 908H507L360 764H313Z" horiz-adv-x="571" unicode="Ś"/>
			<glyph d="M245 482Q288 482 327 467T389 432L360 393Q339 411 308 424T243 437Q193 437 158 413T124 345Q124 312 146 295T216 265Q286 246 318 214T350 134Q350 67 299 27T173 -13Q122 -13 81 1T16 39L35 86Q58 62 94 47T173 33Q225 33 259 60T294 130Q294 165 269 186T185 223Q127 240 98 267T69 340Q69 385 93 417T158 465T245 482ZM340 709H407L260 565H213Z" horiz-adv-x="423" unicode="ś"/>
			<glyph d="M359 727Q413 727 464 710T547 667L522 613Q496 638 450 657T356 676Q311 676 267 658T196 605T169 523Q169 469 201 441T306 390Q398 358 445 316T493 199Q493 135 461 85T372 8T237 -19Q177 -19 118 2T28 55L50 111Q83 75 135 53T242 32Q297 32 340 52T407 109T431 193Q431 253 390 285T268 344Q185 371 146 410T107 518Q107 582 141 629T233 702T359 727ZM373 908H435L515 764H465L401 882L292 764H238Z" horiz-adv-x="571" unicode="Ŝ"/>
			<glyph d="M245 482Q288 482 327 467T389 432L360 393Q339 411 308 424T243 437Q193 437 158 413T124 345Q124 312 146 295T216 265Q286 246 318 214T350 134Q350 67 299 27T173 -13Q122 -13 81 1T16 39L35 86Q58 62 94 47T173 33Q225 33 259 60T294 130Q294 165 269 186T185 223Q127 240 98 267T69 340Q69 385 93 417T158 465T245 482ZM267 709H329L409 565H359L295 683L186 565H132Z" horiz-adv-x="423" unicode="ŝ"/>
			<glyph d="M359 727Q426 727 477 703T555 641L512 605Q459 676 355 676Q310 676 267 658T196 605T169 523Q169 469 201 441T306 390Q398 358 445 316T493 199Q493 138 464 90T382 13T257 -18L206 -79Q226 -73 246 -73Q278 -73 302 -88T326 -138Q326 -184 289 -206T200 -229Q177 -229 148 -223T102 -208L116 -179Q133 -187 155 -191T198 -196Q237 -196 259 -181T281 -142Q281 -120 265 -110T226 -100Q213 -100 195 -103T165 -112L152 -98L221 -18Q157 -15 103 10T19 80L65 116Q127 32 242 32Q297 32 340 52T407 109T431 193Q431 253 390 285T268 344Q185 371 146 410T107 518Q107 582 141 629T233 702T359 727Z" horiz-adv-x="571" unicode="Ş"/>
			<glyph d="M245 482Q294 482 333 464T392 418L353 387Q316 437 243 437Q193 437 158 413T124 345Q124 312 146 295T216 265Q286 246 318 214T350 134Q350 72 307 33T197 -12L140 -79Q161 -73 181 -73Q212 -73 236 -88T261 -138Q261 -184 224 -206T135 -229Q111 -229 83 -223T36 -208L51 -179Q67 -187 90 -191T133 -196Q172 -196 193 -181T215 -142Q215 -121 199 -110T161 -100Q148 -100 129 -103T100 -112L87 -98L160 -13Q109 -11 71 7T7 60L47 94Q93 33 173 33Q225 33 259 60T294 130Q294 165 269 186T185 223Q127 240 98 267T69 340Q69 385 93 417T158 465T245 482Z" horiz-adv-x="423" unicode="ş"/>
			<glyph d="M359 727Q413 727 464 710T547 667L522 613Q496 638 450 657T356 676Q311 676 267 658T196 605T169 523Q169 469 201 441T306 390Q398 358 445 316T493 199Q493 135 461 85T372 8T237 -19Q177 -19 118 2T28 55L50 111Q83 75 135 53T242 32Q297 32 340 52T407 109T431 193Q431 253 390 285T268 344Q185 371 146 410T107 518Q107 582 141 629T233 702T359 727ZM252 908H302L366 790L476 908H529L395 764H332Z" horiz-adv-x="571" unicode="Š"/>
			<glyph d="M245 482Q288 482 327 467T389 432L360 393Q339 411 308 424T243 437Q193 437 158 413T124 345Q124 312 146 295T216 265Q286 246 318 214T350 134Q350 67 299 27T173 -13Q122 -13 81 1T16 39L35 86Q58 62 94 47T173 33Q225 33 259 60T294 130Q294 165 269 186T185 223Q127 240 98 267T69 340Q69 385 93 417T158 465T245 482ZM148 709H198L262 592L372 709H425L291 565H228Z" horiz-adv-x="423" unicode="š"/>
			<glyph d="M89 708H608L587 656H363L247 0H188L302 656H68ZM202 -45H258L152 -233H106Z" horiz-adv-x="530" unicode="Ţ"/>
			<glyph d="M213 605L189 468H327L308 422H181L129 128Q125 106 125 92Q125 37 188 37Q220 37 266 59L270 14Q222 -10 169 -10Q122 -10 95 13T68 80Q68 100 72 122L125 422H46L65 468H132L152 581ZM131 -45H187L81 -233H35Z" horiz-adv-x="318" unicode="ţ"/>
			<glyph d="M89 708H608L587 656H363L247 0H188L302 656H68ZM237 908H287L351 790L461 908H514L380 764H317Z" horiz-adv-x="530" unicode="Ť"/>
			<glyph d="M213 605L189 468H327L308 422H181L129 128Q125 106 125 92Q125 37 188 37Q220 37 266 59L270 14Q222 -10 169 -10Q122 -10 95 13T68 80Q68 100 72 122L125 422H46L65 468H132L152 581ZM375 734H431L325 546H279Z" horiz-adv-x="327" unicode="ť"/>
			<glyph d="M98 708H616L595 656H371L349 532H529L522 494H342L255 0H196L283 494H101L108 532H289L311 656H76Z" horiz-adv-x="547" unicode="Ŧ"/>
			<glyph d="M213 605L189 468H327L308 422H181L158 291H263L256 253H151L129 128Q125 106 125 92Q125 37 188 37Q220 37 266 59L270 14Q222 -10 169 -10Q122 -10 95 13T68 80Q68 100 72 122L95 253H30L38 291H102L125 422H46L65 468H132L152 581Z" horiz-adv-x="318" unicode="ŧ"/>
			<glyph d="M168 708H227L151 276Q146 241 146 214Q146 134 191 84T331 34Q450 34 501 100T572 273L649 708H708L630 266Q607 136 538 58T329 -19Q210 -19 147 40T85 204Q85 241 92 276ZM570 874H603Q591 834 567 810T512 786Q487 786 451 809T389 833Q356 833 337 784H304Q317 825 341 849T396 873Q422 873 462 849T519 826Q553 826 570 874Z" horiz-adv-x="718" unicode="Ũ"/>
			<glyph d="M117 468H174L126 199Q122 167 122 153Q122 101 148 68T232 35Q298 35 348 89T416 246L454 468H512L449 110Q437 46 434 0H378Q379 15 388 77Q389 82 392 102H390Q361 47 314 17T213 -13Q140 -13 102 29T64 142Q64 173 69 195ZM456 676H489Q477 635 453 611T398 588Q385 588 368 594T328 613Q312 622 298 628T275 635Q241 635 223 585H190Q203 626 227 650T282 674Q298 674 311 669T346 651Q368 638 380 633T405 628Q440 628 456 676Z" unicode="ũ"/>
			<glyph d="M168 708H227L151 276Q146 241 146 214Q146 134 191 84T331 34Q450 34 501 100T572 273L649 708H708L630 266Q607 136 538 58T329 -19Q210 -19 147 40T85 204Q85 241 92 276ZM327 851H587L580 811H321Z" horiz-adv-x="718" unicode="Ū"/>
			<glyph d="M117 468H174L126 199Q122 167 122 153Q122 101 148 68T232 35Q298 35 348 89T416 246L454 468H512L449 110Q437 46 434 0H378Q379 15 388 77Q389 82 392 102H390Q361 47 314 17T213 -13Q140 -13 102 29T64 142Q64 173 69 195ZM212 652H472L465 613H206Z" unicode="ū"/>
			<glyph d="M168 708H227L151 276Q146 241 146 214Q146 134 191 84T331 34Q450 34 501 100T572 273L649 708H708L630 266Q607 136 538 58T329 -19Q210 -19 147 40T85 204Q85 241 92 276ZM317 902H353Q353 857 377 834T441 812Q536 812 561 902H595Q581 839 539 805T439 771Q382 771 349 804T317 902Z" horiz-adv-x="718" unicode="Ŭ"/>
			<glyph d="M117 468H174L126 199Q122 167 122 153Q122 101 148 68T232 35Q298 35 348 89T416 246L454 468H512L449 110Q437 46 434 0H378Q379 15 388 77Q389 82 392 102H390Q361 47 314 17T213 -13Q140 -13 102 29T64 142Q64 173 69 195ZM202 704H238Q238 659 262 636T326 614Q421 614 446 704H480Q466 641 424 607T324 573Q267 573 234 606T202 704Z" unicode="ŭ"/>
			<glyph d="M168 708H227L151 276Q146 241 146 214Q146 134 191 84T331 34Q450 34 501 100T572 273L649 708H708L630 266Q607 136 538 58T329 -19Q210 -19 147 40T85 204Q85 241 92 276ZM467 948Q507 948 529 925T552 867Q552 820 522 787T446 754Q406 754 383 776T361 835Q361 881 390 914T467 948ZM466 923Q432 923 410 898T388 837Q388 812 403 795T447 779Q481 779 503 804T525 864Q525 889 509 906T466 923Z" horiz-adv-x="718" unicode="Ů"/>
			<glyph d="M117 468H174L126 199Q122 167 122 153Q122 101 148 68T232 35Q298 35 348 89T416 246L454 468H512L449 110Q437 46 434 0H378Q379 15 388 77Q389 82 392 102H390Q361 47 314 17T213 -13Q140 -13 102 29T64 142Q64 173 69 195ZM353 749Q393 749 415 727T438 669Q438 621 408 588T332 555Q292 555 269 577T247 636Q247 683 276 716T353 749ZM352 725Q318 725 296 700T274 639Q274 614 289 597T333 581Q367 581 389 606T411 666Q411 691 395 708T352 725Z" unicode="ů"/>
			<glyph d="M168 708H227L151 276Q146 241 146 214Q146 134 191 84T331 34Q450 34 501 100T572 273L649 708H708L630 266Q607 136 538 58T329 -19Q210 -19 147 40T85 204Q85 241 92 276ZM465 908H533L385 764H338ZM616 908H684L536 764H488Z" horiz-adv-x="718" unicode="Ű"/>
			<glyph d="M117 468H174L126 199Q122 167 122 153Q122 101 148 68T232 35Q298 35 348 89T416 246L454 468H512L449 110Q437 46 434 0H378Q379 15 388 77Q389 82 392 102H390Q361 47 314 17T213 -13Q140 -13 102 29T64 142Q64 173 69 195ZM349 709H417L269 565H222ZM500 709H568L420 565H372Z" unicode="ű"/>
			<glyph d="M168 708H227L151 276Q146 241 146 214Q146 134 191 84T331 34Q450 34 501 100T572 273L649 708H708L630 266Q608 142 543 65T351 -18Q301 -61 280 -89T259 -145Q259 -165 272 -176T307 -187Q324 -187 341 -180T373 -161L384 -191Q340 -225 292 -225Q257 -225 234 -207T212 -157Q212 -122 236 -89T308 -18Q199 -13 142 45T85 204Q85 241 92 276Z" horiz-adv-x="718" unicode="Ų"/>
			<glyph d="M117 468H174L126 199Q122 167 122 153Q122 101 148 68T232 35Q298 35 348 89T416 246L454 468H512L449 110Q437 46 434 0H421Q359 -53 333 -84T308 -145Q308 -165 321 -176T356 -187Q373 -187 390 -180T422 -161L433 -191Q389 -225 341 -225Q306 -225 283 -207T261 -157Q261 -118 290 -82T380 0H378Q379 15 388 77Q389 82 392 102H390Q361 47 314 17T213 -13Q140 -13 102 29T64 142Q64 173 69 195Z" unicode="ų"/>
			<glyph d="M100 708H163L213 78H216L528 708H599L654 78H657L969 708H1033L677 0H607L552 631H550L233 0H163ZM569 908H631L711 764H661L597 882L488 764H434Z" horiz-adv-x="960" unicode="Ŵ"/>
			<glyph d="M62 468H122L153 66H155L370 468H432L484 66H486L685 468H747L505 0H442L389 400H387L171 0H109ZM415 709H477L557 565H507L443 683L334 565H280Z" horiz-adv-x="731" unicode="ŵ"/>
			<glyph d="M71 708H138L278 359L560 708H633L300 307L246 0H186L240 307ZM355 908H417L497 764H447L383 882L274 764H220Z" horiz-adv-x="542" unicode="Ŷ"/>
			<glyph d="M56 468H117L196 56L422 468H485L152 -119Q118 -182 74 -210T-34 -240L-45 -188Q9 -186 43 -167T103 -102L156 -7ZM282 709H344L424 565H374L310 683L201 565H147Z" horiz-adv-x="464" unicode="ŷ"/>
			<glyph d="M71 708H138L278 359L560 708H633L300 307L246 0H186L240 307ZM285 895Q301 895 311 885T321 858Q321 840 309 826T280 813Q264 813 253 823T243 851Q243 869 255 882T285 895ZM458 895Q474 895 485 885T496 858Q496 840 483 826T454 813Q438 813 427 823T417 851Q417 869 429 882T458 895Z" horiz-adv-x="542" unicode="Ÿ"/>
			<glyph d="M138 708H625L615 652L78 53H530L509 0H-4L6 56L542 656H129ZM462 908H529L382 764H335Z" horiz-adv-x="593" unicode="Ź"/>
			<glyph d="M92 468H432L424 423L72 47H379L359 0H-7L0 46L352 422H73ZM350 709H417L270 565H223Z" horiz-adv-x="447" unicode="ź"/>
			<glyph d="M138 708H625L615 652L78 53H530L509 0H-4L6 56L542 656H129ZM401 895Q418 895 428 885T438 858Q438 839 426 826T397 813Q381 813 370 823T359 851Q359 869 371 882T401 895Z" horiz-adv-x="593" unicode="Ż"/>
			<glyph d="M92 468H432L424 423L72 47H379L359 0H-7L0 46L352 422H73ZM289 696Q306 696 316 686T326 659Q326 641 314 627T285 614Q269 614 258 624T247 652Q247 670 259 683T289 696Z" horiz-adv-x="447" unicode="ż"/>
			<glyph d="M138 708H625L615 652L78 53H530L509 0H-4L6 56L542 656H129ZM268 908H318L382 790L492 908H545L411 764H348Z" horiz-adv-x="593" unicode="Ž"/>
			<glyph d="M92 468H432L424 423L72 47H379L359 0H-7L0 46L352 422H73ZM159 709H209L273 592L383 709H436L302 565H239Z" horiz-adv-x="447" unicode="ž"/>
			<glyph d="M503 721Q555 721 586 696L555 653Q535 670 503 670Q459 670 432 640T389 562L336 415H462L443 372H319L185 0Q160 -68 122 -104T21 -141Q-25 -141 -51 -123L-24 -79Q-2 -92 23 -92Q67 -92 92 -62T137 24L262 372H141L160 415H278L331 564Q356 636 395 678T503 721Z" horiz-adv-x="580" unicode="ƒ"/>
			<glyph d="M543 708H942L921 656H629L583 392H870L849 341H574L523 52H855L834 0H456L490 196H198L39 0H-32ZM566 656L235 246H499L571 656ZM771 908H838L691 764H644Z" horiz-adv-x="931" unicode="Ǽ"/>
			<glyph d="M286 482Q352 482 392 453T439 370Q470 420 522 451T637 482Q729 482 778 430T828 296Q828 258 820 225H433Q430 210 430 198Q430 123 473 78T591 33Q641 33 687 51T764 95L772 44Q738 19 691 3T586 -13Q508 -13 457 28T394 134Q370 72 318 30T188 -12Q127 -12 79 16T32 107Q32 201 126 233T386 266Q390 283 393 303T396 333Q396 385 366 410T280 436Q242 436 203 421T133 383L113 424Q150 452 195 467T286 482ZM634 437Q580 437 538 411T472 347T439 266H772Q774 290 774 302Q774 363 737 400T634 437ZM355 225Q230 225 159 200T88 115Q88 71 120 51T197 31Q270 31 316 81T376 202L380 225ZM579 709H646L499 565H452Z" horiz-adv-x="882" unicode="ǽ"/>
			<glyph d="M799 729L823 702L738 622Q772 582 789 529T806 415Q806 298 754 198T608 40T396 -19Q319 -19 258 4T157 70L67 -16L43 10L133 97Q73 175 73 293Q73 409 125 509T272 668T485 727Q626 727 714 648ZM483 675Q382 675 302 621T178 481T134 296Q134 203 180 138L670 607Q600 675 483 675ZM692 579L201 110Q268 34 397 34Q499 34 578 86T700 225T744 411Q744 513 692 579ZM596 908H663L516 764H469Z" horiz-adv-x="855" unicode="Ǿ"/>
			<glyph d="M554 489L575 464L503 400Q542 351 542 275Q542 197 507 131T410 26T266 -13Q215 -13 173 2T103 47L28 -18L7 7L82 72Q46 122 46 195Q46 271 80 337T177 442T321 482Q421 482 480 425ZM318 435Q255 435 206 402T130 316T103 200Q103 147 126 111L439 388Q397 435 318 435ZM458 362L144 85Q165 61 196 47T269 34Q332 34 381 66T457 153T484 269Q484 324 458 362ZM438 709H505L358 565H311Z" horiz-adv-x="602" unicode="ǿ"/>
			<glyph d="M359 727Q413 727 464 710T547 667L522 613Q496 638 450 657T356 676Q311 676 267 658T196 605T169 523Q169 469 201 441T306 390Q398 358 445 316T493 199Q493 135 461 85T372 8T237 -19Q177 -19 118 2T28 55L50 111Q83 75 135 53T242 32Q297 32 340 52T407 109T431 193Q431 253 390 285T268 344Q185 371 146 410T107 518Q107 582 141 629T233 702T359 727ZM219 -44H275L169 -232H123Z" horiz-adv-x="571" unicode="Ș"/>
			<glyph d="M245 482Q288 482 327 467T389 432L360 393Q339 411 308 424T243 437Q193 437 158 413T124 345Q124 312 146 295T216 265Q286 246 318 214T350 134Q350 67 299 27T173 -13Q122 -13 81 1T16 39L35 86Q58 62 94 47T173 33Q225 33 259 60T294 130Q294 165 269 186T185 223Q127 240 98 267T69 340Q69 385 93 417T158 465T245 482ZM146 -45H202L96 -233H50Z" horiz-adv-x="423" unicode="ș"/>
			<glyph d="M89 708H608L587 656H363L247 0H188L302 656H68ZM202 -45H258L152 -233H106Z" horiz-adv-x="530" unicode="Ț"/>
			<glyph d="M213 605L189 468H327L308 422H181L129 128Q125 106 125 92Q125 37 188 37Q220 37 266 59L270 14Q222 -10 169 -10Q122 -10 95 13T68 80Q68 100 72 122L125 422H46L65 468H132L152 581ZM131 -45H187L81 -233H35Z" horiz-adv-x="318" unicode="ț"/>
			<glyph d="M130 468H188L91 -83Q78 -157 44 -199T-62 -242Q-81 -242 -105 -236L-95 -188Q-75 -192 -64 -192Q-16 -192 4 -163T34 -81Z" horiz-adv-x="245" unicode="ȷ"/>
			<glyph d="M173 709H235L315 565H265L201 683L92 565H38Z" horiz-adv-x="250" unicode="ˆ"/>
			<glyph d="M63 709H113L177 592L287 709H340L206 565H143Z" horiz-adv-x="250" unicode="ˇ"/>
			<glyph d="M63 851H323L316 812H57Z" horiz-adv-x="250" unicode="ˉ"/>
			<glyph d="M64 704H100Q100 659 124 636T188 614Q283 614 308 704H342Q328 641 286 607T186 573Q129 573 96 606T64 704Z" horiz-adv-x="250" unicode="˘"/>
			<glyph d="M196 696Q213 696 223 686T233 659Q233 641 221 627T192 614Q176 614 165 624T154 652Q154 670 166 683T196 696Z" horiz-adv-x="250" unicode="˙"/>
			<glyph d="M206 749Q246 749 268 727T291 669Q291 621 261 588T185 555Q145 555 122 577T100 636Q100 683 129 716T206 749ZM205 725Q171 725 149 700T127 639Q127 614 142 597T186 581Q220 581 242 606T264 666Q264 691 248 708T205 725Z" horiz-adv-x="250" unicode="˚"/>
			<glyph d="M80 1H121Q58 -53 33 -84T8 -145Q8 -165 21 -176T56 -187Q73 -187 90 -180T122 -161L133 -191Q89 -225 41 -225Q6 -225 -16 -207T-39 -157Q-39 -118 -9 -82T80 1Z" horiz-adv-x="250" unicode="˛"/>
			<glyph d="M306 676H339Q327 635 303 611T248 588Q235 588 218 594T178 613Q162 622 148 628T125 635Q91 635 73 585H40Q53 626 77 650T132 674Q148 674 161 669T196 651Q218 638 230 633T255 628Q290 628 306 676Z" horiz-adv-x="250" unicode="˜"/>
			<glyph d="M180 709H248L100 565H53ZM331 709H399L251 565H203Z" horiz-adv-x="250" unicode="˝"/>
			<glyph d="M-124 -45H-68L-174 -233H-220Z" horiz-adv-x="0" unicode="̦"/>
			<glyph d="M195 731H264L166 544H119Z" horiz-adv-x="383" unicode="ʹ"/>
			<glyph d="M217 20H264L187 -167H119Z" horiz-adv-x="383" unicode="͵"/>
			<glyph d="M265 713H325L583 29V0H6V30ZM294 657Q273 594 258 553L70 49H519L333 548Q318 588 294 657Z" horiz-adv-x="625" unicode="Δ"/>
			<glyph d="M386 723Q483 723 556 683T670 569T711 390Q711 268 661 186T517 50H736V0H455V52Q553 110 600 188T648 386Q648 475 614 540T522 638T386 672Q311 672 252 637T160 537T127 386Q127 265 175 189T318 52V0H38V50H257Q165 105 114 187T63 390Q63 488 104 563T218 681T386 723Z" horiz-adv-x="747" unicode="Ω"/>
			<glyph d="M86 468H143V195Q143 121 181 82T290 43Q376 43 414 93T452 240V468H509V0H462L455 91H452Q408 -10 289 -10Q235 -10 198 9T144 64H142L143 -30V-240H86Z" horiz-adv-x="596" unicode="μ"/>
			<glyph d="M100 468H593V422H480V115Q480 36 541 36Q569 36 588 44V1Q562 -10 525 -10Q476 -10 449 20T422 106V422H181V0H122V422H12V457Z" horiz-adv-x="621" unicode="π"/>
			<glyph d="M100 708H163L213 78H216L528 708H599L654 78H657L969 708H1033L677 0H607L552 631H550L233 0H163ZM428 908H494L599 764H552Z" horiz-adv-x="960" unicode="Ẁ"/>
			<glyph d="M62 468H122L153 66H155L370 468H432L484 66H486L685 468H747L505 0H442L389 400H387L171 0H109ZM269 709H335L440 565H393Z" horiz-adv-x="731" unicode="ẁ"/>
			<glyph d="M100 708H163L213 78H216L528 708H599L654 78H657L969 708H1033L677 0H607L552 631H550L233 0H163ZM674 908H741L594 764H547Z" horiz-adv-x="960" unicode="Ẃ"/>
			<glyph d="M62 468H122L153 66H155L370 468H432L484 66H486L685 468H747L505 0H442L389 400H387L171 0H109ZM522 709H589L442 565H395Z" horiz-adv-x="731" unicode="ẃ"/>
			<glyph d="M100 708H163L213 78H216L528 708H599L654 78H657L969 708H1033L677 0H607L552 631H550L233 0H163ZM506 895Q522 895 532 885T542 858Q542 840 530 826T501 813Q485 813 474 823T464 851Q464 869 476 882T506 895ZM679 895Q695 895 706 885T717 858Q717 840 704 826T675 813Q659 813 648 823T638 851Q638 869 650 882T679 895Z" horiz-adv-x="960" unicode="Ẅ"/>
			<glyph d="M62 468H122L153 66H155L370 468H432L484 66H486L685 468H747L505 0H442L389 400H387L171 0H109ZM348 697Q364 697 374 686T384 659Q384 641 372 627T343 614Q327 614 316 624T306 653Q306 671 318 684T348 697ZM521 697Q537 697 548 686T559 659Q559 641 546 627T517 614Q501 614 490 624T480 653Q480 671 492 684T521 697Z" horiz-adv-x="731" unicode="ẅ"/>
			<glyph d="M71 708H138L278 359L560 708H633L300 307L246 0H186L240 307ZM219 908H285L390 764H343Z" horiz-adv-x="542" unicode="Ỳ"/>
			<glyph d="M56 468H117L196 56L422 468H485L152 -119Q118 -182 74 -210T-34 -240L-45 -188Q9 -186 43 -167T103 -102L156 -7ZM150 709H216L321 565H274Z" horiz-adv-x="464" unicode="ỳ"/>
			<glyph d="M55 276H259L251 228H46Z" horiz-adv-x="309" unicode="‐"/>
			<glyph d="M36 274H376L368 231H28Z" horiz-adv-x="400" unicode="–"/>
			<glyph d="M36 274H576L568 230H28Z" horiz-adv-x="600" unicode="—"/>
			<glyph d="M36 274H576L568 230H28Z" horiz-adv-x="600" unicode="―"/>
			<glyph d="M225 708L246 693Q215 666 189 629T159 553L110 524Q110 572 144 621T225 708ZM156 539Q164 539 164 530Q164 524 160 519T152 515Q143 515 143 526Q143 533 147 536T156 539Z" horiz-adv-x="234" unicode="‘"/>
			<glyph d="M197 708Q214 708 225 697T237 667Q237 618 203 569T122 483L101 499Q128 520 152 552T185 621Q170 622 160 632T151 660Q151 679 164 693T197 708Z" horiz-adv-x="234" unicode="’"/>
			<glyph d="M102 107Q119 107 131 96T143 66V65Q142 17 108 -32T28 -118L6 -103Q33 -81 57 -48T91 19Q76 21 66 31T56 58Q56 78 69 92T102 107Z" horiz-adv-x="235" unicode="‚"/>
			<glyph d="M219 708L241 693Q214 671 190 638T156 571Q172 570 181 559T191 532Q191 512 177 497T145 483Q128 483 116 494T105 524ZM386 708L407 693Q380 670 356 637T323 571Q338 569 347 558T357 532Q357 512 343 497T311 483Q294 483 282 494T271 524V525Q271 573 305 621T386 708Z" horiz-adv-x="385" unicode="“"/>
			<glyph d="M197 708Q214 708 225 697T237 667Q237 618 203 569T122 483L101 499Q128 520 152 552T185 621Q170 622 160 632T151 660Q151 679 164 693T197 708ZM364 708Q381 708 392 697T404 667Q404 619 370 570T289 483L268 499Q294 521 318 553T352 620Q336 622 327 632T318 660Q318 679 331 693T364 708Z" horiz-adv-x="385" unicode="”"/>
			<glyph d="M89 106Q106 106 117 95T129 65Q128 17 94 -31T14 -119L-8 -103Q19 -80 43 -48T77 19Q62 21 52 31T43 58Q43 77 56 91T89 106ZM255 106Q272 106 283 95T295 65Q295 17 261 -31T180 -119L159 -103Q187 -79 210 -47T243 19Q227 21 218 31T209 58Q209 77 222 91T255 106Z" horiz-adv-x="385" unicode="„"/>
			<glyph d="M324 708H378L341 503H537L530 455H333L231 -127H177L279 455H81L90 503H287Z" horiz-adv-x="543" unicode="†"/>
			<glyph d="M324 708H378L342 510H536L527 462H334L274 120H467L459 72H265L231 -127H177L212 72H17L26 120H220L281 462H86L94 510H288Z" horiz-adv-x="543" unicode="‡"/>
			<glyph d="M250 531Q298 531 338 507T403 442T427 354Q427 306 403 265T338 201T250 177Q202 177 161 201T97 265T73 354Q73 402 97 442T161 507T250 531Z" horiz-adv-x="500" unicode="•"/>
			<glyph d="M131 83Q148 83 159 71T171 42Q171 22 156 8T124 -6Q106 -6 95 4T84 33Q84 55 97 69T131 83ZM465 83Q482 83 493 72T505 44Q505 23 491 8T458 -6Q441 -6 430 4T419 33Q419 54 432 68T465 83ZM800 83Q817 83 828 72T840 44Q840 23 826 8T793 -6Q775 -6 764 4T753 33Q753 54 767 68T800 83Z" horiz-adv-x="1000" unicode="…"/>
			<glyph d="M629 738L663 716L101 -29L68 -8ZM264 717Q327 717 363 681T400 587Q400 538 378 497T318 433T229 410Q166 410 129 446T92 540Q92 588 114 628T175 693T264 717ZM260 676Q206 676 172 638T138 545Q138 504 162 477T232 451Q286 451 320 489T355 582Q355 623 330 649T260 676ZM509 297Q572 297 608 261T645 168Q645 119 623 78T563 14T474 -9Q411 -9 374 27T338 121Q338 169 359 209T420 273T509 297ZM859 297Q922 297 958 261T995 168Q995 119 973 78T913 14T824 -9Q762 -9 725 27T689 121Q689 170 710 210T770 273T859 297ZM505 257Q451 257 417 218T383 125Q383 85 407 58T476 32Q530 32 565 70T600 163Q600 203 575 230T505 257ZM855 257Q802 257 767 218T733 125Q733 85 757 58T827 32Q881 32 915 70T950 163Q950 204 925 230T855 257Z" horiz-adv-x="1044" unicode="‰"/>
			<glyph d="M232 447L265 421L117 239L201 61L160 37L62 242Z" horiz-adv-x="315" unicode="‹"/>
			<glyph d="M148 447L246 241L77 35L43 62L190 244L108 424Z" horiz-adv-x="315" unicode="›"/>
			<glyph d="M320 725Q395 725 443 684T492 566Q492 506 459 462T368 377Q314 339 294 312T266 245L258 203H203L262 544H315L281 354Q295 372 311 386T351 419Q394 454 415 487T436 562Q436 615 403 645T317 675Q267 675 221 651T145 588L118 632Q154 675 205 700T320 725ZM215 83Q233 83 244 72T255 42Q255 22 242 8T210 -6Q192 -6 180 5T169 35Q169 55 182 69T215 83Z" horiz-adv-x="487" unicode="‽"/>
			<glyph d="M321 738L353 716L-214 -29L-245 -8Z" horiz-adv-x="100" unicode="⁄"/>
			<glyph d="M287 884Q347 884 374 843T402 739Q402 671 382 602T322 488T221 442Q161 442 133 482T105 586Q105 655 124 723T185 838T287 884ZM284 844Q244 844 214 807T169 712T153 591Q153 483 224 483Q263 483 292 519T338 614T354 735Q354 844 284 844Z" horiz-adv-x="369" unicode="⁰"/>
			<glyph d="M315 874H373L323 592H394L381 552H317L298 452H255L273 552H78L86 594ZM317 820L131 592H280L320 820Z" horiz-adv-x="348" unicode="⁴"/>
			<glyph d="M188 874H396L386 834H223L199 711Q225 720 248 720Q304 720 339 687T374 601Q374 532 330 487T216 442Q177 442 144 453T92 483L105 528Q124 507 154 494T217 482Q266 482 297 515T328 596Q328 635 303 659T237 683Q195 683 145 658Z" horiz-adv-x="356" unicode="⁵"/>
			<glyph d="M335 874Q357 874 377 869T409 859L392 823Q382 828 364 832T328 836Q264 836 216 787T152 655Q170 680 199 695T264 711Q315 711 347 679T380 597Q380 555 361 519T308 463T231 442Q172 442 136 479T101 586Q101 674 133 739T218 839T335 874ZM255 674Q223 674 198 658T160 618T146 568Q146 532 169 507T231 482Q276 482 305 514T335 594Q335 629 312 651T255 674Z" horiz-adv-x="348" unicode="⁶"/>
			<glyph d="M168 874H420L413 836L172 452H118L362 834H150Z" horiz-adv-x="316" unicode="⁷"/>
			<glyph d="M256 884Q306 884 337 857T369 781Q369 743 345 715T286 676V675Q313 665 331 640T350 583Q350 539 328 507T272 458T197 442Q146 442 110 470T74 552Q74 598 102 632T176 680V681Q151 692 138 713T125 761Q125 814 163 849T256 884ZM254 846Q217 846 192 821T168 760Q168 732 186 713T234 695Q273 695 299 719T325 776Q325 808 305 827T254 846ZM226 658Q181 658 150 628T119 556Q119 522 142 501T199 481Q246 481 275 510T305 583Q305 615 282 636T226 658Z" horiz-adv-x="314" unicode="⁸"/>
			<glyph d="M267 884Q323 884 357 846T392 741Q392 658 360 592T274 489T158 453Q111 453 83 467L101 503Q127 490 163 490Q201 490 238 512T302 575T341 672Q325 647 294 631T229 615Q178 615 145 647T113 730Q113 772 132 807T187 863T267 884ZM266 844Q219 844 188 811T158 732Q158 697 180 674T238 652Q286 652 316 683T347 758Q347 796 325 820T266 844Z" horiz-adv-x="348" unicode="⁹"/>
			<glyph d="M225 791H255V655H389V626H255V490H225V626H90V655H225Z" horiz-adv-x="367" unicode="⁺"/>
			<glyph d="M103 658H399V630H103Z" horiz-adv-x="367" unicode="⁻"/>
			<glyph d="M100 714H396V685H100ZM100 612H396V584H100Z" horiz-adv-x="377" unicode="⁼"/>
			<glyph d="M267 918L291 903Q234 841 197 751T160 566Q160 517 170 470T200 389L173 376Q152 414 140 463T129 565Q129 658 165 751T267 918Z" horiz-adv-x="257" unicode="⁽"/>
			<glyph d="M201 915Q222 877 233 827T245 727Q245 633 209 540T107 374L83 389Q139 452 176 541T214 726Q214 775 203 821T174 902Z" horiz-adv-x="257" unicode="⁾"/>
			<glyph d="M208 296Q268 296 295 255T323 151Q323 83 303 14T243 -100T142 -146Q82 -146 54 -105T26 -2Q26 67 45 135T106 250T208 296ZM205 256Q165 256 135 219T90 124T74 3Q74 -105 145 -105Q184 -105 213 -68T259 26T275 147Q275 256 205 256Z" horiz-adv-x="369" unicode="₀"/>
			<glyph d="M143 283H186L111 -140H64L128 229L34 168L13 202Z" horiz-adv-x="217" unicode="₁"/>
			<glyph d="M175 292Q223 292 255 264T287 193Q287 146 265 114T183 31L34 -99H253L240 -140H-30L-23 -98L161 63Q207 104 224 130T242 187Q242 217 223 234T171 252Q138 252 109 233T63 182L35 211Q57 250 92 271T175 292Z" horiz-adv-x="336" unicode="₂"/>
			<glyph d="M156 292Q205 292 235 265T266 191Q266 144 237 115T168 80Q203 71 224 44T246 -20Q246 -81 205 -115T102 -150Q56 -150 21 -130T-30 -77L3 -53Q15 -80 43 -95T102 -110Q148 -110 174 -85T201 -20Q201 21 174 41T105 62H85L91 99H112Q163 99 192 122T222 185Q222 219 202 236T152 253Q104 253 65 209L40 238Q85 292 156 292Z" horiz-adv-x="332" unicode="₃"/>
			<glyph d="M204 284H262L212 2H283L270 -38H206L187 -138H144L162 -38H-33L-25 4ZM206 230L20 2H169L209 230Z" horiz-adv-x="348" unicode="₄"/>
			<glyph d="M89 283H297L287 243H124L100 120Q126 129 149 129Q205 129 240 96T275 10Q275 -59 231 -104T117 -149Q78 -149 45 -138T-7 -108L6 -63Q25 -84 55 -96T118 -109Q167 -109 198 -76T229 5Q229 44 204 68T138 92Q96 92 46 67Z" horiz-adv-x="356" unicode="₅"/>
			<glyph d="M235 286Q257 286 277 281T309 271L292 235Q282 240 264 244T228 248Q164 248 116 199T52 67Q70 92 99 107T164 123Q215 123 247 91T280 9Q280 -33 261 -68T208 -125T131 -146Q72 -146 36 -108T1 -2Q1 86 33 151T118 251T235 286ZM155 86Q123 86 98 70T60 30T46 -20Q46 -56 69 -81T131 -106Q176 -106 205 -73T235 6Q235 41 212 63T155 86Z" horiz-adv-x="348" unicode="₆"/>
			<glyph d="M47 285H299L292 247L51 -137H-3L241 245H29Z" horiz-adv-x="316" unicode="₇"/>
			<glyph d="M164 295Q214 295 245 268T277 192Q277 154 253 126T194 87V86Q221 76 239 51T258 -6Q258 -50 236 -82T180 -130T105 -147Q54 -147 18 -119T-18 -37Q-18 9 10 43T84 91V92Q59 103 46 124T33 172Q33 225 71 260T164 295ZM162 257Q125 257 100 232T76 171Q76 143 94 124T142 106Q181 106 207 130T233 187Q233 219 213 238T162 257ZM134 69Q89 69 58 39T27 -33Q27 -67 50 -87T107 -108Q154 -108 183 -79T213 -6Q213 26 190 47T134 69Z" horiz-adv-x="314" unicode="₈"/>
			<glyph d="M174 292Q230 292 264 254T299 149Q299 66 267 0T181 -102T65 -139Q18 -139 -10 -125L8 -89Q34 -102 70 -102Q108 -102 145 -80T209 -16T248 80Q232 55 201 39T136 23Q85 23 52 55T20 138Q20 180 39 215T94 271T174 292ZM173 252Q126 252 95 219T65 140Q65 105 87 82T145 60Q193 60 223 91T254 166Q254 204 232 228T173 252Z" horiz-adv-x="348" unicode="₉"/>
			<glyph d="M158 195H188V59H321V30H188V-106H158V30H23V59H158Z" horiz-adv-x="367" unicode="₊"/>
			<glyph d="M23 59H319V30H23Z" horiz-adv-x="367" unicode="₋"/>
			<glyph d="M17 111H313V82H17ZM17 9H313V-20H17Z" horiz-adv-x="368" unicode="₌"/>
			<glyph d="M152 333L176 318Q120 257 83 167T46 -18Q46 -67 56 -114T85 -195L58 -208Q37 -171 25 -121T14 -19Q14 74 50 167T152 333Z" horiz-adv-x="257" unicode="₍"/>
			<glyph d="M105 333Q125 295 136 246T148 145Q148 51 112 -42T11 -208L-13 -193Q43 -130 80 -40T118 144Q118 193 107 239T78 320Z" horiz-adv-x="266" unicode="₎"/>
			<glyph d="M457 727Q499 727 536 718T599 695L575 649Q525 677 453 677Q367 677 296 616T190 459H498L477 416H174Q165 388 158 354T151 292H422L401 249H151Q152 152 206 91T354 31Q430 31 496 70L511 27Q440 -19 346 -19Q265 -19 208 17T122 115T93 249H16L39 292H94Q94 311 100 349T116 416H44L66 459H129Q172 579 260 653T457 727Z" horiz-adv-x="580" unicode="€"/>
			<glyph d="M694 738L728 716L157 -29L124 -8ZM277 722Q312 722 341 709T389 671L356 641Q343 659 321 669T276 680Q237 680 205 659T156 603T138 529Q138 484 163 456T238 429Q264 429 288 439T330 468L358 437Q305 386 233 386Q164 386 126 424T88 524Q88 577 112 622T179 695T277 722ZM621 323Q691 323 731 284T772 182Q772 129 749 84T683 14T586 -12Q515 -12 474 26T434 128Q434 181 457 225T523 296T621 323ZM618 281Q578 281 547 260T500 206T483 132Q483 87 510 58T587 30Q627 30 658 50T706 105T723 179Q723 224 696 252T618 281Z" horiz-adv-x="830" unicode="℅"/>
			<glyph d="M402 721Q439 721 463 693T487 623Q487 480 247 276L231 203Q220 159 215 132T210 86Q210 29 269 29Q315 29 367 69H369L384 36Q321 -14 255 -14Q209 -14 181 8T153 76Q153 98 184 236L113 174H111L94 208L195 290L254 564Q272 640 312 680T402 721ZM396 680Q369 680 344 651T308 562L258 330Q329 397 384 475T439 622Q439 648 427 664T396 680Z" horiz-adv-x="500" unicode="ℓ"/>
			<glyph d="M401 730Q504 730 591 679T729 542T780 353Q780 250 729 164T591 28T401 -22Q298 -22 210 28T71 164T20 353Q20 456 71 542T210 679T401 730ZM401 693Q308 693 229 647T105 524T59 353Q59 261 105 183T229 60T401 15Q493 15 571 60T695 183T741 353Q741 446 695 524T572 647T401 693ZM286 567H440Q509 567 552 533T596 433Q596 370 553 332T444 295H336V127H286ZM336 525V338H443Q490 338 518 363T546 433Q546 478 516 501T441 525Z" horiz-adv-x="800" unicode="℗"/>
			<glyph d="M140 708H449V667H317V296H271V667H140ZM544 708H615L756 367L897 708H968V296H921V652H919L770 296H739L593 652H591V296H544Z" horiz-adv-x="1000" unicode="™"/>
			<glyph d="M386 723Q483 723 556 683T670 569T711 390Q711 268 661 186T517 50H736V0H455V52Q553 110 600 188T648 386Q648 475 614 540T522 638T386 672Q311 672 252 637T160 537T127 386Q127 265 175 189T318 52V0H38V50H257Q165 105 114 187T63 390Q63 488 104 563T218 681T386 723Z" horiz-adv-x="747" unicode="Ω"/>
			<glyph d="M302 535Q378 535 436 500T528 402T561 259H157V78Q216 19 302 19Q365 19 411 47T495 139L530 118Q484 46 432 14T302 -17Q225 -17 166 19T76 119T44 259Q44 336 76 399T166 498T302 535ZM301 500Q217 500 157 440V295H448V440Q385 500 301 500Z" horiz-adv-x="587" unicode="℮"/>
			<glyph d="M631 738L663 716L96 -29L65 -8ZM222 709H265L190 285H142L207 654L112 594L92 628ZM589 432Q637 432 668 405T699 331Q699 284 670 255T600 220Q635 211 656 184T678 121Q678 60 637 25T535 -10Q489 -10 454 9T402 63L435 87Q447 60 475 45T535 30Q580 30 606 55T633 120Q633 161 606 181T537 202H517L524 239H544Q595 239 624 262T654 325Q654 359 634 376T584 393Q536 393 497 349L472 378Q517 432 589 432Z" horiz-adv-x="775" unicode="⅓"/>
			<glyph d="M725 738L757 716L190 -29L159 -8ZM250 717Q299 717 330 689T362 617Q362 571 340 540T258 456L109 326H328L315 285H45L52 327L236 488Q282 529 299 555T317 612Q317 642 298 659T246 677Q212 677 183 658T137 606L110 636Q132 675 167 696T250 717ZM684 432Q732 432 763 405T794 331Q794 284 765 255T695 220Q730 211 751 184T773 121Q773 60 732 25T630 -10Q584 -10 549 9T497 63L530 87Q542 60 570 45T630 30Q675 30 701 55T728 120Q728 161 701 181T632 202H612L619 239H639Q690 239 719 262T749 325Q749 359 729 376T679 393Q631 393 592 349L567 378Q612 432 684 432Z" horiz-adv-x="857" unicode="⅔"/>
			<glyph d="M632 738L664 716L97 -29L66 -8ZM222 709H265L190 285H142L207 654L112 594L92 628ZM602 434Q646 434 673 409T700 347Q700 315 680 286T630 240Q659 228 675 203T692 146Q692 103 669 67T608 11T525 -9Q472 -9 437 22T402 101Q402 147 431 185T506 240Q488 252 477 272T467 314Q467 348 486 375T536 418T602 434ZM595 397Q561 397 536 373T511 315Q511 290 528 273T572 257Q605 257 630 282T656 340Q656 364 639 380T595 397ZM565 221Q537 221 510 206T465 165T448 109Q448 74 471 52T531 30Q578 30 612 61T647 141Q647 176 624 198T565 221Z" horiz-adv-x="773" unicode="⅛"/>
			<glyph d="M659 738L691 716L124 -29L93 -8ZM223 717Q272 717 302 690T333 616Q333 568 305 540T235 505Q270 496 291 469T313 405Q313 344 272 309T169 275Q131 275 99 286T47 317L62 363Q104 315 173 315Q216 315 242 339T268 405Q268 446 241 466T172 487H152L158 524H179Q230 524 259 547T289 610Q289 644 269 661T219 678Q172 678 127 639L114 677Q161 717 223 717ZM604 434Q648 434 675 409T702 347Q702 315 682 286T632 240Q661 228 677 203T694 146Q694 103 671 67T610 11T527 -9Q474 -9 439 22T404 101Q404 147 433 185T508 240Q490 252 479 272T469 314Q469 348 488 375T538 418T604 434ZM597 397Q563 397 538 373T513 315Q513 290 530 273T574 257Q607 257 632 282T658 340Q658 364 641 380T597 397ZM567 221Q539 221 512 206T467 165T450 109Q450 74 473 52T533 30Q580 30 614 61T649 141Q649 176 626 198T567 221Z" horiz-adv-x="768" unicode="⅜"/>
			<glyph d="M659 738L691 716L124 -29L93 -8ZM152 708H361L351 668H187L163 545Q189 554 213 554Q268 554 303 521T338 434Q338 365 294 320T181 276Q142 276 109 287T56 317L70 362Q89 341 118 328T181 316Q230 316 261 348T292 430Q292 468 267 492T201 517Q158 517 110 492ZM604 434Q648 434 675 409T702 347Q702 315 682 286T632 240Q661 228 677 203T694 146Q694 103 671 67T610 11T527 -9Q474 -9 439 22T404 101Q404 147 433 185T508 240Q490 252 479 272T469 314Q469 348 488 375T538 418T604 434ZM597 397Q563 397 538 373T513 315Q513 290 530 273T574 257Q607 257 632 282T658 340Q658 364 641 380T597 397ZM567 221Q539 221 512 206T467 165T450 109Q450 74 473 52T533 30Q580 30 614 61T649 141Q649 176 626 198T567 221Z" horiz-adv-x="768" unicode="⅝"/>
			<glyph d="M622 738L654 716L87 -29L56 -8ZM143 708H396L390 675L135 285H82L335 668H136ZM597 434Q641 434 668 409T695 347Q695 315 675 286T625 240Q654 228 670 203T687 146Q687 103 664 67T603 11T520 -9Q467 -9 432 22T397 101Q397 147 426 185T501 240Q483 252 472 272T462 314Q462 348 481 375T531 418T597 434ZM590 397Q556 397 531 373T506 315Q506 290 523 273T567 257Q600 257 625 282T651 340Q651 364 634 380T590 397ZM560 221Q532 221 505 206T460 165T443 109Q443 74 466 52T526 30Q573 30 607 61T642 141Q642 176 619 198T560 221Z" horiz-adv-x="768" unicode="⅞"/>
			<glyph d="M221 723Q346 723 403 622T460 364Q460 180 402 82T238 -15Q181 -15 136 15T67 96T43 210Q43 275 67 323T135 398T235 424Q285 424 330 399T403 331Q405 377 405 394Q403 517 355 595T222 674Q188 674 161 663T107 627L78 667Q110 696 145 709T221 723ZM241 375Q175 375 138 326T101 209Q101 166 117 125T164 59T240 34Q319 34 356 109T399 280Q368 323 327 349T241 375Z" horiz-adv-x="513" unicode="∂"/>
			<glyph d="M265 713H325L583 29V0H6V30ZM294 657Q273 594 258 553L70 49H519L333 548Q318 588 294 657Z" horiz-adv-x="625" unicode="∆"/>
			<glyph d="M81 786H634V-214H578V736H137V-214H81Z" horiz-adv-x="714" unicode="∏"/>
			<glyph d="M50 786H561V736H120L432 290L106 -164H572V-214H37V-168L365 290L50 739Z" horiz-adv-x="608" unicode="∑"/>
			<glyph d="M89 329H577V282H89Z" horiz-adv-x="666" unicode="−"/>
			<glyph d="M321 738L353 716L-214 -29L-245 -8Z" horiz-adv-x="100" unicode="∕"/>
			<glyph d="M136 321Q154 321 165 309T177 280Q177 260 164 246T132 232Q114 232 102 243T90 273Q90 293 103 307T136 321Z" horiz-adv-x="255" unicode="∙"/>
			<glyph d="M443 786H497L287 -215H231L68 135L12 107L-9 151L94 199L250 -141Z" horiz-adv-x="496" unicode="√"/>
			<glyph d="M195 398Q241 398 286 365T379 281Q426 333 470 365T561 398Q621 398 659 357T697 252Q697 188 659 146T562 105Q516 105 470 137T379 218Q324 163 284 134T198 105Q137 105 98 145T60 251Q60 315 97 356T195 398ZM562 352Q529 352 493 327T408 250Q460 198 494 174T563 150Q603 150 627 179T651 250Q651 294 627 323T562 352ZM195 352Q155 352 131 322T107 250Q107 208 131 179T196 150Q229 150 265 175T349 250Q299 301 263 326T195 352Z" horiz-adv-x="747" unicode="∞"/>
			<glyph d="M344 779Q369 779 388 767T408 734Q408 719 399 710T376 702Q366 702 360 707T347 723Q336 740 326 740Q305 740 294 697T284 608V517L282 11Q282 -95 256 -151T169 -208Q144 -208 125 -196T107 -163Q107 -150 116 -141T139 -132Q148 -132 154 -137T167 -153Q173 -162 177 -166T187 -170Q208 -170 219 -126T230 -21Q230 -13 229 1T229 42L232 533Q232 625 241 677T274 754T344 779Z" horiz-adv-x="554" unicode="∫"/>
			<glyph d="M533 422H571Q565 365 533 328T442 291Q413 291 380 300T297 328Q247 345 221 352T174 360Q98 360 84 280H46Q52 336 82 372T172 409Q202 409 235 399T317 373Q367 356 394 348T445 341Q486 341 506 363T533 422ZM532 233H571Q564 177 533 140T442 103Q413 103 380 112T296 140Q253 156 224 164T174 173Q132 173 110 150T84 91H45Q52 147 82 184T171 222Q201 222 234 213T317 186Q361 170 390 161T445 153Q518 153 532 233Z" horiz-adv-x="666" unicode="≈"/>
			<glyph d="M430 547L474 526L411 400H571V352H385L317 217H571V169H292L211 9L168 31L239 169H87V217H264L331 352H87V400H356Z" horiz-adv-x="666" unicode="≠"/>
			<glyph d="M575 567V515L155 330L575 145V93L91 306V354ZM91 53H575V5H91Z" horiz-adv-x="666" unicode="≤"/>
			<glyph d="M91 567L575 354V306L91 93V145L511 330L91 515ZM91 53H575V5H91Z" horiz-adv-x="666" unicode="≥"/>
			<glyph d="M271 747H322L491 356L322 -35H271L105 356ZM296 696L158 356L296 16L436 356Z" horiz-adv-x="595" unicode="◊"/>
			<glyph d="M0 718H512V0H0ZM50 667V50H462V667ZM259 609Q313 609 348 573T383 478Q383 445 370 418T320 358Q294 334 284 320T273 292T271 234H225L223 251Q223 289 228 311T245 349T282 391Q313 422 322 438T332 474Q332 510 309 534T256 559Q223 559 201 536T174 464L124 472Q131 541 167 575T259 609ZM222 184H278V117H222Z" horiz-adv-x="512" unicode=""/>
			<glyph d="M346 769Q369 769 393 765T430 757L413 709Q377 720 340 720Q293 720 266 687T229 603L205 468H427L451 604Q465 689 511 729T625 769Q648 769 672 765T709 757L693 709Q680 713 659 716T620 720Q572 720 545 687T508 603L485 468H607L588 423H478L403 0H346L421 423H199L123 0H67L142 423H45L65 468H148L172 604Q186 689 232 729T346 769Z" horiz-adv-x="578" unicode="ﬀ"/>
			<glyph d="M346 769Q369 769 393 765T430 757L413 709Q377 720 340 720Q293 720 266 687T229 603L205 468H328L309 423H199L123 0H67L142 423H45L65 468H148L172 604Q186 689 232 729T346 769ZM480 697Q497 697 507 686T518 659Q518 640 506 627T476 614Q459 614 448 624T437 652Q437 671 450 684T480 697ZM421 468H479L396 0H339Z" horiz-adv-x="535" unicode="ﬁ"/>
			<glyph d="M346 769Q369 769 393 765T430 757L413 709Q377 720 340 720Q293 720 266 687T229 603L205 468H328L309 423H199L123 0H67L142 423H45L65 468H148L172 604Q186 689 232 729T346 769ZM531 762L417 117Q414 101 414 88Q413 69 420 57T445 36L411 -11Q384 -1 368 21T353 75Q353 92 356 104L470 751Z" horiz-adv-x="535" unicode="ﬂ"/>
			<glyph d="M346 769Q369 769 393 765T430 757L413 709Q377 720 340 720Q293 720 266 687T229 603L205 468H427L451 604Q465 689 511 729T625 769Q648 769 672 765T709 757L693 709Q680 713 659 716T620 720Q572 720 545 687T508 603L485 468H607L588 423H478L403 0H346L421 423H199L123 0H67L142 423H45L65 468H148L172 604Q186 689 232 729T346 769ZM761 697Q778 697 788 686T799 659Q799 640 787 627T757 614Q740 614 729 624T718 652Q718 671 731 684T761 697ZM702 468H760L677 0H620Z" horiz-adv-x="816" unicode="ﬃ"/>
			<glyph d="M346 769Q369 769 393 765T430 757L413 709Q377 720 340 720Q293 720 266 687T229 603L205 468H427L451 604Q465 689 511 729T625 769Q648 769 672 765T709 757L693 709Q680 713 659 716T620 720Q572 720 545 687T508 603L485 468H607L588 423H478L403 0H346L421 423H199L123 0H67L142 423H45L65 468H148L172 604Q186 689 232 729T346 769ZM812 762L698 117Q695 101 695 88Q694 69 701 57T726 36L692 -11Q665 -1 649 21T634 75Q634 92 637 104L751 751Z" horiz-adv-x="816" unicode="ﬄ"/>
		</font>
</defs>
</svg>
