<?xml version="1.0" encoding="UTF-8"?>
<svg height="100%" width="100%" xmlns="http://www.w3.org/2000/svg">
	<defs>
		<font horiz-adv-x="300" id="web">
			<font-face alphabetic="0" ascent="968" descent="-253" font-family="" panose-1="2 0 8 7 0 0 0 0 0 4"/>
			<missing-glyph d="M0 718H512V0H0ZM50 667V50H462V667ZM259 609Q313 609 348 573T383 478Q383 445 370 418T320 358Q294 334 284 320T273 292T271 234H225L223 251Q223 289 228 311T245 349T282 391Q313 422 322 438T332 474Q332 510 309 534T256 559Q223 559 201 536T174 464L124 472Q131 541 167 575T259 609ZM222 184H278V117H222Z" horiz-adv-x="512"/>
			<glyph d="" horiz-adv-x="250" unicode=" "/>
			<glyph d="M163 708H327L243 236H80ZM147 176Q186 176 211 152T236 92Q236 50 208 21T139 -8Q99 -8 74 15T49 76Q49 118 77 147T147 176Z" horiz-adv-x="353" unicode="!"/>
			<glyph d="M146 708H274L225 438H98ZM339 708H466L418 438H291Z" horiz-adv-x="490" unicode="&quot;"/>
			<glyph d="M271 708H379L316 507H396L460 708H568L504 507H589L571 405H471L439 303H524L506 201H408L343 0H235L299 201H218L154 0H46L110 201H25L43 303H141L175 405H90L107 507H207ZM283 405L250 303H331L364 405Z" horiz-adv-x="601" unicode="#"/>
			<glyph d="M368 790H439L428 725Q480 720 525 705T601 669L543 538Q519 556 478 571T404 591L375 422Q467 389 513 341T559 218Q559 144 522 92T426 14T299 -18L287 -84H217L228 -18Q167 -13 111 5T17 50L70 198Q107 165 156 144T252 120L283 299L274 302Q194 329 150 371T106 492Q106 557 138 607T228 688T357 724ZM332 582Q307 572 291 553T276 506Q276 473 309 451ZM348 267L324 127Q351 136 367 155T384 205Q384 242 348 267Z" horiz-adv-x="644" unicode="$"/>
			<glyph d="M699 740L771 694L224 -35L153 11ZM273 720Q348 720 395 676T442 563Q442 504 415 455T340 378T233 350Q159 350 111 393T63 508Q63 567 90 615T165 692T273 720ZM264 617Q226 617 201 589T177 521Q177 492 194 472T241 453Q280 453 304 480T329 550Q329 578 311 597T264 617ZM695 359Q770 359 817 315T865 202Q865 143 838 94T763 17T656 -11Q582 -11 534 32T486 147Q486 205 513 254T588 331T695 359ZM687 256Q649 256 624 228T600 160Q600 131 617 111T663 92Q703 92 727 119T751 189Q751 217 733 236T687 256Z" horiz-adv-x="908" unicode="%"/>
			<glyph d="M380 727Q470 727 526 681T582 556Q582 491 537 444T409 361L482 274L558 379H741L574 177L725 0H527L470 72Q374 -14 257 -14Q153 -14 86 35T20 179Q20 257 70 312T207 399Q185 427 173 461T161 529Q161 585 189 630T268 701T380 727ZM380 611Q347 611 325 589T304 534Q304 512 314 488T340 449Q385 465 413 491T441 549Q441 577 424 594T380 611ZM279 303Q180 270 180 194Q180 160 206 138T269 116Q334 116 384 174Z" horiz-adv-x="777" unicode="&amp;"/>
			<glyph d="M145 708H272L225 438H98Z" horiz-adv-x="296" unicode="'"/>
			<glyph d="M250 742L348 681Q245 566 191 433T138 171Q138 95 156 17T208 -121L94 -165Q54 -95 33 -7T12 170Q12 322 73 469T250 742Z" horiz-adv-x="342" unicode="("/>
			<glyph d="M239 742Q278 673 299 585T321 407Q321 255 260 108T83 -164L-15 -104Q88 12 141 144T195 406Q195 482 177 559T125 698Z" horiz-adv-x="342" unicode=")"/>
			<glyph d="M231 708H338V576L467 617L500 520L371 480L452 371L364 310L282 420L203 313L117 375L199 480L68 524L102 621L231 577Z" horiz-adv-x="486" unicode="*"/>
			<glyph d="M268 575H398V366H611V240H399V31H269V240H56V366H268Z" horiz-adv-x="666" unicode="+"/>
			<glyph d="M128 177Q166 177 191 151T216 88Q216 4 162 -64T35 -170L-16 -124Q21 -101 50 -69T94 -1Q65 6 47 27T30 79Q30 120 58 148T128 177Z" unicode=","/>
			<glyph d="M38 324H290L268 197H15Z" horiz-adv-x="326" unicode="-"/>
			<glyph d="M113 180Q152 180 177 155T203 94Q203 52 174 22T104 -7Q63 -7 37 17T12 78Q12 121 41 150T113 180Z" unicode="."/>
			<glyph d="M380 760L484 723L38 -51L-65 -15Z" horiz-adv-x="413" unicode="/"/>
			<glyph d="M379 726Q501 726 559 653T617 471Q617 358 583 246T475 58T283 -18Q160 -18 101 53T42 234Q42 347 76 460T187 649T379 726ZM366 590Q320 590 283 540T226 414T206 259Q206 197 227 159T292 121Q337 121 373 169T429 294T449 452Q449 514 429 552T366 590Z" horiz-adv-x="638" unicode="0"/>
			<glyph d="M361 708H515L390 0H226L319 525L169 427L108 551Z" horiz-adv-x="638" unicode="1"/>
			<glyph d="M378 727Q447 727 501 703T587 635T619 530Q619 475 598 433T544 360T453 283L273 142H571L526 0H21L45 138L364 387Q408 423 428 452T449 510Q449 545 427 565T364 586Q323 586 276 559T199 498L127 620Q165 666 227 696T378 727Z" horiz-adv-x="638" unicode="2"/>
			<glyph d="M362 727Q423 727 475 706T560 643T592 539Q592 471 550 428T452 371V369Q502 355 531 315T561 222Q561 146 521 91T415 9T272 -19Q191 -19 121 6T6 69L65 205Q105 172 164 146T274 120Q324 120 359 146T395 214Q395 263 358 284T263 306H219L239 426H290Q357 426 393 451T429 523Q429 555 404 574T343 593Q306 593 257 571T166 518L120 646Q171 685 229 706T362 727Z" horiz-adv-x="638" unicode="3"/>
			<glyph d="M384 708H589L512 272H622L579 139H492L468 0H316L339 139H7L32 280ZM407 548L188 272H361L411 548Z" horiz-adv-x="638" unicode="4"/>
			<glyph d="M182 708H620L574 568H298L272 452Q304 459 339 459Q396 459 447 438T530 370T563 251Q563 164 523 103T418 11T279 -19Q200 -19 134 1T28 52L79 185Q120 158 174 139T274 121Q330 121 363 152T397 235Q397 287 361 312T270 337Q232 337 185 327T96 302Z" horiz-adv-x="638" unicode="5"/>
			<glyph d="M448 719Q501 719 546 710T618 689L564 555Q545 563 511 571T446 579Q372 579 314 535T236 417Q273 439 305 449T375 459Q440 459 489 433T565 361T592 258Q592 183 556 120T453 19T293 -18Q220 -18 163 13T73 105T40 247Q40 383 95 491T243 659T448 719ZM329 345Q270 345 234 307T198 213Q198 169 228 142T300 115Q358 115 392 151T426 247Q426 292 397 318T329 345Z" horiz-adv-x="638" unicode="6"/>
			<glyph d="M146 708H642L619 577L234 0H35L435 567H102Z" horiz-adv-x="638" unicode="7"/>
			<glyph d="M381 726Q473 726 536 681T600 549Q600 476 558 431T457 369L458 366Q502 350 533 309T564 216Q564 144 528 91T429 10T283 -18Q224 -18 170 1T80 64T45 179Q45 231 68 273T128 343T209 379V382Q171 400 147 435T124 514Q124 583 160 630T256 702T381 726ZM366 599Q324 599 297 572T271 506Q271 473 292 452T349 431Q390 431 418 456T446 524Q446 559 424 579T366 599ZM318 307Q266 307 233 276T201 199Q201 156 227 134T290 112Q346 112 376 142T407 220Q407 259 382 283T318 307Z" horiz-adv-x="638" unicode="8"/>
			<glyph d="M354 719Q428 719 488 686T583 591T618 440Q618 310 563 205T414 41T210 -18Q157 -18 112 -9T40 12L94 146Q113 138 146 130T212 122Q286 122 343 166T422 284Q385 262 353 252T283 242Q218 242 168 269T92 344T66 449Q66 524 101 585T201 683T354 719ZM358 586Q300 586 266 550T232 454Q232 409 261 382T329 356Q388 356 424 393T460 488Q460 532 430 559T358 586Z" horiz-adv-x="638" unicode="9"/>
			<glyph d="M184 501Q222 501 247 477T272 419Q272 378 244 349T176 320Q137 320 112 343T87 403Q87 445 115 473T184 501ZM128 177Q166 177 191 153T216 94Q216 54 188 25T119 -4Q80 -4 55 19T30 79Q30 120 58 148T128 177Z" horiz-adv-x="330" unicode=":"/>
			<glyph d="M184 501Q222 501 247 477T272 419Q272 378 244 349T176 320Q137 320 112 343T87 403Q87 445 115 473T184 501ZM128 177Q166 177 191 151T216 88Q216 4 162 -64T35 -170L-16 -124Q21 -101 50 -69T94 -1Q65 6 47 27T30 79Q30 120 58 148T128 177Z" horiz-adv-x="330" unicode=";"/>
			<glyph d="M587 568V432L281 301L587 174V37L79 251V354Z" horiz-adv-x="666" unicode="&lt;"/>
			<glyph d="M68 458H598V335H68ZM68 273H598V150H68Z" horiz-adv-x="666" unicode="="/>
			<glyph d="M79 568L587 354V251L79 37V174L385 301L79 432Z" horiz-adv-x="666" unicode="&gt;"/>
			<glyph d="M333 727Q394 727 446 707T531 647T563 546Q563 481 529 437T418 345Q379 319 364 300T344 250L340 224H188L194 263Q203 313 226 345T299 414Q345 448 363 464T389 494T396 528Q396 589 322 589Q285 589 241 567T167 514L96 632Q137 674 197 700T333 727ZM256 176Q295 176 320 152T345 92Q345 50 317 21T248 -8Q208 -8 183 15T158 76Q158 118 186 147T256 176Z" horiz-adv-x="543" unicode="?"/>
			<glyph d="M465 726Q560 726 634 693T751 596T794 447Q794 369 763 303T675 198T545 160Q507 160 483 176T457 220V224H454Q436 198 404 179T334 160Q273 160 239 194T206 286Q206 348 235 410T317 513T436 554Q474 554 498 538T527 500H528L541 534H647L587 375Q578 350 569 322T560 281Q560 267 565 262T585 257Q615 257 639 281T678 346T693 438Q693 535 630 585T463 636Q369 636 295 592T179 473T138 307Q138 197 209 135T401 73Q524 73 628 156L678 88Q624 38 548 10T389 -18Q279 -18 197 20T72 131T28 299Q28 419 86 516T244 670T465 726ZM429 459Q404 459 379 435T339 377T324 309Q324 286 336 272T372 258Q400 258 425 281T464 339T479 405Q479 459 429 459Z" horiz-adv-x="800" unicode="@"/>
			<glyph d="M368 708H530L664 0H489L461 165H206L107 0H-83ZM411 526L277 299H444Z" horiz-adv-x="710" unicode="A"/>
			<glyph d="M143 708H420Q505 708 566 670T627 553Q627 484 586 437T476 372V370Q532 361 567 320T603 219Q603 114 520 57T300 0H18ZM277 575L251 423H353Q396 423 429 443T463 510Q463 543 437 559T368 575ZM229 303L200 134H297Q359 134 398 157T437 231Q437 265 411 284T337 303Z" horiz-adv-x="664" unicode="B"/>
			<glyph d="M461 727Q531 727 601 705T708 655L646 511Q615 538 563 558T457 578Q389 578 334 540T249 441T219 309Q219 233 265 182T393 132Q506 132 618 214V55Q572 22 506 1T366 -19Q268 -19 194 19T81 127T41 289Q41 410 96 510T247 668T461 727Z" horiz-adv-x="684" unicode="C"/>
			<glyph d="M143 708H405Q490 708 566 676T690 578T739 410Q739 288 683 195T529 51T307 0H18ZM281 567L207 144H314Q394 144 451 178T537 269T566 390Q566 468 517 517T372 567Z" horiz-adv-x="769" unicode="D"/>
			<glyph d="M143 708H596L551 566H277L253 429H523L479 295H229L203 143H525L480 0H18Z" horiz-adv-x="577" unicode="E"/>
			<glyph d="M143 708H598L553 566H282L255 415H520L476 278H231L182 0H18Z" horiz-adv-x="561" unicode="F"/>
			<glyph d="M460 727Q537 727 607 705T729 649L668 517Q627 543 570 562T457 581Q390 581 334 543T246 443T214 308Q214 227 263 176T401 126Q464 128 504 147L527 280H389L434 417H705L640 43Q585 14 516 -2T379 -19Q278 -19 201 18T83 126T41 289Q41 410 95 510T246 668T460 727Z" horiz-adv-x="749" unicode="G"/>
			<glyph d="M143 708H309L261 439H577L624 708H791L666 0H500L552 298H237L184 0H18Z" horiz-adv-x="797" unicode="H"/>
			<glyph d="M143 708H310L185 0H18Z" horiz-adv-x="315" unicode="I"/>
			<glyph d="M266 708H434L350 239Q330 126 275 53T95 -19Q55 -19 22 -10L2 142Q48 131 94 131Q135 131 155 159T184 240Z" horiz-adv-x="433" unicode="J"/>
			<glyph d="M143 708H306L253 411L537 708H749L402 371L654 0H447L239 333L181 0H18Z" horiz-adv-x="679" unicode="K"/>
			<glyph d="M143 708H310L210 145H488L442 0H18Z" horiz-adv-x="525" unicode="L"/>
			<glyph d="M143 708H376L458 249L701 708H948L823 0H660L753 507L474 0H357L259 507L174 0H18Z" horiz-adv-x="953" unicode="M"/>
			<glyph d="M143 708H330L524 241H526L606 708H770L645 0H460L265 470H262L182 0H18Z" horiz-adv-x="789" unicode="N"/>
			<glyph d="M460 726Q565 726 642 687T761 578T802 413Q802 294 749 195T601 39T386 -18Q280 -18 202 20T82 129T41 295Q41 414 95 512T245 668T460 726ZM449 578Q379 578 325 540T243 440T214 310Q214 260 235 219T297 155T395 132Q466 132 519 169T600 269T629 400Q629 450 608 490T546 554T449 578Z" horiz-adv-x="831" unicode="O"/>
			<glyph d="M143 708H376Q500 708 567 656T634 511Q634 388 551 328T322 269H231L183 0H18ZM285 573L254 401H325Q393 401 430 423T467 494Q467 538 437 555T353 573Z" horiz-adv-x="637" unicode="P"/>
			<glyph d="M455 726Q554 726 630 690T748 587T791 427Q791 335 753 254T649 133L648 130L798 133L754 0H377Q279 0 203 36T84 139T41 300Q41 418 95 515T244 669T455 726ZM447 579Q380 579 326 543T243 447T213 319Q213 241 261 192T387 144Q453 144 506 180T589 276T619 406Q619 483 572 531T447 579Z" horiz-adv-x="831" unicode="Q"/>
			<glyph d="M143 708H385Q501 708 567 658T633 520Q633 436 586 380T459 305L603 0H415L296 285H228L180 0H18ZM280 572L250 404H324Q392 404 428 427T465 496Q465 537 435 554T351 572Z" horiz-adv-x="656" unicode="R"/>
			<glyph d="M364 726Q426 726 481 709T573 669L515 538Q488 558 442 575T362 592Q315 592 281 570T248 506Q248 478 269 460T337 426Q434 392 482 343T531 218Q531 138 488 84T378 6T239 -19Q168 -19 101 0T-11 50L42 198Q83 162 138 140T242 119Q290 119 323 140T356 205Q356 239 328 261T246 302Q166 329 122 371T78 492Q78 562 116 615T219 697T364 726Z" horiz-adv-x="585" unicode="S"/>
			<glyph d="M85 708H638L593 565H404L304 0H138L237 565H39Z" horiz-adv-x="553" unicode="T"/>
			<glyph d="M135 708H300L224 279Q221 260 221 238Q221 190 250 158T340 127Q415 127 449 169T495 277L572 708H736L658 260Q635 129 553 55T331 -18Q247 -18 183 9T86 86T52 203Q52 231 57 264Z" horiz-adv-x="737" unicode="U"/>
			<glyph d="M62 708H239L294 202H298L574 708H767L345 0H170Z" horiz-adv-x="674" unicode="V"/>
			<glyph d="M71 708H247L268 232H271L491 708H663L701 232H704L915 708H1090L750 0H584L536 484H533L298 0H133Z" horiz-adv-x="1014" unicode="W"/>
			<glyph d="M98 708H285L374 484L554 708H755L455 370L630 0H439L334 253L128 0H-78L254 374Z" horiz-adv-x="687" unicode="X"/>
			<glyph d="M35 708H221L322 440L525 708H727L383 301L329 0H163L216 301Z" horiz-adv-x="613" unicode="Y"/>
			<glyph d="M124 708H648L624 574L207 145H578L532 0H-31L-6 144L406 566H99Z" horiz-adv-x="620" unicode="Z"/>
			<glyph d="M119 732H334L316 633H227L106 -57H195L177 -156H-37Z" horiz-adv-x="342" unicode="["/>
			<glyph d="M114 762L422 -15L309 -52L1 723Z" horiz-adv-x="415" unicode="\"/>
			<glyph d="M146 732H360L203 -156H-10L7 -57H96L218 633H129Z" horiz-adv-x="342" unicode="]"/>
			<glyph d="M286 708H404L616 343H468L344 556L221 343H73Z" horiz-adv-x="690" unicode="^"/>
			<glyph d="M0 -75H500V-164H0Z" horiz-adv-x="500" unicode="_"/>
			<glyph d="M10 716H173L282 572H162Z" unicode="`"/>
			<glyph d="M295 513Q389 513 446 472T503 352Q503 321 497 291L463 97Q453 40 453 0H311Q311 19 315 53H313Q258 -12 161 -12Q99 -12 53 20T7 120Q7 314 349 314Q351 326 351 337Q351 393 273 393Q238 393 190 379T114 347L86 463Q181 513 295 513ZM326 218Q153 218 153 146Q153 118 171 106T219 95Q264 95 295 123T335 194L340 218Z" horiz-adv-x="559" unicode="a"/>
			<glyph d="M304 759L245 434H247Q273 470 315 490T406 511Q469 511 515 483T587 407T612 297Q612 212 576 141T478 29T337 -12Q284 -12 239 10T172 71H170L158 0H10L140 740ZM350 382Q311 382 278 360T227 301T209 222Q209 176 237 146T314 117Q376 117 414 162T453 276Q453 323 426 352T350 382Z" horiz-adv-x="659" unicode="b"/>
			<glyph d="M326 513Q370 513 416 497T496 459L432 342Q405 360 375 371T322 383Q280 383 246 361T194 304T175 226Q175 180 202 149T283 119Q355 119 419 169L440 41Q411 16 365 1T262 -14Q190 -14 135 13T50 90T20 205Q20 286 58 357T167 470T326 513Z" horiz-adv-x="500" unicode="c"/>
			<glyph d="M667 759L533 0H386L398 68H395Q369 30 324 9T226 -12Q163 -12 116 15T45 91T20 202Q20 286 55 357T154 469T295 511Q349 511 389 490T450 434H452L504 740ZM319 382Q257 382 218 336T179 223Q179 177 206 147T282 118Q322 118 354 139T404 197T423 277Q423 323 394 352T319 382Z" horiz-adv-x="656" unicode="d"/>
			<glyph d="M320 513Q420 513 480 457T540 303Q540 284 536 256T527 206H170Q169 202 169 197Q169 156 206 132T297 108Q338 108 382 120T464 152L476 32Q439 11 384 -2T265 -15Q195 -15 139 11T52 87T20 209Q20 293 58 362T165 472T320 513ZM307 401Q258 401 224 370T181 304H397Q398 311 398 324Q398 358 373 379T307 401Z" horiz-adv-x="587" unicode="e"/>
			<glyph d="M367 775Q392 775 423 770T472 759L434 631Q422 635 402 638T366 642Q300 642 287 551L278 498H410L369 378H259L192 0H35L102 378H11L52 498H120L129 546Q148 665 202 720T367 775Z" horiz-adv-x="361" unicode="f"/>
			<glyph d="M300 511Q354 511 394 490T456 432H459L470 498H621L542 46Q517 -97 441 -168T223 -240Q161 -240 94 -222T-12 -178L36 -48Q127 -110 222 -110Q296 -110 333 -73T383 29L390 62H387Q365 33 324 14T234 -5Q137 -5 80 52T24 203Q24 288 59 358T158 470T300 511ZM323 383Q281 383 249 361T199 302T182 223Q182 178 208 148T285 118Q325 118 358 140T409 199T428 278Q428 325 399 354T323 383Z" horiz-adv-x="656" unicode="g"/>
			<glyph d="M305 759L247 433H249Q272 466 311 488T397 511Q476 511 516 468T556 360Q556 327 551 306L497 0H337L384 270Q389 293 389 312Q389 342 373 360T323 379Q281 379 253 347T218 268L170 0H10L141 740Z" horiz-adv-x="615" unicode="h"/>
			<glyph d="M208 745Q245 745 269 722T293 665Q293 625 266 597T200 569Q162 569 137 592T113 649Q113 689 140 717T208 745ZM98 498H259L170 0H11Z" horiz-adv-x="294" unicode="i"/>
			<glyph d="M211 745Q248 745 272 722T296 665Q296 625 269 597T203 569Q165 569 140 592T116 649Q116 689 143 717T211 745ZM101 498H262L171 -19Q152 -125 102 -184T-59 -244Q-96 -244 -128 -235L-99 -102Q-84 -107 -65 -107Q-31 -107 -14 -84T10 -19Z" horiz-adv-x="297" unicode="j"/>
			<glyph d="M305 759L222 296H225L414 498H616L376 265L526 0H357L218 251H215L170 0H10L140 740Z" horiz-adv-x="572" unicode="k"/>
			<glyph d="M310 776L215 235Q211 209 211 199Q210 167 220 145T255 102L137 -20Q40 38 40 158Q40 183 45 215L141 756Z" horiz-adv-x="295" unicode="l"/>
			<glyph d="M392 511Q449 511 485 487T536 423Q600 511 701 511Q782 511 824 465T866 354Q866 327 862 307L807 0H647L694 270Q699 293 699 312Q699 343 683 361T634 380Q594 380 567 347T533 268L486 0H325L375 285Q378 300 378 313Q378 344 363 362T318 380Q279 380 252 348T218 270L170 0H10L79 395Q89 445 94 498H247L242 456L239 426Q268 466 307 488T392 511Z" horiz-adv-x="925" unicode="m"/>
			<glyph d="M397 511Q476 511 516 468T556 360Q556 327 551 306L497 0H337L384 270Q389 293 389 312Q389 342 373 360T323 379Q281 379 253 348T218 270L170 0H10L79 395Q89 445 94 498H247L243 459Q242 453 239 426H241Q266 465 306 488T397 511Z" horiz-adv-x="615" unicode="n"/>
			<glyph d="M324 513Q397 513 455 486T547 409T580 294Q580 210 542 139T435 27T273 -14Q201 -14 143 13T53 89T20 205Q20 288 57 358T164 471T324 513ZM317 382Q276 382 244 360T194 301T177 222Q177 176 205 147T281 118Q323 118 355 139T404 197T422 277Q422 323 393 352T317 382Z" horiz-adv-x="626" unicode="o"/>
			<glyph d="M402 510Q466 510 513 482T586 406T611 296Q611 211 575 140T476 27T335 -14Q281 -14 241 6T180 62H178L126 -240H-34L96 498H248L236 429H239Q267 467 310 488T402 510ZM349 381Q309 381 276 359T225 300T207 221Q207 175 235 145T312 116Q374 116 412 161T451 275Q451 321 424 351T349 381Z" horiz-adv-x="657" unicode="p"/>
			<glyph d="M295 511Q346 511 389 488T455 426H457L470 498H621L534 6Q530 -22 530 -31Q530 -60 541 -80T579 -122L461 -244Q416 -217 392 -177T368 -75Q368 -45 374 -7L387 62H385Q359 27 318 7T227 -12Q164 -12 117 15T44 91T19 202Q19 286 55 357T154 469T295 511ZM318 382Q256 382 217 336T178 223Q178 177 205 147T281 118Q321 118 353 139T404 197T423 277Q423 323 394 352T318 382Z" horiz-adv-x="655" unicode="q"/>
			<glyph d="M383 511Q401 511 417 507L371 365Q354 370 331 370Q276 370 247 334T213 256L168 0H8L79 395Q89 445 94 498H246Q244 467 237 425H239Q296 511 383 511Z" horiz-adv-x="379" unicode="r"/>
			<glyph d="M266 513Q319 513 367 496T443 453L367 353Q345 371 314 384T257 397Q228 397 208 386T188 353Q188 337 203 327T253 308Q328 288 366 253T404 158Q404 100 372 61T290 3T180 -16Q123 -16 70 -2T-9 32L33 149Q98 102 180 102Q213 102 233 114T254 147Q254 166 237 177T183 200Q109 222 75 253T41 340Q41 393 71 432T153 492T266 513Z" horiz-adv-x="464" unicode="s"/>
			<glyph d="M303 645L277 498H423L381 377H258L222 182Q219 155 219 151Q219 135 229 125T261 115Q279 115 300 119T337 128L355 16Q290 -12 214 -12Q164 -12 129 7T78 55T61 116Q61 145 66 172L102 377H20L62 498H121L138 595Z" horiz-adv-x="415" unicode="t"/>
			<glyph d="M86 498H247L199 228Q195 200 195 186Q195 156 211 137T261 119Q302 119 329 150T366 229L414 498H574L504 103Q494 53 489 0H337L342 42L345 72H342Q318 34 277 10T186 -13Q108 -13 68 30T28 139Q28 171 33 193Z" horiz-adv-x="614" unicode="u"/>
			<glyph d="M27 498H196L237 171H240L413 498H587L293 0H119Z" horiz-adv-x="554" unicode="v"/>
			<glyph d="M29 498H196L220 180H223L377 498H538L568 180H571L724 498H892L620 0H459L422 313H420L258 0H97Z" horiz-adv-x="856" unicode="w"/>
			<glyph d="M42 498H217L286 362L405 498H592L363 258L507 0H330L252 153L116 0H-77L175 261Z" horiz-adv-x="562" unicode="x"/>
			<glyph d="M32 498H207L259 172L424 498H594L292 -31Q236 -133 170 -178T6 -240L-24 -105Q39 -94 78 -73T140 -10L147 2Z" horiz-adv-x="556" unicode="y"/>
			<glyph d="M88 498H500L479 378L191 124H460L418 0H-23L-1 125L282 376H47Z" horiz-adv-x="509" unicode="z"/>
			<glyph d="M288 732H370L352 627H305Q258 627 248 567L219 400Q210 348 174 320T106 289V287Q134 284 157 263T181 198Q181 181 179 172L150 9Q148 -9 148 -16Q148 -51 185 -51H232L214 -156H132Q79 -156 48 -126T18 -45Q18 -28 21 -8L50 159Q52 172 52 191Q52 214 35 223T-4 233L16 343Q83 343 95 413L125 584Q137 651 181 691T288 732Z" horiz-adv-x="342" unicode="{"/>
			<glyph d="M55 750H186V-250H56Z" horiz-adv-x="241" unicode="|"/>
			<glyph d="M122 732H204Q257 732 287 702T318 621Q318 604 315 584L286 417Q284 407 284 402Q284 371 299 357T340 343L320 233Q253 233 241 163L211 -8Q199 -75 154 -115T48 -156H-34L-16 -51H31Q78 -51 88 9L117 176Q126 228 161 255T230 287V289Q202 292 178 313T155 378Q155 395 157 404L186 567Q188 585 188 592Q188 627 151 627H104Z" horiz-adv-x="342" unicode="}"/>
			<glyph d="M222 394Q280 394 342 357Q377 337 400 327T441 317Q466 317 485 335T528 388L593 285Q566 239 534 212T454 185Q424 185 399 194T342 223T286 252T235 261Q207 261 187 243T151 191L85 295Q136 394 222 394Z" horiz-adv-x="666" unicode="~"/>
			<glyph d="" horiz-adv-x="250" unicode=" "/>
			<glyph d="M192 516Q232 516 257 492T283 432Q283 390 254 361T184 332Q145 332 120 356T95 416Q95 458 123 487T192 516ZM88 272H252L168 -200H5Z" horiz-adv-x="353" unicode="¡"/>
			<glyph d="M361 574H436L424 509Q514 499 559 443L463 342Q455 356 438 366T401 381L355 116Q403 122 440 158L510 59Q475 28 429 8T332 -14L320 -79H246L258 -12Q169 2 118 58T67 203Q67 282 102 350T202 462T350 510ZM328 379Q280 371 247 327T215 222Q215 184 231 155T281 120Z" horiz-adv-x="644" unicode="¢"/>
			<glyph d="M503 727Q554 727 607 709T689 668L610 546Q589 562 558 574T496 586Q440 586 409 551T370 467L361 416H537L497 301H341L331 247Q318 172 256 141H572L527 0H28L53 141H65Q102 141 129 166T164 233L176 301H61L101 416H196L207 477Q226 584 299 655T503 727Z" horiz-adv-x="644" unicode="£"/>
			<glyph d="M231 633L326 539Q394 580 476 580Q559 580 626 541L718 633L803 549L713 459Q755 394 755 309Q755 219 710 154L803 61L719 -23L622 73Q558 34 476 34Q398 34 329 75L230 -23L146 61L242 157Q200 219 200 309Q200 392 239 456L146 549ZM476 441Q421 441 385 402T350 309Q350 252 385 213T476 175Q532 175 567 213T603 309Q603 363 567 402T476 441Z" horiz-adv-x="950" unicode="¤"/>
			<glyph d="M88 708H258L346 446L521 708H699L471 414H605L567 313H397L385 247H575L538 146H369L344 0H191L216 146H27L64 247H232L244 313H56L94 414H217Z" horiz-adv-x="644" unicode="¥"/>
			<glyph d="M55 675H186V313H55ZM55 187H186V-175H55Z" horiz-adv-x="241" unicode="¦"/>
			<glyph d="M378 726Q452 726 510 700T596 630L476 545Q460 570 431 583T370 597Q340 597 316 583T292 541Q292 524 301 512T331 491T396 463Q468 434 506 398T545 296Q545 196 442 149Q460 134 471 109T483 57Q483 -16 445 -62T351 -128T237 -148Q161 -148 88 -117T-17 -30L105 54Q123 21 161 3T239 -14Q272 -14 295 -2T318 39Q318 59 307 73T271 99T199 129Q129 156 91 191T54 290Q54 343 87 383T166 440Q151 453 140 476T130 527Q130 596 168 640T264 705T378 726ZM253 380Q228 374 213 356T198 315Q198 289 214 274T265 245L354 208Q377 216 389 231T402 268Q402 295 385 312T335 344Z" horiz-adv-x="616" unicode="§"/>
			<glyph d="M102 737Q136 737 157 716T179 664Q179 628 155 603T95 578Q61 578 39 598T17 651Q17 688 41 712T102 737ZM322 737Q355 737 376 716T398 664Q398 628 374 603T314 578Q280 578 258 598T236 651Q236 688 260 712T322 737Z" unicode="¨"/>
			<glyph d="M401 730Q504 730 591 679T729 542T780 353Q780 250 729 164T591 28T401 -22Q298 -22 210 28T71 164T20 353Q20 456 71 542T210 679T401 730ZM401 674Q314 674 240 631T123 514T80 353Q80 266 123 193T239 77T399 34Q486 34 559 77T676 193T720 353Q720 440 677 514T561 631T401 674ZM419 581Q461 581 505 566T575 529L544 429Q524 449 488 464T418 479Q365 479 334 445T304 353Q304 296 335 260T424 225Q459 225 493 236T548 264L564 165Q539 145 501 133T419 122Q353 122 299 149T213 229T182 352Q182 421 214 473T300 553T419 581Z" horiz-adv-x="800" unicode="©"/>
			<glyph d="M250 723Q309 723 338 697T368 630Q368 619 364 593L346 487Q341 455 341 431H259L261 459H260Q230 424 177 424Q137 424 112 444T87 500Q87 560 136 586T278 612Q279 615 279 622Q279 651 238 651Q221 651 201 644T166 625L127 680Q155 702 188 712T250 723ZM267 554Q173 554 173 516Q173 488 208 488Q232 488 249 503T270 541L274 554Z" horiz-adv-x="380" unicode="ª"/>
			<glyph d="M218 487L302 423L152 249L238 79L137 23L17 257ZM443 482L528 418L378 244L462 79L361 23L241 252Z" horiz-adv-x="544" unicode="«"/>
			<glyph d="M51 451H606V145H476V328H51Z" horiz-adv-x="666" unicode="¬"/>
			<glyph d="M38 324H290L268 197H15Z" horiz-adv-x="326" unicode="­"/>
			<glyph d="M341 719Q403 719 455 688T537 606T568 492Q568 430 537 378T455 297T341 267Q279 267 226 297T143 378T112 492Q112 554 143 606T226 688T341 719ZM341 684Q288 684 244 658T174 588T148 492Q148 440 174 396T244 326T341 300Q393 300 437 326T506 396T532 492Q532 544 506 588T437 658T341 684ZM231 631H345Q395 631 430 611T466 545Q466 519 453 499T418 471L479 365H379L335 459H319V365H231ZM319 562V521H345Q357 521 365 527T373 544Q373 552 364 557T345 562Z" horiz-adv-x="600" unicode="®"/>
			<glyph d="M46 685H380L365 601H32Z" unicode="¯"/>
			<glyph d="M240 725Q286 725 324 703T385 642T408 558Q408 512 385 473T324 412T240 390Q194 390 155 412T94 473T72 558Q72 604 94 642T155 703T240 725ZM240 646Q203 646 177 620T152 558Q152 521 177 495T240 470Q277 470 302 495T328 558Q328 594 302 620T240 646Z" horiz-adv-x="416" unicode="°"/>
			<glyph d="M274 590H404V458H616V331H404V199H274V331H61V458H274ZM61 158H616V31H61Z" horiz-adv-x="666" unicode="±"/>
			<glyph d="M295 889Q359 889 400 857T442 768Q442 719 418 687T340 616L239 543H415L388 446H74L90 538L281 685Q331 722 331 754Q331 774 319 784T285 795Q237 795 221 738L120 760Q139 821 185 855T295 889Z" horiz-adv-x="411" unicode="²"/>
			<glyph d="M283 888Q345 888 385 856T426 772Q426 733 402 703T345 665Q374 653 390 631T407 579Q407 511 359 474T238 437Q192 437 148 451T73 491L118 581Q138 562 172 546T238 530Q265 530 281 543T297 580Q297 629 225 629H195L208 709H241Q277 709 297 722T317 759Q317 798 271 798Q249 798 227 788T180 759L146 840Q206 888 283 888Z" horiz-adv-x="408" unicode="³"/>
			<glyph d="M253 716H416L246 572H124Z" unicode="´"/>
			<glyph d="M66 498H247V243Q247 185 265 158T328 131Q381 131 402 175T424 301V498H606V0H473L447 74H439Q423 33 391 11T325 -10Q292 -10 274 0T243 31H241Q247 -25 247 -84V-240H66Z" horiz-adv-x="672" unicode="µ"/>
			<glyph d="M336 708H621L474 -129H360L491 610H404L273 -129H160L241 334Q154 336 105 376T56 484Q56 545 84 595T175 677T336 708Z" horiz-adv-x="617" unicode="¶"/>
			<glyph d="M155 387Q194 387 219 362T245 301Q245 259 216 229T146 200Q105 200 79 224T54 285Q54 328 83 357T155 387Z" unicode="·"/>
			<glyph d="M70 0H150L92 -61Q100 -59 111 -59Q144 -59 172 -77T200 -135Q200 -189 154 -214T48 -240Q18 -240 -16 -233T-72 -215L-40 -156Q-23 -165 -1 -169T41 -174Q96 -174 96 -141Q96 -112 54 -112Q33 -112 13 -118L-12 -89Z" unicode="¸"/>
			<glyph d="M291 881H393L316 446H202L257 754L173 699L131 780Z" horiz-adv-x="307" unicode="¹"/>
			<glyph d="M246 724Q309 724 349 690T390 599Q390 548 367 508T306 447T217 425Q153 425 113 459T74 550Q74 600 96 639T157 701T246 724ZM240 641Q209 641 189 617T170 561Q170 537 184 522T223 508Q254 508 274 531T294 589Q294 612 279 626T240 641Z" horiz-adv-x="380" unicode="º"/>
			<glyph d="M162 483L281 255L80 25L-5 89L145 262L61 428ZM385 483L506 250L305 20L220 84L370 258L285 428Z" horiz-adv-x="544" unicode="»"/>
			<glyph d="M629 740L701 695L179 -34L107 11ZM218 708H320L243 273H129L184 581L100 526L58 607ZM659 434H788L743 173H812L787 84H728L713 -1H611L626 84H425L441 174ZM663 314L550 173H641L666 314Z" horiz-adv-x="849" unicode="¼"/>
			<glyph d="M622 740L694 695L172 -34L100 11ZM218 708H320L243 273H129L184 581L100 526L58 607ZM706 442Q770 442 811 410T853 321Q853 272 829 240T751 169L650 96H826L799 -1H485L501 91L692 238Q742 275 742 307Q742 327 730 337T696 348Q648 348 632 291L531 313Q550 374 596 408T706 442Z" horiz-adv-x="890" unicode="½"/>
			<glyph d="M728 740L800 695L278 -34L206 11ZM253 716Q315 716 355 684T396 600Q396 561 372 531T315 493Q344 481 360 459T377 407Q377 339 329 302T208 265Q162 265 118 279T43 319L88 409Q108 390 142 374T208 358Q235 358 251 371T267 408Q267 457 195 457H165L178 537H211Q247 537 267 550T287 587Q287 626 241 626Q219 626 197 616T150 587L116 668Q176 716 253 716ZM745 434H874L829 173H898L873 84H814L799 -1H697L712 84H511L527 174ZM749 314L636 173H727L752 314Z" horiz-adv-x="932" unicode="¾"/>
			<glyph d="M284 517Q324 517 349 493T374 433Q374 391 345 362T276 333Q237 333 212 357T187 417Q187 459 214 488T284 517ZM192 285H344L338 246Q329 196 305 163T233 95Q187 61 168 45T143 15T136 -19Q136 -80 210 -80Q247 -80 291 -58T365 -5L436 -123Q395 -165 334 -191T199 -218Q138 -218 85 -198T1 -138T-31 -37Q-31 28 3 71T114 164Q153 190 168 208T188 259Z" horiz-adv-x="543" unicode="¿"/>
			<glyph d="M368 708H530L664 0H489L461 165H206L107 0H-83ZM411 526L277 299H444ZM252 908H415L524 764H404Z" horiz-adv-x="710" unicode="À"/>
			<glyph d="M368 708H530L664 0H489L461 165H206L107 0H-83ZM411 526L277 299H444ZM515 908H678L508 764H386Z" horiz-adv-x="710" unicode="Á"/>
			<glyph d="M368 708H530L664 0H489L461 165H206L107 0H-83ZM411 526L277 299H444ZM408 908H554L650 764H525L470 846L387 764H260Z" horiz-adv-x="710" unicode="Â"/>
			<glyph d="M368 708H530L664 0H489L461 165H206L107 0H-83ZM411 526L277 299H444ZM585 900H656Q639 842 605 805T520 769Q483 769 448 788Q425 800 411 805T383 810Q352 810 333 768H262Q279 825 313 861T398 897Q434 897 474 877Q512 857 536 857Q567 857 585 900Z" horiz-adv-x="710" unicode="Ã"/>
			<glyph d="M368 708H530L664 0H489L461 165H206L107 0H-83ZM411 526L277 299H444ZM362 929Q396 929 417 908T439 856Q439 820 415 795T355 770Q321 770 299 790T277 843Q277 880 301 904T362 929ZM582 929Q615 929 636 908T658 856Q658 820 634 795T574 770Q540 770 518 790T496 843Q496 880 520 904T582 929Z" horiz-adv-x="710" unicode="Ä"/>
			<glyph d="M368 708H530L664 0H489L461 165H206L107 0H-83ZM411 526L277 299H444ZM482 961Q523 961 549 936T575 873Q575 821 541 785T456 749Q415 749 389 774T363 838Q363 890 397 925T482 961ZM477 916Q449 916 430 895T412 844Q412 822 425 808T460 794Q489 794 507 815T526 866Q526 887 512 901T477 916Z" horiz-adv-x="710" unicode="Å"/>
			<glyph d="M483 708H1013L968 566H714L690 429H941L896 295H667L640 143H942L897 0H459L485 156H261L147 0H-42ZM547 566L347 288H509L558 566Z" horiz-adv-x="994" unicode="Æ"/>
			<glyph d="M461 727Q531 727 601 705T708 655L646 511Q615 538 563 558T457 578Q389 578 334 540T249 441T219 309Q219 233 265 182T393 132Q506 132 618 214V55Q574 23 513 3T381 -19L341 -61Q349 -59 360 -59Q393 -59 421 -77T449 -135Q449 -189 403 -214T297 -240Q267 -240 232 -233T177 -215L209 -156Q226 -165 248 -169T290 -174Q345 -174 345 -141Q345 -112 303 -112Q282 -112 262 -118L237 -89L305 -15Q183 2 112 83T41 289Q41 410 96 510T247 668T461 727Z" horiz-adv-x="684" unicode="Ç"/>
			<glyph d="M143 708H596L551 566H277L253 429H523L479 295H229L203 143H525L480 0H18ZM205 908H368L477 764H357Z" horiz-adv-x="577" unicode="È"/>
			<glyph d="M143 708H596L551 566H277L253 429H523L479 295H229L203 143H525L480 0H18ZM413 908H576L406 764H284Z" horiz-adv-x="577" unicode="É"/>
			<glyph d="M143 708H596L551 566H277L253 429H523L479 295H229L203 143H525L480 0H18ZM330 908H476L572 764H447L392 846L309 764H182Z" horiz-adv-x="577" unicode="Ê"/>
			<glyph d="M143 708H596L551 566H277L253 429H523L479 295H229L203 143H525L480 0H18ZM285 929Q319 929 340 908T362 856Q362 820 338 795T278 770Q244 770 222 790T200 843Q200 880 224 904T285 929ZM505 929Q538 929 559 908T581 856Q581 820 557 795T497 770Q463 770 441 790T419 843Q419 880 443 904T505 929Z" horiz-adv-x="577" unicode="Ë"/>
			<glyph d="M143 708H310L185 0H18ZM32 908H195L304 764H184Z" horiz-adv-x="315" unicode="Ì"/>
			<glyph d="M143 708H310L185 0H18ZM279 908H442L272 764H150Z" horiz-adv-x="315" unicode="Í"/>
			<glyph d="M143 708H310L185 0H18ZM182 908H328L424 764H299L244 846L161 764H34Z" horiz-adv-x="315" unicode="Î"/>
			<glyph d="M143 708H310L185 0H18ZM134 929Q168 929 189 908T211 856Q211 820 187 795T127 770Q93 770 71 790T49 843Q49 880 73 904T134 929ZM354 929Q387 929 408 908T430 856Q430 820 406 795T346 770Q312 770 290 790T268 843Q268 880 292 904T354 929Z" horiz-adv-x="315" unicode="Ï"/>
			<glyph d="M143 708H405Q490 708 566 676T690 578T739 410Q739 288 683 195T529 51T307 0H18L72 309H15L34 416H91ZM281 567L255 416H426L407 309H236L207 144H314Q394 144 451 178T537 269T566 390Q566 468 517 517T372 567Z" horiz-adv-x="769" unicode="Ð"/>
			<glyph d="M143 708H330L524 241H526L606 708H770L645 0H460L265 470H262L182 0H18ZM599 900H670Q653 842 619 805T534 769Q497 769 462 788Q439 800 425 805T397 810Q366 810 347 768H276Q293 825 327 861T412 897Q448 897 488 877Q526 857 550 857Q581 857 599 900Z" horiz-adv-x="789" unicode="Ñ"/>
			<glyph d="M460 726Q565 726 642 687T761 578T802 413Q802 294 749 195T601 39T386 -18Q280 -18 202 20T82 129T41 295Q41 414 95 512T245 668T460 726ZM449 578Q379 578 325 540T243 440T214 310Q214 260 235 219T297 155T395 132Q466 132 519 169T600 269T629 400Q629 450 608 490T546 554T449 578ZM319 908H482L591 764H471Z" horiz-adv-x="831" unicode="Ò"/>
			<glyph d="M460 726Q565 726 642 687T761 578T802 413Q802 294 749 195T601 39T386 -18Q280 -18 202 20T82 129T41 295Q41 414 95 512T245 668T460 726ZM449 578Q379 578 325 540T243 440T214 310Q214 260 235 219T297 155T395 132Q466 132 519 169T600 269T629 400Q629 450 608 490T546 554T449 578ZM519 908H682L512 764H390Z" horiz-adv-x="831" unicode="Ó"/>
			<glyph d="M460 726Q565 726 642 687T761 578T802 413Q802 294 749 195T601 39T386 -18Q280 -18 202 20T82 129T41 295Q41 414 95 512T245 668T460 726ZM449 578Q379 578 325 540T243 440T214 310Q214 260 235 219T297 155T395 132Q466 132 519 169T600 269T629 400Q629 450 608 490T546 554T449 578ZM447 908H593L689 764H564L509 846L426 764H299Z" horiz-adv-x="831" unicode="Ô"/>
			<glyph d="M460 726Q565 726 642 687T761 578T802 413Q802 294 749 195T601 39T386 -18Q280 -18 202 20T82 129T41 295Q41 414 95 512T245 668T460 726ZM449 578Q379 578 325 540T243 440T214 310Q214 260 235 219T297 155T395 132Q466 132 519 169T600 269T629 400Q629 450 608 490T546 554T449 578ZM624 900H695Q678 842 644 805T559 769Q522 769 487 788Q464 800 450 805T422 810Q391 810 372 768H301Q318 825 352 861T437 897Q473 897 513 877Q551 857 575 857Q606 857 624 900Z" horiz-adv-x="831" unicode="Õ"/>
			<glyph d="M460 726Q565 726 642 687T761 578T802 413Q802 294 749 195T601 39T386 -18Q280 -18 202 20T82 129T41 295Q41 414 95 512T245 668T460 726ZM449 578Q379 578 325 540T243 440T214 310Q214 260 235 219T297 155T395 132Q466 132 519 169T600 269T629 400Q629 450 608 490T546 554T449 578ZM396 929Q430 929 451 908T473 856Q473 820 449 795T389 770Q355 770 333 790T311 843Q311 880 335 904T396 929ZM616 929Q649 929 670 908T692 856Q692 820 668 795T608 770Q574 770 552 790T530 843Q530 880 554 904T616 929Z" horiz-adv-x="831" unicode="Ö"/>
			<glyph d="M157 566L334 393L508 565L599 478L425 305L604 130L510 37L333 210L157 37L64 126L241 301L63 475Z" horiz-adv-x="666" unicode="×"/>
			<glyph d="M783 752L841 694L742 605Q802 527 802 413Q802 294 749 195T601 39T386 -18Q237 -18 145 58L45 -33L-12 25L89 118Q41 192 41 295Q41 414 95 512T245 668T460 726Q595 726 686 661ZM452 583Q377 583 321 544T236 441T207 307Q207 269 221 236L564 549Q519 583 452 583ZM614 484L270 169Q291 149 321 138T390 127Q466 127 521 166T604 267T633 401Q633 444 614 484Z" horiz-adv-x="831" unicode="Ø"/>
			<glyph d="M135 708H300L224 279Q221 260 221 238Q221 190 250 158T340 127Q415 127 449 169T495 277L572 708H736L658 260Q635 129 553 55T331 -18Q247 -18 183 9T86 86T52 203Q52 231 57 264ZM250 908H413L522 764H402Z" horiz-adv-x="737" unicode="Ù"/>
			<glyph d="M135 708H300L224 279Q221 260 221 238Q221 190 250 158T340 127Q415 127 449 169T495 277L572 708H736L658 260Q635 129 553 55T331 -18Q247 -18 183 9T86 86T52 203Q52 231 57 264ZM479 908H642L472 764H350Z" horiz-adv-x="737" unicode="Ú"/>
			<glyph d="M135 708H300L224 279Q221 260 221 238Q221 190 250 158T340 127Q415 127 449 169T495 277L572 708H736L658 260Q635 129 553 55T331 -18Q247 -18 183 9T86 86T52 203Q52 231 57 264ZM397 908H543L639 764H514L459 846L376 764H249Z" horiz-adv-x="737" unicode="Û"/>
			<glyph d="M135 708H300L224 279Q221 260 221 238Q221 190 250 158T340 127Q415 127 449 169T495 277L572 708H736L658 260Q635 129 553 55T331 -18Q247 -18 183 9T86 86T52 203Q52 231 57 264ZM352 929Q386 929 407 908T429 856Q429 820 405 795T345 770Q311 770 289 790T267 843Q267 880 291 904T352 929ZM572 929Q605 929 626 908T648 856Q648 820 624 795T564 770Q530 770 508 790T486 843Q486 880 510 904T572 929Z" horiz-adv-x="737" unicode="Ü"/>
			<glyph d="M35 708H221L322 440L525 708H727L383 301L329 0H163L216 301ZM439 908H602L432 764H310Z" horiz-adv-x="613" unicode="Ý"/>
			<glyph d="M143 708H308L287 584H355Q478 584 545 531T612 386Q612 267 529 206T301 145H209L183 0H18ZM263 449L232 277H303Q372 277 409 300T446 370Q446 412 416 430T331 449Z" horiz-adv-x="637" unicode="Þ"/>
			<glyph d="M386 768Q446 768 497 748T581 687T613 587Q613 518 574 475T476 417V415Q533 400 570 354T607 243Q607 166 572 108T471 19T317 -12Q264 -12 223 -1L245 124Q255 120 273 117T306 115Q370 115 407 150T445 246Q445 292 411 319T328 346H317L338 471H351Q394 471 425 494T457 566Q457 598 435 619T377 640Q323 640 296 601T260 503L171 0H9L99 509Q120 627 185 697T386 768Z" horiz-adv-x="661" unicode="ß"/>
			<glyph d="M295 513Q389 513 446 472T503 352Q503 321 497 291L463 97Q453 40 453 0H311Q311 19 315 53H313Q258 -12 161 -12Q99 -12 53 20T7 120Q7 314 349 314Q351 326 351 337Q351 393 273 393Q238 393 190 379T114 347L86 463Q181 513 295 513ZM326 218Q153 218 153 146Q153 118 171 106T219 95Q264 95 295 123T335 194L340 218ZM121 716H284L393 572H273Z" horiz-adv-x="559" unicode="à"/>
			<glyph d="M295 513Q389 513 446 472T503 352Q503 321 497 291L463 97Q453 40 453 0H311Q311 19 315 53H313Q258 -12 161 -12Q99 -12 53 20T7 120Q7 314 349 314Q351 326 351 337Q351 393 273 393Q238 393 190 379T114 347L86 463Q181 513 295 513ZM326 218Q153 218 153 146Q153 118 171 106T219 95Q264 95 295 123T335 194L340 218ZM370 716H533L363 572H241Z" horiz-adv-x="559" unicode="á"/>
			<glyph d="M295 513Q389 513 446 472T503 352Q503 321 497 291L463 97Q453 40 453 0H311Q311 19 315 53H313Q258 -12 161 -12Q99 -12 53 20T7 120Q7 314 349 314Q351 326 351 337Q351 393 273 393Q238 393 190 379T114 347L86 463Q181 513 295 513ZM326 218Q153 218 153 146Q153 118 171 106T219 95Q264 95 295 123T335 194L340 218ZM275 716H421L517 572H392L337 654L254 572H127Z" horiz-adv-x="559" unicode="â"/>
			<glyph d="M295 513Q389 513 446 472T503 352Q503 321 497 291L463 97Q453 40 453 0H311Q311 19 315 53H313Q258 -12 161 -12Q99 -12 53 20T7 120Q7 314 349 314Q351 326 351 337Q351 393 273 393Q238 393 190 379T114 347L86 463Q181 513 295 513ZM326 218Q153 218 153 146Q153 118 171 106T219 95Q264 95 295 123T335 194L340 218ZM458 708H529Q512 650 478 613T393 577Q356 577 321 596Q298 608 284 613T256 618Q225 618 206 576H135Q152 633 186 669T271 705Q307 705 347 685Q385 665 409 665Q440 665 458 708Z" horiz-adv-x="559" unicode="ã"/>
			<glyph d="M295 513Q389 513 446 472T503 352Q503 321 497 291L463 97Q453 40 453 0H311Q311 19 315 53H313Q258 -12 161 -12Q99 -12 53 20T7 120Q7 314 349 314Q351 326 351 337Q351 393 273 393Q238 393 190 379T114 347L86 463Q181 513 295 513ZM326 218Q153 218 153 146Q153 118 171 106T219 95Q264 95 295 123T335 194L340 218ZM231 737Q265 737 286 716T308 664Q308 628 284 603T224 578Q190 578 168 598T146 651Q146 688 170 712T231 737ZM451 737Q484 737 505 716T527 664Q527 628 503 603T443 578Q409 578 387 598T365 651Q365 688 389 712T451 737Z" horiz-adv-x="559" unicode="ä"/>
			<glyph d="M295 513Q389 513 446 472T503 352Q503 321 497 291L463 97Q453 40 453 0H311Q311 19 315 53H313Q258 -12 161 -12Q99 -12 53 20T7 120Q7 314 349 314Q351 326 351 337Q351 393 273 393Q238 393 190 379T114 347L86 463Q181 513 295 513ZM326 218Q153 218 153 146Q153 118 171 106T219 95Q264 95 295 123T335 194L340 218ZM348 769Q389 769 415 744T441 681Q441 629 407 593T322 557Q281 557 255 582T229 646Q229 698 263 733T348 769ZM343 724Q315 724 296 703T278 652Q278 630 291 616T326 602Q355 602 373 623T392 674Q392 695 378 709T343 724Z" horiz-adv-x="559" unicode="å"/>
			<glyph d="M295 513Q423 513 455 439Q483 472 528 492T630 513Q729 513 789 457T849 303Q849 283 846 256T837 206H480Q479 202 479 197Q479 157 519 132T611 108Q652 108 696 120T778 152L790 32Q754 11 701 -2T593 -15Q523 -15 469 9T387 76Q360 37 310 12T187 -12Q112 -12 58 19T4 122Q4 229 98 266T350 304Q354 320 354 336Q354 393 276 393Q241 393 191 379T114 347L86 463Q181 513 295 513ZM617 401Q568 401 534 370T491 304H707Q708 311 708 324Q708 358 683 379T617 401ZM315 208Q236 208 193 194T151 145Q151 119 170 107T218 96Q267 96 298 121T337 191L340 208Z" horiz-adv-x="897" unicode="æ"/>
			<glyph d="M326 513Q385 513 434 493T510 436L409 340Q398 358 374 370T322 383Q280 383 246 361T194 304T175 226Q175 180 202 149T283 119Q344 119 387 164L463 62Q385 -8 281 -13L236 -61Q244 -59 255 -59Q288 -59 316 -77T344 -135Q344 -189 298 -214T192 -240Q162 -240 127 -233T72 -215L104 -156Q121 -165 143 -169T185 -174Q240 -174 240 -141Q240 -112 198 -112Q177 -112 157 -118L132 -89L205 -9Q120 5 70 62T20 205Q20 286 58 357T167 470T326 513Z" horiz-adv-x="500" unicode="ç"/>
			<glyph d="M320 513Q420 513 480 457T540 303Q540 284 536 256T527 206H170Q169 202 169 197Q169 156 206 132T297 108Q338 108 382 120T464 152L476 32Q439 11 384 -2T265 -15Q195 -15 139 11T52 87T20 209Q20 293 58 362T165 472T320 513ZM307 401Q258 401 224 370T181 304H397Q398 311 398 324Q398 358 373 379T307 401ZM125 716H288L397 572H277Z" horiz-adv-x="587" unicode="è"/>
			<glyph d="M320 513Q420 513 480 457T540 303Q540 284 536 256T527 206H170Q169 202 169 197Q169 156 206 132T297 108Q338 108 382 120T464 152L476 32Q439 11 384 -2T265 -15Q195 -15 139 11T52 87T20 209Q20 293 58 362T165 472T320 513ZM307 401Q258 401 224 370T181 304H397Q398 311 398 324Q398 358 373 379T307 401ZM373 716H536L366 572H244Z" horiz-adv-x="587" unicode="é"/>
			<glyph d="M320 513Q420 513 480 457T540 303Q540 284 536 256T527 206H170Q169 202 169 197Q169 156 206 132T297 108Q338 108 382 120T464 152L476 32Q439 11 384 -2T265 -15Q195 -15 139 11T52 87T20 209Q20 293 58 362T165 472T320 513ZM307 401Q258 401 224 370T181 304H397Q398 311 398 324Q398 358 373 379T307 401ZM298 716H444L540 572H415L360 654L277 572H150Z" horiz-adv-x="587" unicode="ê"/>
			<glyph d="M320 513Q420 513 480 457T540 303Q540 284 536 256T527 206H170Q169 202 169 197Q169 156 206 132T297 108Q338 108 382 120T464 152L476 32Q439 11 384 -2T265 -15Q195 -15 139 11T52 87T20 209Q20 293 58 362T165 472T320 513ZM307 401Q258 401 224 370T181 304H397Q398 311 398 324Q398 358 373 379T307 401ZM252 737Q286 737 307 716T329 664Q329 628 305 603T245 578Q211 578 189 598T167 651Q167 688 191 712T252 737ZM472 737Q505 737 526 716T548 664Q548 628 524 603T464 578Q430 578 408 598T386 651Q386 688 410 712T472 737Z" horiz-adv-x="587" unicode="ë"/>
			<glyph d="M98 498H259L170 0H11ZM-11 716H152L261 572H141Z" horiz-adv-x="294" unicode="ì"/>
			<glyph d="M98 498H259L170 0H11ZM236 716H399L229 572H107Z" horiz-adv-x="294" unicode="í"/>
			<glyph d="M98 498H259L170 0H11ZM147 716H293L389 572H264L209 654L126 572H-1Z" horiz-adv-x="294" unicode="î"/>
			<glyph d="M98 498H259L170 0H11ZM95 737Q129 737 150 716T172 664Q172 628 148 603T88 578Q54 578 32 598T10 651Q10 688 34 712T95 737ZM315 737Q348 737 369 716T391 664Q391 628 367 603T307 578Q273 578 251 598T229 651Q229 688 253 712T315 737Z" horiz-adv-x="294" unicode="ï"/>
			<glyph d="M336 797Q372 766 407 726L526 775L600 704L470 652Q522 586 552 500T582 316Q582 227 547 151T442 31T273 -14Q201 -14 143 13T53 89T20 205Q20 287 55 356T157 467T318 509Q371 509 401 488L403 490Q368 561 327 600L211 552L144 622L261 669Q242 692 197 728ZM317 382Q276 382 244 360T194 301T177 222Q177 176 205 147T281 118Q323 118 355 139T404 197T422 277Q422 323 393 352T317 382Z" horiz-adv-x="626" unicode="ð"/>
			<glyph d="M397 511Q476 511 516 468T556 360Q556 327 551 306L497 0H337L384 270Q389 293 389 312Q389 342 373 360T323 379Q281 379 253 348T218 270L170 0H10L79 395Q89 445 94 498H247L243 459Q242 453 239 426H241Q266 465 306 488T397 511ZM482 708H553Q536 650 502 613T417 577Q380 577 345 596Q322 608 308 613T280 618Q249 618 230 576H159Q176 633 210 669T295 705Q331 705 371 685Q409 665 433 665Q464 665 482 708Z" horiz-adv-x="615" unicode="ñ"/>
			<glyph d="M324 513Q397 513 455 486T547 409T580 294Q580 210 542 139T435 27T273 -14Q201 -14 143 13T53 89T20 205Q20 288 57 358T164 471T324 513ZM317 382Q276 382 244 360T194 301T177 222Q177 176 205 147T281 118Q323 118 355 139T404 197T422 277Q422 323 393 352T317 382ZM163 716H326L435 572H315Z" horiz-adv-x="626" unicode="ò"/>
			<glyph d="M324 513Q397 513 455 486T547 409T580 294Q580 210 542 139T435 27T273 -14Q201 -14 143 13T53 89T20 205Q20 288 57 358T164 471T324 513ZM317 382Q276 382 244 360T194 301T177 222Q177 176 205 147T281 118Q323 118 355 139T404 197T422 277Q422 323 393 352T317 382ZM380 716H543L373 572H251Z" horiz-adv-x="626" unicode="ó"/>
			<glyph d="M324 513Q397 513 455 486T547 409T580 294Q580 210 542 139T435 27T273 -14Q201 -14 143 13T53 89T20 205Q20 288 57 358T164 471T324 513ZM317 382Q276 382 244 360T194 301T177 222Q177 176 205 147T281 118Q323 118 355 139T404 197T422 277Q422 323 393 352T317 382ZM312 716H458L554 572H429L374 654L291 572H164Z" horiz-adv-x="626" unicode="ô"/>
			<glyph d="M324 513Q397 513 455 486T547 409T580 294Q580 210 542 139T435 27T273 -14Q201 -14 143 13T53 89T20 205Q20 288 57 358T164 471T324 513ZM317 382Q276 382 244 360T194 301T177 222Q177 176 205 147T281 118Q323 118 355 139T404 197T422 277Q422 323 393 352T317 382ZM489 708H560Q543 650 509 613T424 577Q387 577 352 596Q329 608 315 613T287 618Q256 618 237 576H166Q183 633 217 669T302 705Q338 705 378 685Q416 665 440 665Q471 665 489 708Z" horiz-adv-x="626" unicode="õ"/>
			<glyph d="M324 513Q397 513 455 486T547 409T580 294Q580 210 542 139T435 27T273 -14Q201 -14 143 13T53 89T20 205Q20 288 57 358T164 471T324 513ZM317 382Q276 382 244 360T194 301T177 222Q177 176 205 147T281 118Q323 118 355 139T404 197T422 277Q422 323 393 352T317 382ZM262 737Q296 737 317 716T339 664Q339 628 315 603T255 578Q221 578 199 598T177 651Q177 688 201 712T262 737ZM482 737Q515 737 536 716T558 664Q558 628 534 603T474 578Q440 578 418 598T396 651Q396 688 420 712T482 737Z" horiz-adv-x="626" unicode="ö"/>
			<glyph d="M333 573Q368 573 393 548T419 489Q419 454 393 429T333 404Q298 404 272 429T246 489Q246 523 272 548T333 573ZM79 367H586V240H79ZM333 201Q368 201 393 176T419 117Q419 82 393 57T333 32Q298 32 272 57T246 117Q246 151 272 176T333 201Z" horiz-adv-x="666" unicode="÷"/>
			<glyph d="M572 533L621 477L544 411Q580 361 580 294Q580 210 542 139T435 27T273 -14Q225 -14 182 -1T108 35L23 -38L-24 20L56 88Q39 112 29 143T20 207Q20 288 57 358T164 471T324 513Q423 513 491 464ZM317 385Q274 385 242 363T192 306T175 230Q175 207 180 194L378 366Q354 385 317 385ZM418 308L219 137Q230 127 247 121T283 115Q326 115 358 136T407 193T424 271Q424 293 418 308Z" horiz-adv-x="626" unicode="ø"/>
			<glyph d="M86 498H247L199 228Q195 200 195 186Q195 156 211 137T261 119Q302 119 329 150T366 229L414 498H574L504 103Q494 53 489 0H337L342 42L345 72H342Q318 34 277 10T186 -13Q108 -13 68 30T28 139Q28 171 33 193ZM129 716H292L401 572H281Z" horiz-adv-x="614" unicode="ù"/>
			<glyph d="M86 498H247L199 228Q195 200 195 186Q195 156 211 137T261 119Q302 119 329 150T366 229L414 498H574L504 103Q494 53 489 0H337L342 42L345 72H342Q318 34 277 10T186 -13Q108 -13 68 30T28 139Q28 171 33 193ZM382 716H545L375 572H253Z" horiz-adv-x="614" unicode="ú"/>
			<glyph d="M86 498H247L199 228Q195 200 195 186Q195 156 211 137T261 119Q302 119 329 150T366 229L414 498H574L504 103Q494 53 489 0H337L342 42L345 72H342Q318 34 277 10T186 -13Q108 -13 68 30T28 139Q28 171 33 193ZM296 716H442L538 572H413L358 654L275 572H148Z" horiz-adv-x="614" unicode="û"/>
			<glyph d="M86 498H247L199 228Q195 200 195 186Q195 156 211 137T261 119Q302 119 329 150T366 229L414 498H574L504 103Q494 53 489 0H337L342 42L345 72H342Q318 34 277 10T186 -13Q108 -13 68 30T28 139Q28 171 33 193ZM249 737Q283 737 304 716T326 664Q326 628 302 603T242 578Q208 578 186 598T164 651Q164 688 188 712T249 737ZM469 737Q502 737 523 716T545 664Q545 628 521 603T461 578Q427 578 405 598T383 651Q383 688 407 712T469 737Z" horiz-adv-x="614" unicode="ü"/>
			<glyph d="M32 498H207L259 172L424 498H594L292 -31Q236 -133 170 -178T6 -240L-24 -105Q39 -94 78 -73T140 -10L147 2ZM377 716H540L370 572H248Z" horiz-adv-x="556" unicode="ý"/>
			<glyph d="M142 756H302L244 434H246Q272 469 314 489T404 510Q467 510 514 482T586 406T611 296Q611 211 575 140T476 27T335 -14Q281 -14 241 6T180 62H178L126 -240H-34ZM349 381Q309 381 276 359T225 300T207 221Q207 175 235 145T312 116Q374 116 412 161T451 275Q451 321 424 351T349 381Z" horiz-adv-x="659" unicode="þ"/>
			<glyph d="M32 498H207L259 172L424 498H594L292 -31Q236 -133 170 -178T6 -240L-24 -105Q39 -94 78 -73T140 -10L147 2ZM232 737Q266 737 287 716T309 664Q309 628 285 603T225 578Q191 578 169 598T147 651Q147 688 171 712T232 737ZM452 737Q485 737 506 716T528 664Q528 628 504 603T444 578Q410 578 388 598T366 651Q366 688 390 712T452 737Z" horiz-adv-x="556" unicode="ÿ"/>
			<glyph d="M368 708H530L664 0H489L461 165H206L107 0H-83ZM411 526L277 299H444ZM306 877H640L625 793H292Z" horiz-adv-x="710" unicode="Ā"/>
			<glyph d="M295 513Q389 513 446 472T503 352Q503 321 497 291L463 97Q453 40 453 0H311Q311 19 315 53H313Q258 -12 161 -12Q99 -12 53 20T7 120Q7 314 349 314Q351 326 351 337Q351 393 273 393Q238 393 190 379T114 347L86 463Q181 513 295 513ZM326 218Q153 218 153 146Q153 118 171 106T219 95Q264 95 295 123T335 194L340 218ZM172 685H506L491 601H158Z" horiz-adv-x="559" unicode="ā"/>
			<glyph d="M368 708H530L664 0H489L461 165H206L107 0H-83ZM411 526L277 299H444ZM296 908H378Q378 878 400 864T458 851Q499 851 525 863T560 908H642Q626 834 575 799T453 764Q380 764 338 798T296 908Z" horiz-adv-x="710" unicode="Ă"/>
			<glyph d="M295 513Q389 513 446 472T503 352Q503 321 497 291L463 97Q453 40 453 0H311Q311 19 315 53H313Q258 -12 161 -12Q99 -12 53 20T7 120Q7 314 349 314Q351 326 351 337Q351 393 273 393Q238 393 190 379T114 347L86 463Q181 513 295 513ZM326 218Q153 218 153 146Q153 118 171 106T219 95Q264 95 295 123T335 194L340 218ZM159 716H241Q241 687 263 673T321 659Q362 659 388 671T423 716H505Q489 642 438 607T316 572Q243 572 201 606T159 716Z" horiz-adv-x="559" unicode="ă"/>
			<glyph d="M368 708H530L664 0H577Q525 -37 496 -68T467 -127Q467 -154 500 -154Q529 -154 557 -135L578 -196Q520 -236 459 -236Q416 -236 389 -216T363 -153Q363 -111 399 -73T489 0L465 141H192L107 0H-83ZM411 526L263 275H448Z" horiz-adv-x="710" unicode="Ą"/>
			<glyph d="M295 513Q389 513 446 472T503 352Q503 321 497 291L463 97Q453 40 453 0H427Q374 -39 345 -69T317 -127Q317 -154 350 -154Q379 -154 407 -135L428 -196Q370 -236 309 -236Q266 -236 239 -216T213 -153Q213 -112 248 -74T338 0H311Q311 19 315 53H313Q258 -12 161 -12Q99 -12 53 20T7 120Q7 314 349 314Q351 326 351 337Q351 393 273 393Q238 393 190 379T114 347L86 463Q181 513 295 513ZM326 218Q153 218 153 146Q153 118 171 106T219 95Q264 95 295 123T335 194L340 218Z" horiz-adv-x="559" unicode="ą"/>
			<glyph d="M461 727Q531 727 601 705T708 655L646 511Q615 538 563 558T457 578Q389 578 334 540T249 441T219 309Q219 233 265 182T393 132Q506 132 618 214V55Q572 22 506 1T366 -19Q268 -19 194 19T81 127T41 289Q41 410 96 510T247 668T461 727ZM511 908H674L504 764H382Z" horiz-adv-x="684" unicode="Ć"/>
			<glyph d="M326 513Q370 513 416 497T496 459L432 342Q405 360 375 371T322 383Q280 383 246 361T194 304T175 226Q175 180 202 149T283 119Q355 119 419 169L440 41Q411 16 365 1T262 -14Q190 -14 135 13T50 90T20 205Q20 286 58 357T167 470T326 513ZM374 716H537L367 572H245Z" horiz-adv-x="500" unicode="ć"/>
			<glyph d="M461 727Q531 727 601 705T708 655L646 511Q615 538 563 558T457 578Q389 578 334 540T249 441T219 309Q219 233 265 182T393 132Q506 132 618 214V55Q572 22 506 1T366 -19Q268 -19 194 19T81 127T41 289Q41 410 96 510T247 668T461 727ZM440 908H586L682 764H557L502 846L419 764H292Z" horiz-adv-x="684" unicode="Ĉ"/>
			<glyph d="M326 513Q370 513 416 497T496 459L432 342Q405 360 375 371T322 383Q280 383 246 361T194 304T175 226Q175 180 202 149T283 119Q355 119 419 169L440 41Q411 16 365 1T262 -14Q190 -14 135 13T50 90T20 205Q20 286 58 357T167 470T326 513ZM299 716H445L541 572H416L361 654L278 572H151Z" horiz-adv-x="500" unicode="ĉ"/>
			<glyph d="M461 727Q531 727 601 705T708 655L646 511Q615 538 563 558T457 578Q389 578 334 540T249 441T219 309Q219 233 265 182T393 132Q506 132 618 214V55Q572 22 506 1T366 -19Q268 -19 194 19T81 127T41 289Q41 410 96 510T247 668T461 727ZM496 932Q530 932 553 910T576 856Q576 819 551 792T488 766Q452 766 429 787T406 842Q406 880 432 906T496 932Z" horiz-adv-x="684" unicode="Ċ"/>
			<glyph d="M326 513Q370 513 416 497T496 459L432 342Q405 360 375 371T322 383Q280 383 246 361T194 304T175 226Q175 180 202 149T283 119Q355 119 419 169L440 41Q411 16 365 1T262 -14Q190 -14 135 13T50 90T20 205Q20 286 58 357T167 470T326 513ZM359 740Q393 740 416 718T439 664Q439 627 414 600T351 574Q315 574 292 595T269 650Q269 688 295 714T359 740Z" horiz-adv-x="500" unicode="ċ"/>
			<glyph d="M461 727Q531 727 601 705T708 655L646 511Q615 538 563 558T457 578Q389 578 334 540T249 441T219 309Q219 233 265 182T393 132Q506 132 618 214V55Q572 22 506 1T366 -19Q268 -19 194 19T81 127T41 289Q41 410 96 510T247 668T461 727ZM309 908H435L489 825L572 908H699L552 764H407Z" horiz-adv-x="684" unicode="Č"/>
			<glyph d="M326 513Q370 513 416 497T496 459L432 342Q405 360 375 371T322 383Q280 383 246 361T194 304T175 226Q175 180 202 149T283 119Q355 119 419 169L440 41Q411 16 365 1T262 -14Q190 -14 135 13T50 90T20 205Q20 286 58 357T167 470T326 513ZM167 716H293L347 633L430 716H557L410 572H265Z" horiz-adv-x="500" unicode="č"/>
			<glyph d="M143 708H405Q490 708 566 676T690 578T739 410Q739 288 683 195T529 51T307 0H18ZM281 567L207 144H314Q394 144 451 178T537 269T566 390Q566 468 517 517T372 567ZM249 908H375L429 825L512 908H639L492 764H347Z" horiz-adv-x="769" unicode="Ď"/>
			<glyph d="M667 759L533 0H386L398 68H395Q369 30 324 9T226 -12Q163 -12 116 15T45 91T20 202Q20 286 55 357T154 469T295 511Q349 511 389 490T450 434H452L504 740ZM319 382Q257 382 218 336T179 223Q179 177 206 147T282 118Q322 118 354 139T404 197T423 277Q423 323 394 352T319 382ZM757 708H899L769 513H646Z" horiz-adv-x="776" unicode="ď"/>
			<glyph d="M143 708H405Q490 708 566 676T690 578T739 410Q739 288 683 195T529 51T307 0H18L72 309H15L34 416H91ZM281 567L255 416H426L407 309H236L207 144H314Q394 144 451 178T537 269T566 390Q566 468 517 517T372 567Z" horiz-adv-x="769" unicode="Đ"/>
			<glyph d="M507 756H667L650 659H702L686 570H634L533 0H386L398 68H395Q369 30 324 9T226 -12Q163 -12 116 15T45 91T20 202Q20 286 55 357T154 469T295 511Q349 511 389 490T450 434H452L475 570H327L343 659H490ZM319 382Q257 382 218 336T179 223Q179 177 206 147T282 118Q322 118 354 139T404 197T423 277Q423 323 394 352T319 382Z" horiz-adv-x="656" unicode="đ"/>
			<glyph d="M143 708H596L551 566H277L253 429H523L479 295H229L203 143H525L480 0H18ZM228 877H562L547 793H214Z" horiz-adv-x="577" unicode="Ē"/>
			<glyph d="M320 513Q420 513 480 457T540 303Q540 284 536 256T527 206H170Q169 202 169 197Q169 156 206 132T297 108Q338 108 382 120T464 152L476 32Q439 11 384 -2T265 -15Q195 -15 139 11T52 87T20 209Q20 293 58 362T165 472T320 513ZM307 401Q258 401 224 370T181 304H397Q398 311 398 324Q398 358 373 379T307 401ZM195 685H529L514 601H181Z" horiz-adv-x="587" unicode="ē"/>
			<glyph d="M143 708H596L551 566H277L253 429H523L479 295H229L203 143H525L480 0H18ZM219 908H301Q301 878 323 864T381 851Q422 851 448 863T483 908H565Q549 834 498 799T376 764Q303 764 261 798T219 908Z" horiz-adv-x="577" unicode="Ĕ"/>
			<glyph d="M320 513Q420 513 480 457T540 303Q540 284 536 256T527 206H170Q169 202 169 197Q169 156 206 132T297 108Q338 108 382 120T464 152L476 32Q439 11 384 -2T265 -15Q195 -15 139 11T52 87T20 209Q20 293 58 362T165 472T320 513ZM307 401Q258 401 224 370T181 304H397Q398 311 398 324Q398 358 373 379T307 401ZM181 716H263Q263 687 285 673T343 659Q384 659 410 671T445 716H527Q511 642 460 607T338 572Q265 572 223 606T181 716Z" horiz-adv-x="587" unicode="ĕ"/>
			<glyph d="M143 708H596L551 566H277L253 429H523L479 295H229L203 143H525L480 0H18ZM394 932Q428 932 451 910T474 856Q474 819 449 792T386 766Q350 766 327 787T304 842Q304 880 330 906T394 932Z" horiz-adv-x="577" unicode="Ė"/>
			<glyph d="M320 513Q420 513 480 457T540 303Q540 284 536 256T527 206H170Q169 202 169 197Q169 156 206 132T297 108Q338 108 382 120T464 152L476 32Q439 11 384 -2T265 -15Q195 -15 139 11T52 87T20 209Q20 293 58 362T165 472T320 513ZM307 401Q258 401 224 370T181 304H397Q398 311 398 324Q398 358 373 379T307 401ZM360 740Q394 740 417 718T440 664Q440 627 415 600T352 574Q316 574 293 595T270 650Q270 688 296 714T360 740Z" horiz-adv-x="587" unicode="ė"/>
			<glyph d="M143 708H586L561 566H277L253 429H523L479 295H229L203 143H515L490 0H461Q409 -37 380 -68T351 -127Q351 -154 384 -154Q413 -154 441 -135L462 -196Q404 -236 343 -236Q300 -236 273 -216T247 -153Q247 -112 282 -74T372 0H18Z" horiz-adv-x="577" unicode="Ę"/>
			<glyph d="M320 513Q420 513 480 457T540 303Q540 284 536 256T527 206H170Q169 202 169 197Q169 156 206 132T297 108Q338 108 382 120T464 152L476 32Q417 -2 327 -12Q232 -82 232 -127Q232 -154 265 -154Q293 -154 322 -135L343 -196Q285 -236 224 -236Q181 -236 154 -216T128 -153Q128 -88 233 -14Q138 -5 79 53T20 209Q20 293 58 362T165 472T320 513ZM307 401Q258 401 224 370T181 304H397Q398 311 398 324Q398 358 373 379T307 401Z" horiz-adv-x="587" unicode="ę"/>
			<glyph d="M143 708H596L551 566H277L253 429H523L479 295H229L203 143H525L480 0H18ZM202 908H328L382 825L465 908H592L445 764H300Z" horiz-adv-x="577" unicode="Ě"/>
			<glyph d="M320 513Q420 513 480 457T540 303Q540 284 536 256T527 206H170Q169 202 169 197Q169 156 206 132T297 108Q338 108 382 120T464 152L476 32Q439 11 384 -2T265 -15Q195 -15 139 11T52 87T20 209Q20 293 58 362T165 472T320 513ZM307 401Q258 401 224 370T181 304H397Q398 311 398 324Q398 358 373 379T307 401ZM172 716H298L352 633L435 716H562L415 572H270Z" horiz-adv-x="587" unicode="ě"/>
			<glyph d="M460 727Q537 727 607 705T729 649L668 517Q627 543 570 562T457 581Q390 581 334 543T246 443T214 308Q214 227 263 176T401 126Q464 128 504 147L527 280H389L434 417H705L640 43Q585 14 516 -2T379 -19Q278 -19 201 18T83 126T41 289Q41 410 95 510T246 668T460 727ZM424 908H570L666 764H541L486 846L403 764H276Z" horiz-adv-x="749" unicode="Ĝ"/>
			<glyph d="M300 511Q354 511 394 490T456 432H459L470 498H621L542 46Q517 -97 441 -168T223 -240Q161 -240 94 -222T-12 -178L36 -48Q127 -110 222 -110Q296 -110 333 -73T383 29L390 62H387Q365 33 324 14T234 -5Q137 -5 80 52T24 203Q24 288 59 358T158 470T300 511ZM323 383Q281 383 249 361T199 302T182 223Q182 178 208 148T285 118Q325 118 358 140T409 199T428 278Q428 325 399 354T323 383ZM326 716H472L568 572H443L388 654L305 572H178Z" horiz-adv-x="656" unicode="ĝ"/>
			<glyph d="M460 727Q537 727 607 705T729 649L668 517Q627 543 570 562T457 581Q390 581 334 543T246 443T214 308Q214 227 263 176T401 126Q464 128 504 147L527 280H389L434 417H705L640 43Q585 14 516 -2T379 -19Q278 -19 201 18T83 126T41 289Q41 410 95 510T246 668T460 727ZM311 908H393Q393 878 415 864T473 851Q514 851 540 863T575 908H657Q641 834 590 799T468 764Q395 764 353 798T311 908Z" horiz-adv-x="749" unicode="Ğ"/>
			<glyph d="M300 511Q354 511 394 490T456 432H459L470 498H621L542 46Q517 -97 441 -168T223 -240Q161 -240 94 -222T-12 -178L36 -48Q127 -110 222 -110Q296 -110 333 -73T383 29L390 62H387Q365 33 324 14T234 -5Q137 -5 80 52T24 203Q24 288 59 358T158 470T300 511ZM323 383Q281 383 249 361T199 302T182 223Q182 178 208 148T285 118Q325 118 358 140T409 199T428 278Q428 325 399 354T323 383ZM214 716H296Q296 687 318 673T376 659Q417 659 443 671T478 716H560Q544 642 493 607T371 572Q298 572 256 606T214 716Z" horiz-adv-x="656" unicode="ğ"/>
			<glyph d="M460 727Q537 727 607 705T729 649L668 517Q627 543 570 562T457 581Q390 581 334 543T246 443T214 308Q214 227 263 176T401 126Q464 128 504 147L527 280H389L434 417H705L640 43Q585 14 516 -2T379 -19Q278 -19 201 18T83 126T41 289Q41 410 95 510T246 668T460 727ZM494 932Q528 932 551 910T574 856Q574 819 549 792T486 766Q450 766 427 787T404 842Q404 880 430 906T494 932Z" horiz-adv-x="749" unicode="Ġ"/>
			<glyph d="M300 511Q354 511 394 490T456 432H459L470 498H621L542 46Q517 -97 441 -168T223 -240Q161 -240 94 -222T-12 -178L36 -48Q127 -110 222 -110Q296 -110 333 -73T383 29L390 62H387Q365 33 324 14T234 -5Q137 -5 80 52T24 203Q24 288 59 358T158 470T300 511ZM323 383Q281 383 249 361T199 302T182 223Q182 178 208 148T285 118Q325 118 358 140T409 199T428 278Q428 325 399 354T323 383ZM387 740Q421 740 444 718T467 664Q467 627 442 600T379 574Q343 574 320 595T297 650Q297 688 323 714T387 740Z" horiz-adv-x="656" unicode="ġ"/>
			<glyph d="M460 727Q537 727 607 705T729 649L668 517Q627 543 570 562T457 581Q390 581 334 543T246 443T214 308Q214 227 263 176T401 126Q464 128 504 147L527 280H389L434 417H705L640 43Q585 14 516 -2T379 -19Q278 -19 201 18T83 126T41 289Q41 410 95 510T246 668T460 727ZM295 -45H437L307 -240H184Z" horiz-adv-x="749" unicode="Ģ"/>
			<glyph d="M300 511Q354 511 394 490T456 432H459L470 498H621L542 46Q517 -97 441 -168T223 -240Q161 -240 94 -222T-12 -178L36 -48Q127 -110 222 -110Q296 -110 333 -73T383 29L390 62H387Q365 33 324 14T234 -5Q137 -5 80 52T24 203Q24 288 59 358T158 470T300 511ZM323 383Q281 383 249 361T199 302T182 223Q182 178 208 148T285 118Q325 118 358 140T409 199T428 278Q428 325 399 354T323 383ZM420 767H543L432 572H290Z" horiz-adv-x="656" unicode="ģ"/>
			<glyph d="M143 708H309L261 439H577L624 708H791L666 0H500L552 298H237L184 0H18ZM407 908H553L649 764H524L469 846L386 764H259Z" horiz-adv-x="797" unicode="Ĥ"/>
			<glyph d="M305 759L247 433H249Q272 466 311 488T397 511Q476 511 516 468T556 360Q556 327 551 306L497 0H337L384 270Q389 293 389 312Q389 342 373 360T323 379Q281 379 253 347T218 268L170 0H10L141 740ZM333 940H479L575 796H450L395 878L312 796H185Z" horiz-adv-x="615" unicode="ĥ"/>
			<glyph d="M143 708H309L288 589H603L624 708H791L666 0H500L552 298H237L184 0H18ZM272 500L261 439H577L587 500Z" horiz-adv-x="797" unicode="Ħ"/>
			<glyph d="M304 759L287 659H426L410 570H271L247 433H249Q272 466 311 488T397 511Q476 511 516 468T556 360Q556 327 551 306L497 0H337L384 270Q389 293 389 312Q389 342 373 360T323 379Q281 379 253 347T218 268L170 0H10L110 570H51L67 659H126L140 740Z" horiz-adv-x="615" unicode="ħ"/>
			<glyph d="M143 708H310L185 0H18ZM370 900H441Q424 842 390 805T305 769Q268 769 233 788Q210 800 196 805T168 810Q137 810 118 768H47Q64 825 98 861T183 897Q219 897 259 877Q297 857 321 857Q352 857 370 900Z" horiz-adv-x="315" unicode="Ĩ"/>
			<glyph d="M98 498H259L170 0H11ZM325 708H396Q379 650 345 613T260 577Q223 577 188 596Q165 608 151 613T123 618Q92 618 73 576H2Q19 633 53 669T138 705Q174 705 214 685Q252 665 276 665Q307 665 325 708Z" horiz-adv-x="294" unicode="ĩ"/>
			<glyph d="M143 708H310L185 0H18ZM83 877H417L402 793H69Z" horiz-adv-x="315" unicode="Ī"/>
			<glyph d="M98 498H259L170 0H11ZM39 685H373L358 601H25Z" horiz-adv-x="294" unicode="ī"/>
			<glyph d="M143 708H310L185 0H18ZM88 908H170Q170 878 192 864T250 851Q291 851 317 863T352 908H434Q418 834 367 799T245 764Q172 764 130 798T88 908Z" horiz-adv-x="315" unicode="Ĭ"/>
			<glyph d="M98 498H259L170 0H11ZM43 716H125Q125 687 147 673T205 659Q246 659 272 671T307 716H389Q373 642 322 607T200 572Q127 572 85 606T43 716Z" horiz-adv-x="294" unicode="ĭ"/>
			<glyph d="M143 708H310L185 0H176Q123 -39 94 -69T66 -127Q66 -154 99 -154Q128 -154 156 -135L177 -196Q119 -236 58 -236Q15 -236 -11 -216T-38 -153Q-38 -112 -3 -74T87 0H18Z" horiz-adv-x="315" unicode="Į"/>
			<glyph d="M208 745Q245 745 269 722T293 665Q293 625 266 597T200 569Q162 569 137 592T113 649Q113 689 140 717T208 745ZM98 498H259L170 0H160Q108 -37 79 -68T50 -127Q50 -154 83 -154Q111 -154 140 -135L161 -196Q103 -236 42 -236Q-1 -236 -27 -216T-54 -153Q-54 -112 -19 -74T71 0H11Z" horiz-adv-x="294" unicode="į"/>
			<glyph d="M143 708H310L185 0H18ZM250 932Q284 932 307 910T330 856Q330 819 305 792T242 766Q206 766 183 787T160 842Q160 880 186 906T250 932Z" horiz-adv-x="315" unicode="İ"/>
			<glyph d="M98 498H259L170 0H11Z" horiz-adv-x="294" unicode="ı"/>
			<glyph d="M143 708H310L185 0H18ZM581 708H749L665 239Q645 126 590 53T410 -19Q370 -19 337 -10L317 142Q363 131 409 131Q450 131 470 159T499 240Z" horiz-adv-x="748" unicode="Ĳ"/>
			<glyph d="M208 745Q245 745 269 722T293 665Q293 625 266 597T200 569Q162 569 137 592T113 649Q113 689 140 717T208 745ZM98 498H259L170 0H11ZM505 745Q542 745 566 722T590 665Q590 625 563 597T497 569Q459 569 434 592T410 649Q410 689 437 717T505 745ZM395 498H556L465 -19Q446 -125 396 -184T235 -244Q198 -244 166 -235L195 -102Q210 -107 229 -107Q263 -107 280 -84T304 -19Z" horiz-adv-x="591" unicode="ĳ"/>
			<glyph d="M266 708H434L350 239Q330 126 275 53T95 -19Q55 -19 22 -10L2 142Q48 131 94 131Q135 131 155 159T184 240ZM305 908H451L547 764H422L367 846L284 764H157Z" horiz-adv-x="433" unicode="Ĵ"/>
			<glyph d="M101 498H262L171 -19Q152 -125 102 -184T-59 -244Q-96 -244 -128 -235L-99 -102Q-84 -107 -65 -107Q-31 -107 -14 -84T10 -19ZM151 716H297L393 572H268L213 654L130 572H3Z" horiz-adv-x="297" unicode="ĵ"/>
			<glyph d="M143 708H306L253 411L537 708H749L402 371L654 0H447L239 333L181 0H18ZM228 -45H370L240 -240H117Z" horiz-adv-x="679" unicode="Ķ"/>
			<glyph d="M305 759L222 296H225L414 498H616L376 265L526 0H357L218 251H215L170 0H10L140 740ZM174 -45H316L186 -240H63Z" horiz-adv-x="572" unicode="ķ"/>
			<glyph d="M97 498H258L222 296H225L414 498H616L376 265L526 0H357L218 251H215L170 0H10Z" horiz-adv-x="572" unicode="ĸ"/>
			<glyph d="M143 708H310L210 145H488L442 0H18ZM298 908H461L291 764H169Z" horiz-adv-x="525" unicode="Ĺ"/>
			<glyph d="M310 776L215 235Q211 209 211 199Q210 167 220 145T255 102L137 -20Q40 38 40 158Q40 183 45 215L141 756ZM278 936H441L271 792H149Z" horiz-adv-x="295" unicode="ĺ"/>
			<glyph d="M143 708H310L210 145H488L442 0H18ZM161 -45H303L173 -240H50Z" horiz-adv-x="525" unicode="Ļ"/>
			<glyph d="M310 776L215 235Q211 209 211 199Q210 167 220 145T255 102L137 -20Q40 38 40 158Q40 183 45 215L141 756ZM40 -46H182L52 -241H-71Z" horiz-adv-x="295" unicode="ļ"/>
			<glyph d="M143 708H310L210 145H488L442 0H18ZM426 708H568L438 513H315Z" horiz-adv-x="525" unicode="Ľ"/>
			<glyph d="M310 776L215 235Q211 209 211 199Q210 167 220 145T255 102L137 -20Q40 38 40 158Q40 183 45 215L141 756ZM405 708H547L417 513H294Z" horiz-adv-x="410" unicode="ľ"/>
			<glyph d="M143 708H310L210 145H488L442 0H18ZM441 508Q475 508 498 486T521 432Q521 395 496 368T433 342Q397 342 374 363T351 418Q351 456 377 482T441 508Z" horiz-adv-x="525" unicode="Ŀ"/>
			<glyph d="M310 776L215 235Q211 209 211 199Q210 167 220 145T255 102L137 -20Q40 38 40 158Q40 183 45 215L141 756ZM401 526Q435 526 458 504T481 450Q481 413 456 386T393 360Q357 360 334 381T311 436Q311 474 337 500T401 526Z" horiz-adv-x="451" unicode="ŀ"/>
			<glyph d="M142 708H310L264 445L485 612L460 472L239 305L210 146H488L462 0H17L49 179L-25 122L-1 263L74 319Z" horiz-adv-x="525" unicode="Ł"/>
			<glyph d="M310 776L269 544L338 595L313 454L244 403L215 235Q211 209 211 199Q210 167 220 145T255 102L137 -20Q40 38 40 158Q40 183 45 215L53 259L-11 211L14 353L78 401L141 756Z" horiz-adv-x="295" unicode="ł"/>
			<glyph d="M143 708H330L524 241H526L606 708H770L645 0H460L265 470H262L182 0H18ZM495 908H658L488 764H366Z" horiz-adv-x="789" unicode="Ń"/>
			<glyph d="M397 511Q476 511 516 468T556 360Q556 327 551 306L497 0H337L384 270Q389 293 389 312Q389 342 373 360T323 379Q281 379 253 348T218 270L170 0H10L79 395Q89 445 94 498H247L243 459Q242 453 239 426H241Q266 465 306 488T397 511ZM376 716H539L369 572H247Z" horiz-adv-x="615" unicode="ń"/>
			<glyph d="M143 708H330L524 241H526L606 708H770L645 0H460L265 470H262L182 0H18ZM266 -45H408L278 -240H155Z" horiz-adv-x="789" unicode="Ņ"/>
			<glyph d="M397 511Q476 511 516 468T556 360Q556 327 551 306L497 0H337L384 270Q389 293 389 312Q389 342 373 360T323 379Q281 379 253 348T218 270L170 0H10L79 395Q89 445 94 498H247L243 459Q242 453 239 426H241Q266 465 306 488T397 511ZM197 -45H339L209 -240H86Z" horiz-adv-x="615" unicode="ņ"/>
			<glyph d="M143 708H330L524 241H526L606 708H770L645 0H460L265 470H262L182 0H18ZM288 908H414L468 825L551 908H678L531 764H386Z" horiz-adv-x="789" unicode="Ň"/>
			<glyph d="M397 511Q476 511 516 468T556 360Q556 327 551 306L497 0H337L384 270Q389 293 389 312Q389 342 373 360T323 379Q281 379 253 348T218 270L170 0H10L79 395Q89 445 94 498H247L243 459Q242 453 239 426H241Q266 465 306 488T397 511ZM170 716H296L350 633L433 716H560L413 572H268Z" horiz-adv-x="615" unicode="ň"/>
			<glyph d="M483 511Q562 511 602 468T642 360Q642 327 637 306L583 0H423L470 270Q475 293 475 312Q475 342 459 360T409 379Q367 379 339 348T304 270L256 0H96L165 395Q175 445 180 498H333L329 459Q328 453 325 426H327Q352 465 392 488T483 511ZM148 708H290L160 513H37Z" horiz-adv-x="701" unicode="ŉ"/>
			<glyph d="M143 708H330L527 261H529L606 708H770L642 -19Q623 -125 573 -184T412 -244Q375 -244 343 -235L372 -102Q387 -107 406 -107Q440 -107 457 -84T481 -19L482 -10L265 470H262L182 0H18Z" horiz-adv-x="789" unicode="Ŋ"/>
			<glyph d="M397 511Q476 511 516 468T556 360Q556 327 551 306L494 -19Q475 -125 425 -184T264 -244Q227 -244 195 -235L224 -102Q239 -107 258 -107Q292 -107 309 -84T333 -19L384 270Q389 293 389 312Q389 342 373 360T323 379Q281 379 253 348T218 270L170 0H10L79 395Q89 445 94 498H247L243 459Q242 453 239 426H241Q266 465 306 488T397 511Z" horiz-adv-x="615" unicode="ŋ"/>
			<glyph d="M460 726Q565 726 642 687T761 578T802 413Q802 294 749 195T601 39T386 -18Q280 -18 202 20T82 129T41 295Q41 414 95 512T245 668T460 726ZM449 578Q379 578 325 540T243 440T214 310Q214 260 235 219T297 155T395 132Q466 132 519 169T600 269T629 400Q629 450 608 490T546 554T449 578ZM342 877H676L661 793H328Z" horiz-adv-x="831" unicode="Ō"/>
			<glyph d="M324 513Q397 513 455 486T547 409T580 294Q580 210 542 139T435 27T273 -14Q201 -14 143 13T53 89T20 205Q20 288 57 358T164 471T324 513ZM317 382Q276 382 244 360T194 301T177 222Q177 176 205 147T281 118Q323 118 355 139T404 197T422 277Q422 323 393 352T317 382ZM206 685H540L525 601H192Z" horiz-adv-x="626" unicode="ō"/>
			<glyph d="M460 726Q565 726 642 687T761 578T802 413Q802 294 749 195T601 39T386 -18Q280 -18 202 20T82 129T41 295Q41 414 95 512T245 668T460 726ZM449 578Q379 578 325 540T243 440T214 310Q214 260 235 219T297 155T395 132Q466 132 519 169T600 269T629 400Q629 450 608 490T546 554T449 578ZM329 908H411Q411 878 433 864T491 851Q532 851 558 863T593 908H675Q659 834 608 799T486 764Q413 764 371 798T329 908Z" horiz-adv-x="831" unicode="Ŏ"/>
			<glyph d="M324 513Q397 513 455 486T547 409T580 294Q580 210 542 139T435 27T273 -14Q201 -14 143 13T53 89T20 205Q20 288 57 358T164 471T324 513ZM317 382Q276 382 244 360T194 301T177 222Q177 176 205 147T281 118Q323 118 355 139T404 197T422 277Q422 323 393 352T317 382ZM194 716H276Q276 687 298 673T356 659Q397 659 423 671T458 716H540Q524 642 473 607T351 572Q278 572 236 606T194 716Z" horiz-adv-x="626" unicode="ŏ"/>
			<glyph d="M460 726Q565 726 642 687T761 578T802 413Q802 294 749 195T601 39T386 -18Q280 -18 202 20T82 129T41 295Q41 414 95 512T245 668T460 726ZM449 578Q379 578 325 540T243 440T214 310Q214 260 235 219T297 155T395 132Q466 132 519 169T600 269T629 400Q629 450 608 490T546 554T449 578ZM444 908H608L437 764H316ZM664 908H827L656 764H535Z" horiz-adv-x="831" unicode="Ő"/>
			<glyph d="M324 513Q397 513 455 486T547 409T580 294Q580 210 542 139T435 27T273 -14Q201 -14 143 13T53 89T20 205Q20 288 57 358T164 471T324 513ZM317 382Q276 382 244 360T194 301T177 222Q177 176 205 147T281 118Q323 118 355 139T404 197T422 277Q422 323 393 352T317 382ZM307 716H471L300 572H179ZM527 716H690L519 572H398Z" horiz-adv-x="626" unicode="ő"/>
			<glyph d="M473 708H989L944 566H690L666 429H916L872 295H642L616 143H918L873 0H375Q290 0 214 31T89 130T41 298Q41 420 97 513T251 657T473 708ZM466 565Q386 565 329 531T243 440T214 320Q214 242 263 192T409 143H460L534 565Z" horiz-adv-x="970" unicode="Œ"/>
			<glyph d="M327 513Q456 513 512 426Q545 467 597 490T711 513Q811 513 871 457T931 303Q931 284 927 256T918 206H561Q560 202 560 197Q560 171 580 150T629 119T688 108Q729 108 773 120T855 152L867 32Q830 11 775 -2T656 -15Q594 -15 543 6T467 68Q437 29 386 7T271 -14Q199 -14 142 13T52 89T20 205Q20 289 58 359T166 471T327 513ZM698 401Q649 401 615 370T572 304H788Q789 311 789 324Q789 358 764 379T698 401ZM317 382Q277 382 245 360T195 301T177 222Q177 176 205 147T281 118Q322 118 354 139T404 197T422 277Q422 323 393 352T317 382Z" horiz-adv-x="978" unicode="œ"/>
			<glyph d="M143 708H385Q501 708 567 658T633 520Q633 436 586 380T459 305L603 0H415L296 285H228L180 0H18ZM280 572L250 404H324Q392 404 428 427T465 496Q465 537 435 554T351 572ZM407 908H570L400 764H278Z" horiz-adv-x="656" unicode="Ŕ"/>
			<glyph d="M383 511Q401 511 417 507L371 365Q354 370 331 370Q276 370 247 334T213 256L168 0H8L79 395Q89 445 94 498H246Q244 467 237 425H239Q296 511 383 511ZM270 716H433L263 572H141Z" horiz-adv-x="379" unicode="ŕ"/>
			<glyph d="M143 708H385Q501 708 567 658T633 520Q633 436 586 380T459 305L603 0H415L296 285H228L180 0H18ZM280 572L250 404H324Q392 404 428 427T465 496Q465 537 435 554T351 572ZM214 -45H356L226 -240H103Z" horiz-adv-x="656" unicode="Ŗ"/>
			<glyph d="M383 511Q401 511 417 507L371 365Q354 370 331 370Q276 370 247 334T213 256L168 0H8L79 395Q89 445 94 498H246Q244 467 237 425H239Q296 511 383 511ZM13 -46H155L25 -241H-98Z" horiz-adv-x="379" unicode="ŗ"/>
			<glyph d="M143 708H385Q501 708 567 658T633 520Q633 436 586 380T459 305L603 0H415L296 285H228L180 0H18ZM280 572L250 404H324Q392 404 428 427T465 496Q465 537 435 554T351 572ZM197 908H323L377 825L460 908H587L440 764H295Z" horiz-adv-x="656" unicode="Ř"/>
			<glyph d="M383 511Q401 511 417 507L371 365Q354 370 331 370Q276 370 247 334T213 256L168 0H8L79 395Q89 445 94 498H246Q244 467 237 425H239Q296 511 383 511ZM86 716H212L266 633L349 716H476L329 572H184Z" horiz-adv-x="379" unicode="ř"/>
			<glyph d="M364 726Q426 726 481 709T573 669L515 538Q488 558 442 575T362 592Q315 592 281 570T248 506Q248 478 269 460T337 426Q434 392 482 343T531 218Q531 138 488 84T378 6T239 -19Q168 -19 101 0T-11 50L42 198Q83 162 138 140T242 119Q290 119 323 140T356 205Q356 239 328 261T246 302Q166 329 122 371T78 492Q78 562 116 615T219 697T364 726ZM406 908H569L399 764H277Z" horiz-adv-x="585" unicode="Ś"/>
			<glyph d="M266 513Q319 513 367 496T443 453L367 353Q345 371 314 384T257 397Q228 397 208 386T188 353Q188 337 203 327T253 308Q328 288 366 253T404 158Q404 100 372 61T290 3T180 -16Q123 -16 70 -2T-9 32L33 149Q98 102 180 102Q213 102 233 114T254 147Q254 166 237 177T183 200Q109 222 75 253T41 340Q41 393 71 432T153 492T266 513ZM314 716H477L307 572H185Z" horiz-adv-x="464" unicode="ś"/>
			<glyph d="M364 726Q426 726 481 709T573 669L515 538Q488 558 442 575T362 592Q315 592 281 570T248 506Q248 478 269 460T337 426Q434 392 482 343T531 218Q531 138 488 84T378 6T239 -19Q168 -19 101 0T-11 50L42 198Q83 162 138 140T242 119Q290 119 323 140T356 205Q356 239 328 261T246 302Q166 329 122 371T78 492Q78 562 116 615T219 697T364 726ZM330 908H476L572 764H447L392 846L309 764H182Z" horiz-adv-x="585" unicode="Ŝ"/>
			<glyph d="M266 513Q319 513 367 496T443 453L367 353Q345 371 314 384T257 397Q228 397 208 386T188 353Q188 337 203 327T253 308Q328 288 366 253T404 158Q404 100 372 61T290 3T180 -16Q123 -16 70 -2T-9 32L33 149Q98 102 180 102Q213 102 233 114T254 147Q254 166 237 177T183 200Q109 222 75 253T41 340Q41 393 71 432T153 492T266 513ZM243 716H389L485 572H360L305 654L222 572H95Z" horiz-adv-x="464" unicode="ŝ"/>
			<glyph d="M364 727Q428 727 489 702T585 636L472 536Q453 563 422 577T355 591Q315 591 281 569T248 506Q248 478 269 460T337 426Q434 392 482 343T531 218Q531 143 493 91T396 13T268 -18L227 -61Q235 -59 246 -59Q279 -59 307 -77T335 -135Q335 -189 289 -214T183 -240Q153 -240 118 -233T63 -215L95 -156Q112 -165 134 -169T176 -174Q231 -174 231 -141Q231 -112 189 -112Q168 -112 148 -118L123 -89L190 -16Q124 -8 66 19T-26 91L97 191Q118 159 159 139T242 119Q290 119 323 140T356 205Q356 239 328 261T246 302Q166 329 122 371T78 492Q78 562 116 615T219 698T364 727Z" horiz-adv-x="585" unicode="Ş"/>
			<glyph d="M266 513Q325 513 375 493T455 436L354 351Q339 372 314 384T257 397Q228 397 208 386T188 353Q188 337 203 327T253 308Q328 288 366 253T404 158Q404 83 352 39T222 -15L179 -61Q187 -59 198 -59Q231 -59 259 -77T287 -135Q287 -189 241 -214T135 -240Q105 -240 70 -233T15 -215L47 -156Q64 -165 86 -169T128 -174Q183 -174 183 -141Q183 -112 141 -112Q120 -112 100 -118L75 -89L142 -16Q86 -10 42 11T-32 68L68 159Q86 132 117 117T183 102Q215 102 234 114T254 147Q254 166 237 177T183 200Q109 222 75 253T41 340Q41 393 71 432T153 492T266 513Z" horiz-adv-x="464" unicode="ş"/>
			<glyph d="M364 726Q426 726 481 709T573 669L515 538Q488 558 442 575T362 592Q315 592 281 570T248 506Q248 478 269 460T337 426Q434 392 482 343T531 218Q531 138 488 84T378 6T239 -19Q168 -19 101 0T-11 50L42 198Q83 162 138 140T242 119Q290 119 323 140T356 205Q356 239 328 261T246 302Q166 329 122 371T78 492Q78 562 116 615T219 697T364 726ZM191 908H317L371 825L454 908H581L434 764H289Z" horiz-adv-x="585" unicode="Š"/>
			<glyph d="M266 513Q319 513 367 496T443 453L367 353Q345 371 314 384T257 397Q228 397 208 386T188 353Q188 337 203 327T253 308Q328 288 366 253T404 158Q404 100 372 61T290 3T180 -16Q123 -16 70 -2T-9 32L33 149Q98 102 180 102Q213 102 233 114T254 147Q254 166 237 177T183 200Q109 222 75 253T41 340Q41 393 71 432T153 492T266 513ZM102 716H228L282 633L365 716H492L345 572H200Z" horiz-adv-x="464" unicode="š"/>
			<glyph d="M85 708H638L593 565H404L304 0H138L237 565H39ZM144 -45H286L156 -240H33Z" horiz-adv-x="553" unicode="Ţ"/>
			<glyph d="M303 645L277 498H423L381 377H258L222 182Q219 155 219 151Q219 135 229 125T261 115Q279 115 300 119T337 128L355 16Q290 -12 214 -12Q164 -12 129 7T78 55T61 116Q61 145 66 172L102 377H20L62 498H121L138 595ZM98 -45H240L110 -240H-13Z" horiz-adv-x="415" unicode="ţ"/>
			<glyph d="M85 708H638L593 565H404L304 0H138L237 565H39ZM178 908H304L358 825L441 908H568L421 764H276Z" horiz-adv-x="553" unicode="Ť"/>
			<glyph d="M303 645L277 498H423L381 377H258L222 182Q219 155 219 151Q219 135 229 125T261 115Q279 115 300 119T337 128L355 16Q290 -12 214 -12Q164 -12 129 7T78 55T61 116Q61 145 66 172L102 377H20L62 498H121L138 595ZM420 747H562L432 552H309Z" horiz-adv-x="424" unicode="ť"/>
			<glyph d="M85 708H633L588 565H404L388 477H520L504 388H372L304 0H138L206 388H66L82 477H221L237 565H39Z" horiz-adv-x="553" unicode="Ŧ"/>
			<glyph d="M303 645L277 498H423L381 377H258L245 304H339L323 215H228L222 182Q219 155 219 151Q219 135 229 125T261 115Q279 115 300 119T337 128L355 16Q290 -12 214 -12Q164 -12 129 7T78 55T61 116Q61 145 66 172L74 215H13L29 304H89L102 377H20L62 498H121L138 595Z" horiz-adv-x="415" unicode="ŧ"/>
			<glyph d="M135 708H300L224 279Q221 260 221 238Q221 190 250 158T340 127Q415 127 449 169T495 277L572 708H736L658 260Q635 129 553 55T331 -18Q247 -18 183 9T86 86T52 203Q52 231 57 264ZM580 900H651Q634 842 600 805T515 769Q478 769 443 788Q420 800 406 805T378 810Q347 810 328 768H257Q274 825 308 861T393 897Q429 897 469 877Q507 857 531 857Q562 857 580 900Z" horiz-adv-x="737" unicode="Ũ"/>
			<glyph d="M86 498H247L199 228Q195 200 195 186Q195 156 211 137T261 119Q302 119 329 150T366 229L414 498H574L504 103Q494 53 489 0H337L342 42L345 72H342Q318 34 277 10T186 -13Q108 -13 68 30T28 139Q28 171 33 193ZM483 708H554Q537 650 503 613T418 577Q381 577 346 596Q323 608 309 613T281 618Q250 618 231 576H160Q177 633 211 669T296 705Q332 705 372 685Q410 665 434 665Q465 665 483 708Z" horiz-adv-x="614" unicode="ũ"/>
			<glyph d="M135 708H300L224 279Q221 260 221 238Q221 190 250 158T340 127Q415 127 449 169T495 277L572 708H736L658 260Q635 129 553 55T331 -18Q247 -18 183 9T86 86T52 203Q52 231 57 264ZM296 877H630L615 793H282Z" horiz-adv-x="737" unicode="Ū"/>
			<glyph d="M86 498H247L199 228Q195 200 195 186Q195 156 211 137T261 119Q302 119 329 150T366 229L414 498H574L504 103Q494 53 489 0H337L342 42L345 72H342Q318 34 277 10T186 -13Q108 -13 68 30T28 139Q28 171 33 193ZM193 685H527L512 601H179Z" horiz-adv-x="614" unicode="ū"/>
			<glyph d="M135 708H300L224 279Q221 260 221 238Q221 190 250 158T340 127Q415 127 449 169T495 277L572 708H736L658 260Q635 129 553 55T331 -18Q247 -18 183 9T86 86T52 203Q52 231 57 264ZM281 908H363Q363 878 385 864T443 851Q484 851 510 863T545 908H627Q611 834 560 799T438 764Q365 764 323 798T281 908Z" horiz-adv-x="737" unicode="Ŭ"/>
			<glyph d="M86 498H247L199 228Q195 200 195 186Q195 156 211 137T261 119Q302 119 329 150T366 229L414 498H574L504 103Q494 53 489 0H337L342 42L345 72H342Q318 34 277 10T186 -13Q108 -13 68 30T28 139Q28 171 33 193ZM182 716H264Q264 687 286 673T344 659Q385 659 411 671T446 716H528Q512 642 461 607T339 572Q266 572 224 606T182 716Z" horiz-adv-x="614" unicode="ŭ"/>
			<glyph d="M135 708H300L224 279Q221 260 221 238Q221 190 250 158T340 127Q415 127 449 169T495 277L572 708H736L658 260Q635 129 553 55T331 -18Q247 -18 183 9T86 86T52 203Q52 231 57 264ZM467 961Q508 961 534 936T560 873Q560 821 526 785T441 749Q400 749 374 774T348 838Q348 890 382 925T467 961ZM462 916Q434 916 415 895T397 844Q397 822 410 808T445 794Q474 794 492 815T511 866Q511 887 497 901T462 916Z" horiz-adv-x="737" unicode="Ů"/>
			<glyph d="M86 498H247L199 228Q195 200 195 186Q195 156 211 137T261 119Q302 119 329 150T366 229L414 498H574L504 103Q494 53 489 0H337L342 42L345 72H342Q318 34 277 10T186 -13Q108 -13 68 30T28 139Q28 171 33 193ZM372 769Q413 769 439 744T465 681Q465 629 431 593T346 557Q305 557 279 582T253 646Q253 698 287 733T372 769ZM367 724Q339 724 320 703T302 652Q302 630 315 616T350 602Q379 602 397 623T416 674Q416 695 402 709T367 724Z" horiz-adv-x="614" unicode="ů"/>
			<glyph d="M135 708H300L224 279Q221 260 221 238Q221 190 250 158T340 127Q415 127 449 169T495 277L572 708H736L658 260Q635 129 553 55T331 -18Q247 -18 183 9T86 86T52 203Q52 231 57 264ZM399 908H563L392 764H271ZM619 908H782L611 764H490Z" horiz-adv-x="737" unicode="Ű"/>
			<glyph d="M86 498H247L199 228Q195 200 195 186Q195 156 211 137T261 119Q302 119 329 150T366 229L414 498H574L504 103Q494 53 489 0H337L342 42L345 72H342Q318 34 277 10T186 -13Q108 -13 68 30T28 139Q28 171 33 193ZM300 716H464L293 572H172ZM520 716H683L512 572H391Z" horiz-adv-x="614" unicode="ű"/>
			<glyph d="M135 708H300L224 279Q221 260 221 238Q221 190 250 158T340 127Q415 127 449 169T495 277L572 708H736L658 260Q637 140 567 68T377 -16Q335 -48 311 -75T288 -127Q288 -154 321 -154Q350 -154 378 -135L399 -196Q341 -236 280 -236Q237 -236 210 -216T184 -153Q184 -116 212 -82T286 -16Q177 -5 114 53T52 203Q52 231 57 264Z" horiz-adv-x="737" unicode="Ų"/>
			<glyph d="M86 498H247L199 228Q195 200 195 186Q195 156 211 137T261 119Q302 119 329 150T366 229L414 498H574L504 103Q494 53 489 0H433Q380 -39 351 -69T323 -127Q323 -154 356 -154Q385 -154 413 -135L434 -196Q376 -236 315 -236Q272 -236 245 -216T219 -153Q219 -112 254 -74T344 0H337L342 42L345 72H342Q318 34 277 10T186 -13Q108 -13 68 30T28 139Q28 171 33 193Z" horiz-adv-x="614" unicode="ų"/>
			<glyph d="M71 708H247L268 232H271L491 708H663L701 232H704L915 708H1090L750 0H584L536 484H533L298 0H133ZM540 908H686L782 764H657L602 846L519 764H392Z" horiz-adv-x="1014" unicode="Ŵ"/>
			<glyph d="M29 498H196L220 180H223L377 498H538L568 180H571L724 498H892L620 0H459L422 313H420L258 0H97ZM423 716H569L665 572H540L485 654L402 572H275Z" horiz-adv-x="856" unicode="ŵ"/>
			<glyph d="M35 708H221L322 440L525 708H727L383 301L329 0H163L216 301ZM335 908H481L577 764H452L397 846L314 764H187Z" horiz-adv-x="613" unicode="Ŷ"/>
			<glyph d="M32 498H207L259 172L424 498H594L292 -31Q236 -133 170 -178T6 -240L-24 -105Q39 -94 78 -73T140 -10L147 2ZM280 716H426L522 572H397L342 654L259 572H132Z" horiz-adv-x="556" unicode="ŷ"/>
			<glyph d="M35 708H221L322 440L525 708H727L383 301L329 0H163L216 301ZM288 929Q322 929 343 908T365 856Q365 820 341 795T281 770Q247 770 225 790T203 843Q203 880 227 904T288 929ZM508 929Q541 929 562 908T584 856Q584 820 560 795T500 770Q466 770 444 790T422 843Q422 880 446 904T508 929Z" horiz-adv-x="613" unicode="Ÿ"/>
			<glyph d="M124 708H648L624 574L207 145H578L532 0H-31L-6 144L406 566H99ZM428 908H591L421 764H299Z" horiz-adv-x="620" unicode="Ź"/>
			<glyph d="M88 498H500L479 378L191 124H460L418 0H-23L-1 125L282 376H47ZM340 716H503L333 572H211Z" horiz-adv-x="509" unicode="ź"/>
			<glyph d="M124 708H648L624 574L207 145H578L532 0H-31L-6 144L406 566H99ZM405 932Q439 932 462 910T485 856Q485 819 460 792T397 766Q361 766 338 787T315 842Q315 880 341 906T405 932Z" horiz-adv-x="620" unicode="Ż"/>
			<glyph d="M88 498H500L479 378L191 124H460L418 0H-23L-1 125L282 376H47ZM318 740Q352 740 375 718T398 664Q398 627 373 600T310 574Q274 574 251 595T228 650Q228 688 254 714T318 740Z" horiz-adv-x="509" unicode="ż"/>
			<glyph d="M124 708H648L624 574L207 145H578L532 0H-31L-6 144L406 566H99ZM212 908H338L392 825L475 908H602L455 764H310Z" horiz-adv-x="620" unicode="Ž"/>
			<glyph d="M88 498H500L479 378L191 124H460L418 0H-23L-1 125L282 376H47ZM123 716H249L303 633L386 716H513L366 572H221Z" horiz-adv-x="509" unicode="ž"/>
			<glyph d="M524 723Q603 723 655 689L582 570Q558 586 527 586Q495 586 475 564T439 501L414 436H550L510 323H372L269 49Q233 -46 180 -92T40 -139Q-23 -139 -73 -111L-7 9Q13 -7 40 -7Q71 -7 90 15T125 82L217 323H93L133 436H257L287 514Q312 578 338 622T410 694T524 723Z" horiz-adv-x="644" unicode="ƒ"/>
			<glyph d="M483 708H1013L968 566H714L690 429H941L896 295H667L640 143H942L897 0H459L485 156H261L147 0H-42ZM547 566L347 288H509L558 566ZM774 908H937L767 764H645Z" horiz-adv-x="994" unicode="Ǽ"/>
			<glyph d="M295 513Q423 513 455 439Q483 472 528 492T630 513Q729 513 789 457T849 303Q849 283 846 256T837 206H480Q479 202 479 197Q479 157 519 132T611 108Q652 108 696 120T778 152L790 32Q754 11 701 -2T593 -15Q523 -15 469 9T387 76Q360 37 310 12T187 -12Q112 -12 58 19T4 122Q4 229 98 266T350 304Q354 320 354 336Q354 393 276 393Q241 393 191 379T114 347L86 463Q181 513 295 513ZM617 401Q568 401 534 370T491 304H707Q708 311 708 324Q708 358 683 379T617 401ZM315 208Q236 208 193 194T151 145Q151 119 170 107T218 96Q267 96 298 121T337 191L340 208ZM534 716H697L527 572H405Z" horiz-adv-x="897" unicode="ǽ"/>
			<glyph d="M783 752L841 694L742 605Q802 527 802 413Q802 294 749 195T601 39T386 -18Q237 -18 145 58L45 -33L-12 25L89 118Q41 192 41 295Q41 414 95 512T245 668T460 726Q595 726 686 661ZM452 583Q377 583 321 544T236 441T207 307Q207 269 221 236L564 549Q519 583 452 583ZM614 484L270 169Q291 149 321 138T390 127Q466 127 521 166T604 267T633 401Q633 444 614 484ZM552 908H715L545 764H423Z" horiz-adv-x="831" unicode="Ǿ"/>
			<glyph d="M572 533L621 477L544 411Q580 361 580 294Q580 210 542 139T435 27T273 -14Q225 -14 182 -1T108 35L23 -38L-24 20L56 88Q39 112 29 143T20 207Q20 288 57 358T164 471T324 513Q423 513 491 464ZM317 385Q274 385 242 363T192 306T175 230Q175 207 180 194L378 366Q354 385 317 385ZM418 308L219 137Q230 127 247 121T283 115Q326 115 358 136T407 193T424 271Q424 293 418 308ZM416 716H579L409 572H287Z" horiz-adv-x="626" unicode="ǿ"/>
			<glyph d="M364 726Q426 726 481 709T573 669L515 538Q488 558 442 575T362 592Q315 592 281 570T248 506Q248 478 269 460T337 426Q434 392 482 343T531 218Q531 138 488 84T378 6T239 -19Q168 -19 101 0T-11 50L42 198Q83 162 138 140T242 119Q290 119 323 140T356 205Q356 239 328 261T246 302Q166 329 122 371T78 492Q78 562 116 615T219 697T364 726ZM150 -45H292L162 -240H39Z" horiz-adv-x="585" unicode="Ș"/>
			<glyph d="M266 513Q319 513 367 496T443 453L367 353Q345 371 314 384T257 397Q228 397 208 386T188 353Q188 337 203 327T253 308Q328 288 366 253T404 158Q404 100 372 61T290 3T180 -16Q123 -16 70 -2T-9 32L33 149Q98 102 180 102Q213 102 233 114T254 147Q254 166 237 177T183 200Q109 222 75 253T41 340Q41 393 71 432T153 492T266 513ZM82 -45H224L94 -240H-29Z" horiz-adv-x="464" unicode="ș"/>
			<glyph d="M85 708H638L593 565H404L304 0H138L237 565H39ZM144 -45H286L156 -240H33Z" horiz-adv-x="553" unicode="Ț"/>
			<glyph d="M303 645L277 498H423L381 377H258L222 182Q219 155 219 151Q219 135 229 125T261 115Q279 115 300 119T337 128L355 16Q290 -12 214 -12Q164 -12 129 7T78 55T61 116Q61 145 66 172L102 377H20L62 498H121L138 595ZM98 -45H240L110 -240H-13Z" horiz-adv-x="415" unicode="ț"/>
			<glyph d="M101 498H262L171 -19Q152 -125 102 -184T-59 -244Q-96 -244 -128 -235L-99 -102Q-84 -107 -65 -107Q-31 -107 -14 -84T10 -19Z" horiz-adv-x="297" unicode="ȷ"/>
			<glyph d="M146 716H292L388 572H263L208 654L125 572H-2Z" unicode="ˆ"/>
			<glyph d="M23 716H149L203 633L286 716H413L266 572H121Z" unicode="ˇ"/>
			<glyph d="M46 877H380L365 793H32Z" unicode="ˉ"/>
			<glyph d="M45 716H127Q127 687 149 673T207 659Q248 659 274 671T309 716H391Q375 642 324 607T202 572Q129 572 87 606T45 716Z" unicode="˘"/>
			<glyph d="M212 740Q246 740 269 718T292 664Q292 627 267 600T204 574Q168 574 145 595T122 650Q122 688 148 714T212 740Z" unicode="˙"/>
			<glyph d="M223 769Q264 769 290 744T316 681Q316 629 282 593T197 557Q156 557 130 582T104 646Q104 698 138 733T223 769ZM218 724Q190 724 171 703T153 652Q153 630 166 616T201 602Q230 602 248 623T267 674Q267 695 253 709T218 724Z" unicode="˚"/>
			<glyph d="M63 4H152Q97 -36 66 -67T36 -127Q36 -154 69 -154Q98 -154 126 -135L147 -196Q89 -236 28 -236Q-15 -236 -41 -216T-68 -153Q-68 -110 -31 -72T63 4Z" unicode="˛"/>
			<glyph d="M332 708H403Q386 650 352 613T267 577Q230 577 195 596Q172 608 158 613T130 618Q99 618 80 576H9Q26 633 60 669T145 705Q181 705 221 685Q259 665 283 665Q314 665 332 708Z" unicode="˜"/>
			<glyph d="M138 716H302L131 572H10ZM358 716H521L350 572H229Z" unicode="˝"/>
			<glyph d="M-205 -45H-63L-193 -240H-316Z" horiz-adv-x="0" unicode="̦"/>
			<glyph d="M197 743H375L249 544H124Z" horiz-adv-x="499" unicode="ʹ"/>
			<glyph d="M249 20H375L302 -179H124Z" horiz-adv-x="499" unicode="͵"/>
			<glyph d="M240 708H468L690 108V0H16V109ZM353 587Q348 557 331 508L202 141H506L376 507Q375 511 365 538T353 587Z" horiz-adv-x="744" unicode="Δ"/>
			<glyph d="M398 715Q501 715 580 678T702 574T746 413Q746 326 706 253T586 138H772V0H441V158Q506 199 532 252T558 391Q558 482 512 529T398 577Q328 577 283 529T238 389Q238 304 263 251T352 158V0H24V138H206Q130 176 90 251T50 412Q50 506 93 574T215 678T398 715Z" horiz-adv-x="792" unicode="Ω"/>
			<glyph d="M66 498H247V243Q247 185 265 158T328 131Q381 131 402 175T424 301V498H606V0H473L447 74H439Q423 33 391 11T325 -10Q292 -10 274 0T243 31H241Q247 -25 247 -84V-240H66Z" horiz-adv-x="672" unicode="μ"/>
			<glyph d="M109 498H756V366H634V173Q634 146 647 133T680 120Q697 120 718 125T756 137V26Q731 11 690 0T608 -10Q523 -10 488 35T453 172V366H320V0H139V366H11V437Z" horiz-adv-x="795" unicode="π"/>
			<glyph d="M71 708H247L268 232H271L491 708H663L701 232H704L915 708H1090L750 0H584L536 484H533L298 0H133ZM386 908H549L658 764H538Z" horiz-adv-x="1014" unicode="Ẁ"/>
			<glyph d="M29 498H196L220 180H223L377 498H538L568 180H571L724 498H892L620 0H459L422 313H420L258 0H97ZM265 716H428L537 572H417Z" horiz-adv-x="856" unicode="ẁ"/>
			<glyph d="M71 708H247L268 232H271L491 708H663L701 232H704L915 708H1090L750 0H584L536 484H533L298 0H133ZM643 908H806L636 764H514Z" horiz-adv-x="1014" unicode="Ẃ"/>
			<glyph d="M29 498H196L220 180H223L377 498H538L568 180H571L724 498H892L620 0H459L422 313H420L258 0H97ZM531 716H694L524 572H402Z" horiz-adv-x="856" unicode="ẃ"/>
			<glyph d="M71 708H247L268 232H271L491 708H663L701 232H704L915 708H1090L750 0H584L536 484H533L298 0H133ZM494 929Q528 929 549 908T571 856Q571 820 547 795T487 770Q453 770 431 790T409 843Q409 880 433 904T494 929ZM714 929Q747 929 768 908T790 856Q790 820 766 795T706 770Q672 770 650 790T628 843Q628 880 652 904T714 929Z" horiz-adv-x="1014" unicode="Ẅ"/>
			<glyph d="M29 498H196L220 180H223L377 498H538L568 180H571L724 498H892L620 0H459L422 313H420L258 0H97ZM376 737Q410 737 431 716T453 664Q453 628 429 603T369 578Q335 578 313 598T291 651Q291 688 315 712T376 737ZM596 737Q629 737 650 716T672 664Q672 628 648 603T588 578Q554 578 532 598T510 651Q510 688 534 712T596 737Z" horiz-adv-x="856" unicode="ẅ"/>
			<glyph d="M35 708H221L322 440L525 708H727L383 301L329 0H163L216 301ZM180 908H343L452 764H332Z" horiz-adv-x="613" unicode="Ỳ"/>
			<glyph d="M32 498H207L259 172L424 498H594L292 -31Q236 -133 170 -178T6 -240L-24 -105Q39 -94 78 -73T140 -10L147 2ZM122 716H285L394 572H274Z" horiz-adv-x="556" unicode="ỳ"/>
			<glyph d="M38 324H290L268 197H15Z" horiz-adv-x="326" unicode="‐"/>
			<glyph d="M39 313H379L361 210H21Z" horiz-adv-x="400" unicode="–"/>
			<glyph d="M39 313H579L561 209H21Z" horiz-adv-x="600" unicode="—"/>
			<glyph d="M39 313H579L561 209H21Z" horiz-adv-x="600" unicode="―"/>
			<glyph d="M245 708L296 662Q259 639 229 607T186 539Q215 532 232 510T250 459Q250 418 221 389T152 361Q114 361 89 386T64 450Q64 534 117 602T245 708Z" horiz-adv-x="294" unicode="‘"/>
			<glyph d="M198 708Q236 708 261 682T286 619Q286 535 232 466T105 361L54 407Q91 430 120 461T164 530Q135 537 117 558T100 610Q100 651 128 679T198 708Z" horiz-adv-x="294" unicode="’"/>
			<glyph d="M128 177Q166 177 191 151T216 88Q216 4 162 -64T35 -170L-16 -124Q21 -101 50 -69T94 -1Q65 6 47 27T30 79Q30 120 58 148T128 177Z" horiz-adv-x="301" unicode="‚"/>
			<glyph d="M255 708L306 662Q269 639 239 607T196 539Q225 532 242 510T260 459Q260 418 231 389T162 361Q124 361 99 386T74 450Q74 534 127 602T255 708ZM495 708L546 662Q509 639 479 607T436 539Q465 532 482 510T500 459Q500 418 471 389T402 361Q364 361 339 386T314 450Q314 534 367 602T495 708Z" horiz-adv-x="500" unicode="“"/>
			<glyph d="M198 708Q236 708 261 682T286 619Q286 535 232 466T105 361L54 407Q91 430 120 461T164 530Q135 537 117 558T100 610Q100 651 128 679T198 708ZM438 708Q476 708 501 682T526 619Q526 535 472 466T345 361L294 407Q331 430 360 461T404 530Q375 537 357 558T340 610Q340 651 368 679T438 708Z" horiz-adv-x="500" unicode="”"/>
			<glyph d="M91 174Q129 174 154 148T179 85Q179 1 125 -67T-2 -173L-53 -127Q-16 -104 13 -72T57 -4Q28 3 10 24T-7 76Q-7 117 21 145T91 174ZM331 174Q369 174 394 148T419 85Q419 1 365 -67T238 -173L187 -127Q224 -104 253 -72T297 -4Q268 3 250 24T233 76Q233 117 261 145T331 174Z" horiz-adv-x="501" unicode="„"/>
			<glyph d="M298 708H437L402 507H596L575 385H380L290 -129H151L242 385H49L71 507H262Z" horiz-adv-x="601" unicode="†"/>
			<glyph d="M299 708H438L406 529H596L576 408H385L343 172H533L513 51H323L291 -129H152L184 51H-5L16 172H205L247 408H58L79 529H267Z" horiz-adv-x="601" unicode="‡"/>
			<glyph d="M250 531Q298 531 338 507T403 442T427 354Q427 306 403 265T338 201T250 177Q202 177 161 201T97 265T73 354Q73 402 97 442T161 507T250 531Z" horiz-adv-x="500" unicode="•"/>
			<glyph d="M138 180Q177 180 203 155T229 94Q229 52 200 22T129 -7Q88 -7 62 17T37 78Q37 121 66 150T138 180ZM472 180Q511 180 537 155T563 94Q563 52 534 22T463 -7Q422 -7 396 17T371 78Q371 121 400 150T472 180ZM806 180Q845 180 871 155T897 94Q897 52 868 22T797 -7Q756 -7 730 17T705 78Q705 121 734 150T806 180Z" horiz-adv-x="1000" unicode="…"/>
			<glyph d="M646 740L718 694L222 -35L151 11ZM267 720Q339 720 384 678T429 570Q429 513 403 466T331 392T229 365Q157 365 111 407T66 517Q66 573 92 619T164 693T267 720ZM258 621Q221 621 197 594T174 529Q174 501 191 482T236 464Q274 464 297 490T321 556Q321 584 304 602T258 621ZM656 342Q728 342 773 300T818 192Q818 135 792 88T720 14T618 -13Q546 -13 500 29T455 139Q455 195 481 241T553 315T656 342ZM1053 342Q1125 342 1170 300T1215 192Q1215 135 1189 88T1117 14T1015 -13Q943 -13 897 29T852 139Q852 195 878 241T950 315T1053 342ZM647 243Q610 243 586 216T563 151Q563 124 580 105T625 86Q663 86 686 112T710 179Q710 206 693 224T647 243ZM1044 243Q1007 243 983 216T960 151Q960 124 977 105T1022 86Q1060 86 1083 112T1107 179Q1107 206 1090 224T1044 243Z" horiz-adv-x="1250" unicode="‰"/>
			<glyph d="M218 487L301 425L153 254L238 84L136 25L17 258Z" horiz-adv-x="317" unicode="‹"/>
			<glyph d="M160 487L281 253L79 23L-5 87L145 261L59 431Z" horiz-adv-x="317" unicode="›"/>
			<glyph d="M346 727Q443 727 503 682T563 545Q563 478 524 427T410 327Q372 302 355 282T334 241L331 224H182L229 504H360L336 391Q366 418 381 437Q401 461 409 482T417 528Q417 561 395 581T331 602Q290 602 243 579T162 526L96 632Q136 673 203 700T346 727ZM249 176Q288 176 313 152T338 92Q338 50 310 21T241 -8Q201 -8 175 15T150 76Q150 118 179 147T249 176Z" horiz-adv-x="543" unicode="‽"/>
			<glyph d="M270 740L342 695L-180 -34L-252 11Z" horiz-adv-x="100" unicode="⁄"/>
			<glyph d="M299 889Q376 889 411 844T447 732Q447 663 426 596T358 483T240 438Q163 438 126 482T89 594Q89 663 110 730T179 843T299 889ZM291 794Q252 794 227 737T203 608Q203 572 213 552T247 533Q272 533 291 560T322 630T333 721Q333 756 323 775T291 794Z" horiz-adv-x="428" unicode="⁰"/>
			<glyph d="M298 881H427L382 620H451L426 531H367L352 446H250L265 531H64L80 621ZM302 761L189 620H280L305 761Z" horiz-adv-x="418" unicode="⁴"/>
			<glyph d="M184 881H445L417 786H262L250 730Q267 733 283 733Q339 733 380 701T422 603Q422 549 394 511T323 455T237 437Q189 437 147 450T80 481L116 570Q140 554 175 542T241 531Q272 531 291 548T311 593Q311 620 290 634T236 649Q191 649 132 633Z" horiz-adv-x="417" unicode="⁵"/>
			<glyph d="M335 886Q392 886 437 867L399 786Q369 801 326 801Q290 801 259 777T216 710Q252 733 299 733Q354 733 391 697T429 609Q429 563 407 524T344 461T249 438Q179 438 131 480T84 598Q84 679 115 745T204 848T335 886ZM266 655Q233 655 213 634T194 582Q194 558 210 544T249 530Q281 530 299 549T318 602Q318 626 303 640T266 655Z" horiz-adv-x="421" unicode="⁶"/>
			<glyph d="M156 881H470L455 796L222 446H90L329 786H124Z" horiz-adv-x="383" unicode="⁷"/>
			<glyph d="M299 889Q357 889 397 861T438 779Q438 737 414 710T355 672V670Q381 658 398 635T415 582Q415 515 367 476T241 438Q182 438 136 467T91 560Q91 605 119 636T188 678V680Q164 693 151 714T138 759Q138 821 186 855T299 889ZM290 802Q267 802 252 788T238 753Q238 735 250 723T281 712Q303 712 318 726T333 763Q333 781 321 791T290 802ZM260 630Q233 630 215 613T197 573Q197 550 212 538T247 526Q276 526 293 542T310 583Q310 604 296 617T260 630Z" horiz-adv-x="413" unicode="⁸"/>
			<glyph d="M291 889Q361 889 408 846T456 729Q456 648 424 582T336 478T205 441Q148 441 103 460L141 541Q171 526 214 526Q250 526 281 549T324 617Q288 594 241 594Q186 594 148 629T111 718Q111 764 133 803T195 865T291 889ZM291 797Q259 797 240 777T222 725Q222 701 237 686T274 672Q307 672 326 692T346 745Q346 769 330 783T291 797Z" horiz-adv-x="421" unicode="⁹"/>
			<glyph d="M220 749H299V623H428V546H300V420H221V546H92V623H220Z" horiz-adv-x="421" unicode="⁺"/>
			<glyph d="M86 643H407V569H86Z" horiz-adv-x="420" unicode="⁻"/>
			<glyph d="M89 728H410V653H89ZM89 615H410V541H89Z" horiz-adv-x="422" unicode="⁼"/>
			<glyph d="M291 934L350 897Q287 828 255 747T223 588Q223 542 234 494T265 411L196 384Q172 427 159 479T146 587Q146 679 183 768T291 934Z" horiz-adv-x="306" unicode="⁽"/>
			<glyph d="M235 920Q259 877 272 824T285 717Q285 625 247 536T140 371L81 407Q143 477 175 557T208 716Q208 763 197 810T166 893Z" horiz-adv-x="306" unicode="⁾"/>
			<glyph d="M214 301Q291 301 326 256T362 144Q362 75 341 8T273 -104T155 -150Q78 -150 41 -106T4 6Q4 75 25 142T94 255T214 301ZM206 206Q167 206 142 149T118 20Q118 -16 128 -35T162 -55Q187 -55 206 -28T237 42T248 133Q248 168 238 187T206 206Z" horiz-adv-x="428" unicode="₀"/>
			<glyph d="M162 291H264L187 -144H73L128 164L44 109L2 190Z" horiz-adv-x="307" unicode="₁"/>
			<glyph d="M205 299Q269 299 310 267T352 178Q352 129 328 97T250 26L149 -47H325L298 -144H-16L0 -52L191 95Q241 132 241 164Q241 184 229 194T195 205Q147 205 131 148L30 170Q49 231 95 265T205 299Z" horiz-adv-x="411" unicode="₂"/>
			<glyph d="M189 294Q251 294 291 262T332 178Q332 139 308 109T251 71Q280 59 296 37T313 -15Q313 -83 265 -120T144 -157Q98 -157 54 -142T-21 -103L24 -13Q44 -32 78 -48T144 -64Q171 -64 187 -50T203 -14Q203 35 131 35H101L114 115H147Q183 115 203 128T223 165Q223 204 177 204Q155 204 133 194T86 165L52 246Q112 294 189 294Z" horiz-adv-x="408" unicode="₃"/>
			<glyph d="M205 289H334L289 28H358L333 -61H274L259 -146H157L172 -61H-29L-13 29ZM209 169L96 28H187L212 169Z" horiz-adv-x="418" unicode="₄"/>
			<glyph d="M94 292H355L327 197H172L160 141Q177 144 193 144Q249 144 290 112T332 14Q332 -40 304 -77T233 -133T147 -152Q99 -152 57 -139T-10 -108L26 -19Q50 -35 85 -46T151 -58Q182 -58 201 -41T221 4Q221 31 200 45T146 60Q101 60 42 44Z" horiz-adv-x="417" unicode="₅"/>
			<glyph d="M241 293Q298 293 343 274L305 193Q275 208 232 208Q196 208 165 184T122 117Q158 140 205 140Q260 140 297 104T335 16Q335 -30 313 -69T250 -131T155 -155Q85 -155 37 -112T-10 5Q-10 86 21 152T110 255T241 293ZM172 62Q139 62 119 41T100 -11Q100 -35 116 -49T155 -63Q187 -63 205 -43T224 9Q224 33 209 47T172 62Z" horiz-adv-x="421" unicode="₆"/>
			<glyph d="M42 292H356L341 207L108 -143H-24L215 197H10Z" horiz-adv-x="383" unicode="₇"/>
			<glyph d="M205 301Q263 301 303 273T344 191Q344 149 320 122T261 84V82Q287 70 304 47T321 -6Q321 -73 273 -111T147 -150Q88 -150 42 -120T-3 -28Q-3 17 25 48T94 90V92Q70 105 57 126T44 171Q44 233 92 267T205 301ZM196 214Q173 214 158 200T144 165Q144 147 156 135T187 124Q209 124 224 138T239 175Q239 193 227 203T196 214ZM166 42Q139 42 121 25T103 -15Q103 -38 118 -50T153 -62Q182 -62 199 -46T216 -5Q216 16 202 29T166 42Z" horiz-adv-x="413" unicode="₈"/>
			<glyph d="M196 304Q266 304 313 261T361 144Q361 63 329 -3T241 -106T110 -144Q53 -144 8 -125L46 -44Q76 -59 119 -59Q155 -59 186 -35T229 32Q193 9 146 9Q91 9 53 44T16 133Q16 179 38 218T100 280T196 304ZM196 212Q164 212 145 192T127 140Q127 116 142 101T179 87Q212 87 231 107T251 160Q251 184 235 198T196 212Z" horiz-adv-x="421" unicode="₉"/>
			<glyph d="M138 215H217V89H346V12H218V-114H139V12H10V89H138Z" horiz-adv-x="421" unicode="₊"/>
			<glyph d="M32 89H353V15H32Z" horiz-adv-x="420" unicode="₋"/>
			<glyph d="M20 146H341V71H20ZM20 33H341V-41H20Z" horiz-adv-x="422" unicode="₌"/>
			<glyph d="M168 338L227 301Q164 232 132 151T100 -8Q100 -55 111 -102T142 -185L73 -212Q49 -169 36 -116T23 -9Q23 83 60 172T168 338Z" horiz-adv-x="306" unicode="₍"/>
			<glyph d="M133 338Q157 295 170 242T183 135Q183 43 145 -46T38 -211L-21 -175Q41 -105 73 -24T106 134Q106 181 95 228T64 311Z" horiz-adv-x="306" unicode="₎"/>
			<glyph d="M508 727Q551 727 594 719T664 697L606 574Q564 598 496 598Q442 598 396 570T325 494H574L524 390H283Q278 377 274 356T270 319H499L449 216H272Q278 170 319 140T422 111Q490 111 549 143L570 20Q540 2 496 -8T400 -19Q315 -19 253 11T157 95T116 216H19L71 319H116Q118 349 129 390H51L106 494H159Q203 599 293 663T508 727Z" horiz-adv-x="644" unicode="€"/>
			<glyph d="M696 740L768 694L221 -35L150 11ZM284 724Q373 724 419 665L340 591Q318 621 280 621Q240 621 214 592T188 522Q188 494 204 476T255 458Q296 458 326 490L387 411Q323 352 240 352Q163 352 115 395T67 508Q67 565 94 614T171 694T284 724ZM697 361Q776 361 827 318T878 206Q878 146 852 96T777 18T664 -11Q586 -11 535 31T484 144Q484 204 510 253T584 332T697 361ZM691 258Q651 258 627 229T603 157Q603 128 620 110T669 92Q710 92 734 121T759 194Q759 223 741 240T691 258Z" horiz-adv-x="934" unicode="℅"/>
			<glyph d="M373 721Q414 721 445 703T495 654T513 586Q513 504 451 428T249 263Q224 163 224 140Q224 120 235 109T264 99Q282 99 304 108T361 138H363L401 48Q354 16 309 1T216 -14Q145 -14 106 20T68 112Q68 123 75 162L17 122H15L-26 210L102 292L150 521Q170 613 229 667T373 721ZM356 619Q326 619 313 560L278 398Q325 437 354 485T384 579Q384 596 376 607T356 619Z" horiz-adv-x="500" unicode="ℓ"/>
			<glyph d="M401 730Q504 730 591 679T729 542T780 353Q780 250 729 164T591 28T401 -22Q298 -22 210 28T71 164T20 353Q20 456 71 542T210 679T401 730ZM401 674Q314 674 240 631T123 514T80 353Q80 266 123 193T239 77T399 34Q486 34 559 77T676 193T720 353Q720 440 677 514T561 631T401 674ZM260 569H438Q518 569 566 532T615 421Q615 347 565 308T438 270H379V125H260ZM379 473V366H434Q465 366 481 379T498 420Q498 446 481 459T436 473Z" horiz-adv-x="800" unicode="℗"/>
			<glyph d="M120 708H466V613H348V296H238V613H120ZM541 708H691L786 448L878 708H1028V296H922V555H920L823 296H744L648 555H646V296H541Z" horiz-adv-x="1000" unicode="™"/>
			<glyph d="M398 715Q501 715 580 678T702 574T746 413Q746 326 706 253T586 138H772V0H441V158Q506 199 532 252T558 391Q558 482 512 529T398 577Q328 577 283 529T238 389Q238 304 263 251T352 158V0H24V138H206Q130 176 90 251T50 412Q50 506 93 574T215 678T398 715Z" horiz-adv-x="792" unicode="Ω"/>
			<glyph d="M302 535Q378 535 436 500T528 402T561 259H157V78Q216 19 302 19Q365 19 411 47T495 139L530 118Q484 46 432 14T302 -17Q225 -17 166 19T76 119T44 259Q44 336 76 399T166 498T302 535ZM301 500Q217 500 157 440V295H448V440Q385 500 301 500Z" horiz-adv-x="500" unicode="℮"/>
			<glyph d="M613 740L685 695L163 -34L91 11ZM236 708H338L261 273H147L202 581L118 526L76 607ZM628 442Q690 442 730 410T771 326Q771 287 747 257T690 219Q719 207 735 185T752 133Q752 65 704 28T583 -9Q537 -9 493 5T418 45L463 135Q483 116 517 100T583 84Q610 84 626 97T642 134Q642 183 570 183H540L553 263H586Q622 263 642 276T662 313Q662 352 616 352Q594 352 572 342T525 313L491 394Q551 442 628 442Z" horiz-adv-x="792" unicode="⅓"/>
			<glyph d="M745 740L817 695L295 -34L223 11ZM274 717Q338 717 379 685T421 596Q421 547 397 515T319 444L218 371H394L367 274H53L69 366L260 513Q310 550 310 582Q310 602 298 612T264 623Q216 623 200 566L99 588Q118 649 164 683T274 717ZM760 442Q822 442 862 410T903 326Q903 287 879 257T822 219Q851 207 867 185T884 133Q884 65 836 28T715 -9Q669 -9 625 5T550 45L595 135Q615 116 649 100T715 84Q742 84 758 97T774 134Q774 183 702 183H672L685 263H718Q754 263 774 276T794 313Q794 352 748 352Q726 352 704 342T657 313L623 394Q683 442 760 442Z" horiz-adv-x="944" unicode="⅔"/>
			<glyph d="M621 740L693 695L171 -34L99 11ZM236 708H338L261 273H147L202 581L118 526L76 607ZM661 450Q719 450 754 424T789 351Q789 320 773 292T728 245Q754 232 768 207T783 153Q783 103 755 66T683 9T588 -10Q521 -10 476 21T432 108Q432 151 458 188T528 245Q497 270 497 312Q497 355 520 386T581 433T661 450ZM648 369Q628 369 611 354T594 317Q594 301 605 290T635 280Q656 280 672 296T689 333Q689 349 677 359T648 369ZM619 201Q590 201 567 179T545 127Q545 103 559 89T598 76Q629 76 651 96T673 152Q673 174 658 187T619 201Z" horiz-adv-x="839" unicode="⅛"/>
			<glyph d="M653 740L725 695L203 -34L131 11ZM223 716Q285 716 325 684T366 600Q366 561 342 531T285 493Q314 481 330 459T347 407Q347 339 299 302T178 265Q132 265 88 279T13 319L58 409Q78 390 112 374T178 358Q205 358 221 371T237 408Q237 457 165 457H135L148 537H181Q217 537 237 550T257 587Q257 626 211 626Q189 626 167 616T120 587L86 668Q146 716 223 716ZM673 450Q731 450 766 424T801 351Q801 320 785 292T740 245Q766 232 780 207T795 153Q795 103 767 66T695 9T600 -10Q533 -10 488 21T444 108Q444 151 470 188T540 245Q509 270 509 312Q509 355 532 386T593 433T673 450ZM660 369Q640 369 623 354T606 317Q606 301 617 290T647 280Q668 280 684 296T701 333Q701 349 689 359T660 369ZM631 201Q602 201 579 179T557 127Q557 103 571 89T610 76Q641 76 663 96T685 152Q685 174 670 187T631 201Z" horiz-adv-x="811" unicode="⅜"/>
			<glyph d="M653 740L725 695L203 -34L131 11ZM128 709H389L361 614H206L194 558Q211 561 227 561Q283 561 324 529T366 431Q366 377 338 339T267 283T181 265Q133 265 91 278T24 309L60 398Q84 382 119 370T185 359Q216 359 235 376T255 421Q255 448 234 462T180 477Q135 477 76 461ZM673 450Q731 450 766 424T801 351Q801 320 785 292T740 245Q766 232 780 207T795 153Q795 103 767 66T695 9T600 -10Q533 -10 488 21T444 108Q444 151 470 188T540 245Q509 270 509 312Q509 355 532 386T593 433T673 450ZM660 369Q640 369 623 354T606 317Q606 301 617 290T647 280Q668 280 684 296T701 333Q701 349 689 359T660 369ZM631 201Q602 201 579 179T557 127Q557 103 571 89T610 76Q641 76 663 96T685 152Q685 174 670 187T631 201Z" horiz-adv-x="811" unicode="⅝"/>
			<glyph d="M594 740L666 695L144 -34L72 11ZM113 708H427L412 623L179 273H47L286 613H96ZM633 450Q691 450 726 424T761 351Q761 320 745 292T700 245Q726 232 740 207T755 153Q755 103 727 66T655 9T560 -10Q493 -10 448 21T404 108Q404 151 430 188T500 245Q469 270 469 312Q469 355 492 386T553 433T633 450ZM620 369Q600 369 583 354T566 317Q566 301 577 290T607 280Q628 280 644 296T661 333Q661 349 649 359T620 369ZM591 201Q562 201 539 179T517 127Q517 103 531 89T570 76Q601 76 623 96T645 152Q645 174 630 187T591 201Z" horiz-adv-x="811" unicode="⅞"/>
			<glyph d="M299 721Q404 721 469 668T561 533T589 359Q589 207 529 97T316 -13Q244 -13 188 18T100 104T69 229Q69 295 98 347T181 428T309 457Q374 457 427 428Q427 438 426 443Q421 500 388 541T298 582Q260 582 227 568T161 516L84 628Q177 721 299 721ZM328 328Q283 328 259 299T235 222Q235 177 258 148T319 120Q368 120 394 165T420 292Q373 328 328 328Z" horiz-adv-x="666" unicode="∂"/>
			<glyph d="M240 708H468L690 108V0H16V109ZM353 587Q348 557 331 508L202 141H506L376 507Q375 511 365 538T353 587Z" horiz-adv-x="744" unicode="∆"/>
			<glyph d="M59 786H695V-214H543V653H210V-214H59Z" horiz-adv-x="753" unicode="∏"/>
			<glyph d="M38 786H632V653H230L486 293L213 -81H644V-214H26V-103L318 292L38 675Z" horiz-adv-x="666" unicode="∑"/>
			<glyph d="M68 365H598V242H68Z" horiz-adv-x="666" unicode="−"/>
			<glyph d="M270 740L342 695L-180 -34L-252 11Z" horiz-adv-x="100" unicode="∕"/>
			<glyph d="M155 387Q194 387 219 362T245 301Q245 259 216 229T146 200Q105 200 79 224T54 285Q54 328 83 357T155 387Z" unicode="∙"/>
			<glyph d="M434 786H579L365 -214H239L94 86L43 62L-11 176L164 255L276 16Z" horiz-adv-x="569" unicode="√"/>
			<glyph d="M610 453Q665 453 706 428T770 361T792 266Q792 213 770 169T706 100T609 75Q553 75 507 102T419 178Q372 128 330 102T231 76Q175 76 133 100T68 168T45 265Q45 317 67 360T130 427T227 452Q286 452 330 423T419 343Q462 394 506 423T610 453ZM607 334Q578 334 550 313T493 262Q555 194 610 194Q639 194 656 213T674 263Q674 294 656 314T607 334ZM227 333Q199 333 181 312T163 263Q163 232 181 213T230 195Q281 195 344 262Q273 333 227 333Z" horiz-adv-x="837" unicode="∞"/>
			<glyph d="M396 785Q439 785 479 762T519 696Q519 668 500 648T453 629Q432 629 421 639T400 668Q395 679 390 684T380 689Q369 689 369 644L370 599Q371 584 371 553V113Q371 -4 359 -72T312 -177T203 -214Q157 -214 118 -191T79 -122Q79 -98 99 -78T146 -58Q166 -58 176 -68T197 -96Q203 -106 207 -111T216 -116Q228 -116 228 -69Q229 -53 227 -23L226 11V507Q226 587 235 644T282 743T396 785Z" horiz-adv-x="633" unicode="∫"/>
			<glyph d="M188 468Q215 468 243 460T313 438Q352 424 379 416T433 409Q475 409 483 468H580Q572 377 529 326T419 276Q390 276 358 285T280 311Q239 326 215 333T173 340Q153 340 140 324T122 285H26Q33 363 72 415T188 468ZM182 257Q210 257 239 249T308 226Q350 211 378 203T433 196Q470 196 482 247H579Q570 169 533 116T420 63Q391 63 359 72T278 99Q239 114 215 121T172 128Q152 128 138 111T120 66H24Q31 145 70 201T182 257Z" horiz-adv-x="666" unicode="≈"/>
			<glyph d="M402 593L517 538L470 448H569V321H405L362 237H569V110H296L222 -36L107 20L154 110H52V237H219L262 321H52V448H327Z" horiz-adv-x="666" unicode="≠"/>
			<glyph d="M587 685V549L281 418L587 291V154L79 368V471ZM79 141H587V18H79Z" horiz-adv-x="666" unicode="≤"/>
			<glyph d="M79 685L587 471V368L79 154V291L385 418L79 549ZM79 141H587V18H79Z" horiz-adv-x="666" unicode="≥"/>
			<glyph d="M243 747H362L546 356L362 -35H242L61 356ZM302 597L201 356L302 115L405 356Z" horiz-adv-x="606" unicode="◊"/>
			<glyph d="M0 718H512V0H0ZM50 667V50H462V667ZM259 609Q313 609 348 573T383 478Q383 445 370 418T320 358Q294 334 284 320T273 292T271 234H225L223 251Q223 289 228 311T245 349T282 391Q313 422 322 438T332 474Q332 510 309 534T256 559Q223 559 201 536T174 464L124 472Q131 541 167 575T259 609ZM222 184H278V117H222Z" horiz-adv-x="512" unicode=""/>
			<glyph d="M367 775Q392 775 423 770T472 759L434 631Q422 635 402 638T366 642Q300 642 287 551L278 498H462L471 546Q490 665 544 720T709 775Q734 775 765 770T814 759L776 631Q764 635 744 638T708 642Q642 642 629 551L620 498H752L711 378H601L534 0H377L444 378H259L192 0H35L102 378H11L52 498H120L129 546Q148 665 202 720T367 775Z" horiz-adv-x="703" unicode="ﬀ"/>
			<glyph d="M367 775Q392 775 423 770T472 759L434 631Q422 635 402 638T366 642Q300 642 287 551L278 498H410L369 378H259L192 0H35L102 378H11L52 498H120L129 546Q148 665 202 720T367 775ZM573 745Q610 745 634 722T658 665Q658 625 631 597T565 569Q527 569 502 592T478 649Q478 689 505 717T573 745ZM463 498H624L535 0H376Z" horiz-adv-x="659" unicode="ﬁ"/>
			<glyph d="M367 775Q392 775 423 770T472 759L434 631Q422 635 402 638T366 642Q300 642 287 551L278 498H410L369 378H259L192 0H35L102 378H11L52 498H120L129 546Q148 665 202 720T367 775ZM675 776L580 235Q576 209 576 199Q575 167 585 145T620 102L502 -20Q405 38 405 158Q405 183 410 215L506 756Z" horiz-adv-x="659" unicode="ﬂ"/>
			<glyph d="M367 775Q392 775 423 770T472 759L434 631Q422 635 402 638T366 642Q300 642 287 551L278 498H462L471 546Q490 665 544 720T709 775Q734 775 765 770T814 759L776 631Q764 635 744 638T708 642Q642 642 629 551L620 498H752L711 378H601L534 0H377L444 378H259L192 0H35L102 378H11L52 498H120L129 546Q148 665 202 720T367 775ZM916 745Q953 745 977 722T1001 665Q1001 625 974 597T908 569Q870 569 845 592T821 649Q821 689 848 717T916 745ZM806 498H967L878 0H719Z" horiz-adv-x="1002" unicode="ﬃ"/>
			<glyph d="M367 775Q392 775 423 770T472 759L434 631Q422 635 402 638T366 642Q300 642 287 551L278 498H462L471 546Q490 665 544 720T709 775Q734 775 765 770T814 759L776 631Q764 635 744 638T708 642Q642 642 629 551L620 498H752L711 378H601L534 0H377L444 378H259L192 0H35L102 378H11L52 498H120L129 546Q148 665 202 720T367 775ZM1017 776L922 235Q918 209 918 199Q917 167 927 145T962 102L844 -20Q747 38 747 158Q747 183 752 215L848 756Z" horiz-adv-x="1002" unicode="ﬄ"/>
		</font>
</defs>
</svg>
